Subcategories

Electric Light Orchestra - On The Third Day (1973) {2006, Japanese Limited Edition, Remastered} Repost

Posted By: popsakov
Electric Light Orchestra - On The Third Day (1973) {2006, Japanese Limited Edition, Remastered} Repost

Electric Light Orchestra - On The Third Day (1973) {2006, Japanese Limited Edition, Remastered}
EAC Rip | FLAC (Img) + Cue + Log ~ 362 Mb | MP3 CBR320 ~ 138 Mb
Full Scans (JPG, 600 dpi) ~ 43 Mb | RAR 5% Recovery
Progressive Rock, Symphonic Rock | Epic / Jet Records / Sony Music Direct #MHCP 1094

Electric Light Orchestra's third album showed a marked advancement, with a fuller, more cohesive sound from the band as a whole and major improvements in Jeff Lynne's singing and songwriting. This is where the band took on its familiar sound, Lynne's voice suddenly showing an attractive expressiveness reminiscent of John Lennon in his early solo years, and also sporting a convincing white British soulful quality that was utterly lacking earlier. The group also plugged the holes that made its work seem so close to being ragged on those earlier records. "Showdown" and "Ma-Ma-Ma Belle" (the latter featuring Marc Bolan on double lead guitar with Lynne) became AM radio fixtures while "Daybreaker" became a concert opener for the group and, along with "In the Hall of the Mountain King," kept the group's FM/art rock credentials in order.
~ Bruce Eder, All Music

***************

Electric Light Orchestra - On The Third Day (1973) {2006, Japanese Limited Edition, Remastered} Repost

Electric Light Orchestra - On The Third Day (1973) {2006, Japanese Limited Edition, Remastered} Repost

Track List:

01. Ocean Breakup/King Of The Universe [4:07]
02. Bluebird Is Dead [4:43]
03. Oh No Not Susan [3:07]
04. New World Rising/Ocean Breakup [Reprise] [4:05]
05. Showdown [4:09]
06. Daybreaker [3:51]
07. Ma-Ma-Ma Belle [3:57]
08. Dreaming Of 4000 [5:04]
09. In The Hall Of The Mountain King [6:38]
Bonus Tracks:
10. Auntie (Ma-Ma-Ma Belle) [Take 1] [1:19]
11. Auntie (Ma-Ma-Ma Belle) [Take 2] [4:05]
12. Mambo (Dreaming Of 4000) (Alternate Mix) [5:05]
13. Everyone's Born To Die [3:43]
14. Interludes [3:41]

Personnel:
Jeff Lynne – vocals, guitars
Bev Bevan – drums, percussion
Richard Tandy – piano, Moog, clavinet, Wurlitzer electric piano
Mike de Albuquerque – bass, backing vocals
Mike Edwards – cello
Mik Kaminski – violin (on tracks 1–4)
Ted Blight – cello

Additional personnel:
Marc Bolan - guitar (on tracks 7, 8, 10–13)
Wilf Gibson – violin (on tracks 5–14)
Colin Walker – cello (on tracks 5–14)

Exact Audio Copy V0.99 prebeta 5 from 4. May 2009

EAC extraction logfile from 13. February 2010, 16:47

Electric Light Orchestra / On The Third Day

Used drive : HL-DT-STDVD-RAM GH22NP20 Adapter: 0 ID: 0

Read mode : Secure
Utilize accurate stream : Yes
Defeat audio cache : Yes
Make use of C2 pointers : No

Read offset correction : 102
Overread into Lead-In and Lead-Out : No
Fill up missing offset samples with silence : Yes
Delete leading and trailing silent blocks : No
Null samples used in CRC calculations : Yes
Used interface : Native Win32 interface for Win NT & 2000

Used output format : Internal WAV Routines
Sample format : 44.100 Hz; 16 Bit; Stereo


TOC of the extracted CD

Track | Start | Length | Start sector | End sector
––––––––––––––––––––––––––––-
1 | 0:00.00 | 4:07.02 | 0 | 18526
2 | 4:07.02 | 4:42.58 | 18527 | 39734
3 | 8:49.60 | 3:07.15 | 39735 | 53774
4 | 11:57.00 | 4:05.05 | 53775 | 72154
5 | 16:02.05 | 4:09.17 | 72155 | 90846
6 | 20:11.22 | 3:51.26 | 90847 | 108197
7 | 24:02.48 | 3:56.45 | 108198 | 125942
8 | 27:59.18 | 5:04.24 | 125943 | 148766
9 | 33:03.42 | 6:37.59 | 148767 | 178600
10 | 39:41.26 | 1:19.12 | 178601 | 184537
11 | 41:00.38 | 4:05.11 | 184538 | 202923
12 | 45:05.49 | 5:05.12 | 202924 | 225810
13 | 50:10.61 | 3:43.27 | 225811 | 242562
14 | 53:54.13 | 3:40.46 | 242563 | 259108


Range status and errors

Selected range

Filename C:\Electric Light Orchestra (1973) On The Third Day\Electric Light Orchestra - On The Third Day.wav

Peak level 99.9 %
Range quality 99.9 %
Copy CRC C0DEE605
Copy OK

No errors occurred


AccurateRip summary

Track 1 accurately ripped (confidence 2) [A62D1D1C]
Track 2 accurately ripped (confidence 2) [23706366]
Track 3 accurately ripped (confidence 2) [BA604992]
Track 4 accurately ripped (confidence 2) [B2E1FB6F]
Track 5 accurately ripped (confidence 2) [81CEB3EF]
Track 6 accurately ripped (confidence 2) [68CB15B8]
Track 7 accurately ripped (confidence 2) [52152A52]
Track 8 accurately ripped (confidence 2) [AA95EA3B]
Track 9 accurately ripped (confidence 2) [E484C348]
Track 10 accurately ripped (confidence 2) [D7E55148]
Track 11 accurately ripped (confidence 2) [25ED44E6]
Track 12 accurately ripped (confidence 2) [F2370AED]
Track 13 accurately ripped (confidence 2) [DA2B214D]
Track 14 accurately ripped (confidence 2) [6D52C3EC]

All tracks accurately ripped

End of status report

foobar2000 1.3.16 / Dynamic Range Meter 1.1.1
log date: 2018-06-21 12:19:03

––––––––––––––––––––––––––––––––––––––––
Analyzed: Electric Light Orchestra / On The Third Day
––––––––––––––––––––––––––––––––––––––––

DR Peak RMS Duration Track
––––––––––––––––––––––––––––––––––––––––
DR9 -0.01 dB -11.96 dB 4:07 01-Ocean Breakup/King Of The Universe
DR11 -0.01 dB -13.15 dB 4:43 02-Bluebird Is Dead
DR9 -0.01 dB -11.82 dB 3:07 03-Oh No Not Susan
DR9 -0.01 dB -12.14 dB 4:05 04-New World Rising/Ocean Breakup [Reprise]
DR10 -0.01 dB -12.06 dB 4:09 05-Showdown
DR10 -0.01 dB -11.80 dB 3:51 06-Daybreaker
DR9 -0.01 dB -10.86 dB 3:57 07-Ma-Ma-Ma Belle
DR11 -0.01 dB -13.36 dB 5:04 08-Dreaming Of 4000
DR10 -0.01 dB -13.07 dB 6:38 09-In The Hall Of The Mountain King
DR12 -3.00 dB -17.09 dB 1:19 10-Auntie (Ma-Ma-Ma Belle) [Take 1]
DR9 -1.00 dB -12.36 dB 4:05 11-Auntie (Ma-Ma-Ma Belle) [Take 2]
DR10 -1.51 dB -13.55 dB 5:05 12-Mambo (Dreaming Of 4000) (Alternate Mix)
DR10 -1.00 dB -12.56 dB 3:43 13-Everyone's Born To Die
DR13 -0.71 dB -21.01 dB 3:41 14-Interludes
––––––––––––––––––––––––––––––––––––––––

Number of tracks: 14
Official DR value: DR10

Samplerate: 44100 Hz
Channels: 2
Bits per sample: 16
Bitrate: 838 kbps
Codec: FLAC
================================================================================

[CUETools log; Date: 21.06.2018 12:18:11; Version: 2.1.6]
[CTDB TOCID: KHksLYGmWNhgCIYiaBhU69eJurA-] found.
Track | CTDB Status
1 | (34/34) Accurately ripped
2 | (34/34) Accurately ripped
3 | (34/34) Accurately ripped
4 | (34/34) Accurately ripped
5 | (34/34) Accurately ripped
6 | (34/34) Accurately ripped
7 | (34/34) Accurately ripped
8 | (34/34) Accurately ripped
9 | (34/34) Accurately ripped
10 | (34/34) Accurately ripped
11 | (34/34) Accurately ripped
12 | (34/34) Accurately ripped
13 | (34/34) Accurately ripped
14 | (34/34) Accurately ripped
[AccurateRip ID: 001dc705-013e25ce-bb0d7e0e] found.
Track [ CRC | V2 ] Status
01 [a62d1d1c|ed918c44] (04+16/20) Accurately ripped
02 [23706366|587f7be0] (04+16/20) Accurately ripped
03 [ba604992|61c18264] (04+16/20) Accurately ripped
04 [b2e1fb6f|216698c9] (04+16/20) Accurately ripped
05 [81ceb3ef|b2cab1fd] (04+16/20) Accurately ripped
06 [68cb15b8|1a367d0f] (04+16/20) Accurately ripped
07 [52152a52|f8245168] (04+16/20) Accurately ripped
08 [aa95ea3b|94da58a4] (04+16/20) Accurately ripped
09 [e484c348|588a9b93] (04+16/20) Accurately ripped
10 [d7e55148|8ab8260b] (03+15/18) Accurately ripped
11 [25ed44e6|b3b4a97d] (03+15/18) Accurately ripped
12 [f2370aed|139d2fb5] (03+15/18) Accurately ripped
13 [da2b214d|dfb471b1] (03+15/18) Accurately ripped
14 [6d52c3ec|294fa447] (02+13/15) Accurately ripped

Track Peak [ CRC32 ] [W/O NULL] [ LOG ]
– 99,9 [C0DEE605] [ADFC3524] CRC32
01 99,9 [E7D7C1AF] [2271E546]
02 99,9 [F74F46BA] [6BFE07F8]
03 99,9 [3229CF49] [C3BFEFC7]
04 99,9 [45DA669A] [DD664E91]
05 99,9 [AB6D9C88] [CB23D523]
06 99,9 [3084CDB7] [2F5F3611]
07 99,9 [F9E2AA6E] [A7489E6A]
08 99,9 [893E9A83] [6B06F74B]
09 99,9 [E9FE1660] [D30AB5B2]
10 70,8 [CA64BC75] [5AB78460]
11 89,1 [4509A085] [BFFB3BBF]
12 84,0 [024E77E3] [B6B10046]
13 89,1 [69AE4F3E] [F72F6A2B]
14 92,1 [25BA9D1D] [6C56FB97]

All thanks go to the original ripper(s) …

>>> Electric Light Orchestra in my Blog <<<

Download from icerbox.com: