Subcategories

Electric Light Orchestra - Out of the Blue - Live at Wembley (2015) [BRRip 1080p]

Posted By: juanchito
Electric Light Orchestra - Out of the Blue - Live at Wembley (2015) [BRRip 1080p]

Electric Light Orchestra - Out of the Blue - Live at Wembley (2015)
BRRip 1080p | MKV | 1920x1080 (16:9) at 29.970 fps, AVC (High@L4.1) | 9.60 GB
Audio: 640 Kbps, 48 kHz, 24 bits, 6 channels, AC-3 | Length: 2h 46mn
Genre: Rock, Art Rock | Nitroflare/Filefactory


Eagle Vision's SD Blu-ray range presents upscaled standard definition original material with uncompressed stereo and DTS-HD Master Audio surround sound for the best possible quality. The Electric Light Orchestra are one of the most successful British bands of all time. Formed after the break-up of The Move in 1970, they pioneered the integration of orchestral instruments into pop music and released a series of groundbreaking and increasingly successful albums through the seventies that culminated in the multi-million selling Out Of The Blue . The main concert on this SD Blu-ray release is from the world tour for that album featuring their legendary spaceship stage design and was filmed at London s Wembley Arena in 1978. This show is combined with a wealth of bonus material to give an overview of E.L.O. performances right through the seventies.

Electric Light Orchestra - Out of the Blue - Live at Wembley (2015) [BRRip 1080p]

Electric Light Orchestra - Out of the Blue - Live at Wembley (2015) [BRRip 1080p]


Track List:
01. Introduction
02. Standing In The Rain
03. Night In The City
04. Turn To Stone
05. Tightrope
06. Telephone Line
07. Rockaria!
08. Wild West Hero
09. Showdown
10. Sweet Talkin Woman
11. Mr Blue Sky
12. Do Ya
13. Livin Thing
14. Roll Over Beethoven


• Live At Brunel University 1973
01. King Of The Universe
02. Ma-Ma-Ma Belle
03. In The Hall Of The Mountain King
04. Great Balls Of Fire

• Live On Rockpalast 1974
01. Daybreaker
02. Showdown
03. Day Tripper
04. Orange Blossom Special
05. Ma-Ma-Ma Belle
06. In The Hall Of The Mountain King
07. Great Balls Of Fire
08. Roll Over Beethoven

• Rockpalast Interview 1974

• Fusion 1976
01. Poker
02. Nightrider
03. Showdown
04. Eldorado Overture
05. Can t Get It Out Of My Head
06. Poor Boy (The Greenwood)
07. Illusions In G Major
08. Strange Magic
09. 10538 Overture
10. Do Ya
11. Evil Woman
12. Ma-Ma-Ma Belle
13. Roll Over Beethoven

• Discovery 1979

01. Shine A Little Love
02. Confusion
03. Need Her Love
04. Diary Of Horace Wimp
05. Last Train To London
06. Midnight Blue
07. Wishing
08. Don t Bring Me Down


General
Unique ID : 209664207442533991920642949240850468755 (0x9DBBDB879BE854D7828FEFDA773FCF93)
Complete name : C:\Users\ggu\Desktop\ggu\Electric Light Orchestra - Out of the Blue - Live at Wembley (2015)-alE13\Electric Light Orchestra-Out of the Blue-Live at Wembley (2015)-alE13 (1).mkv
Format : Matroska
Format version : Version 4 / Version 2
File size : 7.72 GiB
Duration : 2h 46mn
Overall bit rate mode : Variable
Overall bit rate : 6 641 Kbps
Movie name : Electric Light Orchestra-Out of the Blue-Live at Wembley (2015)-alE13
Encoded date : UTC 2016-01-31 12:02:18
Writing application : mkvmerge v8.1.0 ('Psychedelic Postcard') 64bit
Writing library : libebml v1.3.1 + libmatroska v1.4.2
DURATION : 02:46:28.064000000
NUMBER_OF_FRAMES : 312122
NUMBER_OF_BYTES : 799032320
_STATISTICS_WRITING_APP : mkvmerge v8.1.0 ('Psychedelic Postcard') 64bit
_STATISTICS_WRITING_DATE_UTC : 2016-01-31 12:02:18
_STATISTICS_TAGS : BPS DURATION NUMBER_OF_FRAMES NUMBER_OF_BYTES

Video
ID : 1
Format : AVC
Format/Info : Advanced Video Codec
Format profile : High@L4.0
Format settings, CABAC : Yes
Format settings, ReFrames : 3 frames
Codec ID : V_MPEG4/ISO/AVC
Duration : 2h 46mn
Bit rate mode : Variable
Bit rate : 5 868 Kbps
Maximum bit rate : 20.0 Mbps
Width : 1 920 pixels
Height : 1 080 pixels
Display aspect ratio : 16:9
Frame rate mode : Constant
Frame rate : 29.970 fps
Standard : PAL
Color space : YUV
Chroma subsampling : 4:2:0
Bit depth : 8 bits
Scan type : Progressive
Bits/(Pixel*Frame) : 0.094
Stream size : 6.82 GiB (88%)
Title : Electric Light Orchestra - Out of the Blue - Live at Wembley (2015)-alE13
Default : Yes
Forced : No
Color primaries : BT.709
Transfer characteristics : BT.709
Matrix coefficients : BT.709
Color range : Limited

Audio
ID : 2
Format : AC-3
Format/Info : Audio Coding 3
Mode extension : CM (complete main)
Format settings, Endianness : Big
Codec ID : A_AC3
Duration : 2h 46mn
Bit rate mode : Constant
Bit rate : 640 Kbps
Channel(s) : 6 channels
Channel positions : Front: L C R, Side: L R, LFE
Sampling rate : 48.0 KHz
Bit depth : 16 bits
Compression mode : Lossy
Stream size : 762 MiB (10%)
Title : Electric Light Orchestra - Out of the Blue - Live at Wembley (2015)-alE13_AC3
Language : English
Default : No
Forced : No


General
Unique ID : 245137579210093285741205306896181541873 (0xB86BC7CA3AD34E5E94496097B26ABBF1)
Complete name : C:\Users\ggu\Desktop\ggu\Electric Light Orchestra - Out of the Blue - Live at Wembley (2015)-alE13\Electric Light Orchestra- Discovery (1979-alE13.mkv
Format : Matroska
Format version : Version 4 / Version 2
File size : 1.79 GiB
Duration : 39mn 0s
Overall bit rate mode : Variable
Overall bit rate : 6 588 Kbps
Movie name : Electric Light Orchestra- Discovery (1979-alE13
Encoded date : UTC 2016-01-31 12:08:19
Writing application : mkvmerge v8.1.0 ('Psychedelic Postcard') 64bit
Writing library : libebml v1.3.1 + libmatroska v1.4.2
DURATION : 00:39:00.128000000
NUMBER_OF_FRAMES : 73129
NUMBER_OF_BYTES : 187210240
_STATISTICS_WRITING_APP : mkvmerge v8.1.0 ('Psychedelic Postcard') 64bit
_STATISTICS_WRITING_DATE_UTC : 2016-01-31 12:08:19
_STATISTICS_TAGS : BPS DURATION NUMBER_OF_FRAMES NUMBER_OF_BYTES

Video
ID : 1
Format : AVC
Format/Info : Advanced Video Codec
Format profile : High@L4.0
Format settings, CABAC : Yes
Format settings, ReFrames : 3 frames
Codec ID : V_MPEG4/ISO/AVC
Duration : 39mn 0s
Bit rate mode : Variable
Bit rate : 5 817 Kbps
Maximum bit rate : 20.0 Mbps
Width : 1 920 pixels
Height : 1 080 pixels
Display aspect ratio : 16:9
Frame rate mode : Constant
Frame rate : 29.970 fps
Standard : PAL
Color space : YUV
Chroma subsampling : 4:2:0
Bit depth : 8 bits
Scan type : Progressive
Bits/(Pixel*Frame) : 0.094
Stream size : 1.58 GiB (88%)
Title : Electric Light Orchestra- Discovery (1979-alE13
Default : Yes
Forced : No
Color primaries : BT.709
Transfer characteristics : BT.709
Matrix coefficients : BT.709
Color range : Limited

Audio
ID : 2
Format : AC-3
Format/Info : Audio Coding 3
Mode extension : CM (complete main)
Format settings, Endianness : Big
Codec ID : A_AC3
Duration : 39mn 0s
Bit rate mode : Constant
Bit rate : 640 Kbps
Channel(s) : 2 channels
Channel positions : Front: L R
Sampling rate : 48.0 KHz
Bit depth : 16 bits
Compression mode : Lossy
Stream size : 179 MiB (10%)
Title : Electric Light Orchestra- Discovery (1979-alE13
Language : English
Default : Yes
Forced : No




Thanks to the original uploader