Subcategories

Electric Light Orchestra - Secret Messages (1983) [1990, US Release] Repost

Posted By: v3122
Electric Light Orchestra - Secret Messages (1983) [1990, US Release] Repost

Electric Light Orchestra - Secret Messages (1983) [1990, US Release]
XLD Rip | Flac(Image) + Cue + Log & iPod M4A(Tracks) & MP3 CBR 320Kbps
Progressive / Art / Classic Rock | JET Records | ZK 38490 | ~ 329 or 330 or 121 Mb
Covers(jpg) Included | Scans(Tiff, 300 dpi) -> 124 Mb

In the early '80s, another wave of backward-masking hysteria hit the national scene, with unfounded claims that popular rock bands intentionally hid Satanic messages in their records. ELO had already been hit with this rumor for a song on their album ELDORADO, and on the following album's "Fire on High," Jeff Lynne deliberately placed an obvious backwards message. Because the initial prank worked so well, Lynne did not only did it again in this album's opening–the message is simply the album's title–but named the album in honor of the hysteria. SECRET MESSAGES proves that Lynne's artistic vision, like his sense of humor, was undimmed. Tracks like the psychedelically tinged "Loser Gone Wild" and the delicate "Bluebird" are as strong as anything he'd previously done, and the rockabillyish "Rock and Roll Is King" even pays tribute to the '50s-influenced style of his former bandmate Roy Wood.
Electric Light Orchestra - Secret Messages (1983) [1990, US Release] Repost

Electric Light Orchestra - Secret Messages (1983):

Electric Light Orchestra - Secret Messages (1983) [1990, US Release] Repost

Tracklist:

01. "Secret Messages" - 4:44
02. "Loser Gone Wild" - 5:27
03. "Bluebird" - 4:13
04. "Take Me On and On" - 4:57
05. "Time After Time" - 4:01
06. "Four Little Diamonds" - 4:05
07. "Stranger" - 4:27
08. "Danger Ahead" - 3:52
09. "Letter from Spain" - 2:51
10. "Train of Gold" - 4:20
11. "Rock 'n' Roll Is King" - 3:49

X Lossless Decoder version 20100424 (118.0)
XLD extraction logfile from 2010-04-28 22:50:27 +0600
Electric Light Orchestra / Secret Messages
Used drive : MATSHITA DVD-R UJ-857 (revision HAEA)
Use cdparanoia mode : YES (CDParanoia III 10.2 engine)
Disable audio cache : OK for the drive with cache less than 2750KB
Make use of C2 pointers : NO
Read offset correction : 102
Max retry count : 100
TOC of the extracted CD
Track | Start | Length | Start sector | End sector
––––––––––––––––––––––––––––-
1 | 00:00:00 | 04:43:20 | 0 | 21244
2 | 04:43:20 | 05:25:08 | 21245 | 45627
3 | 10:08:28 | 04:06:05 | 45628 | 64082
4 | 14:14:33 | 05:02:05 | 64083 | 86737
5 | 19:16:38 | 03:59:72 | 86738 | 104734
6 | 23:16:35 | 04:05:00 | 104735 | 123109
7 | 27:21:35 | 04:27:33 | 123110 | 143167
8 | 31:48:68 | 03:52:07 | 143168 | 160574
9 | 35:41:00 | 02:51:30 | 160575 | 173429
10 | 38:32:30 | 04:20:58 | 173430 | 192987
11 | 42:53:13 | 03:44:70 | 192988 | 209857
Track 01
Filename : /Users/gubarenko/Desktop/Electric Light Orchestra - Secret Messages/01 - Secret Messages.flac
Pre-gap length : 00:02:00
CRC32 hash (test run) : EE08B078
CRC32 hash : EE08B078
CRC32 hash (skip zero) : F7073188
AccurateRip signature : BDA732E0
->Track not present in AccurateRip database.
Statistics
Read error : 0
Skipped (treated as error) : 0
Edge jitter error (maybe fixed) : 0
Atom jitter error (maybe fixed) : 0
Drift error (maybe fixed) : 0
Dropped bytes error (maybe fixed) : 0
Duplicated bytes error (maybe fixed) : 0
Inconsistency in error sectors : 0
Track 02
Filename : /Users/gubarenko/Desktop/Electric Light Orchestra - Secret Messages/02 - Loser Gone Wild.flac
CRC32 hash (test run) : DFA1BA34
CRC32 hash : DFA1BA34
CRC32 hash (skip zero) : EA8EBAA1
AccurateRip signature : EC1304AD
->Track not present in AccurateRip database.
Statistics
Read error : 0
Skipped (treated as error) : 0
Edge jitter error (maybe fixed) : 0
Atom jitter error (maybe fixed) : 0
Drift error (maybe fixed) : 0
Dropped bytes error (maybe fixed) : 0
Duplicated bytes error (maybe fixed) : 0
Inconsistency in error sectors : 0
Track 03
Filename : /Users/gubarenko/Desktop/Electric Light Orchestra - Secret Messages/03 - Bluebird.flac
CRC32 hash (test run) : B1C84F75
CRC32 hash : B1C84F75
CRC32 hash (skip zero) : 787776B6
AccurateRip signature : 139E65DA
->Track not present in AccurateRip database.
Statistics
Read error : 0
Skipped (treated as error) : 0
Edge jitter error (maybe fixed) : 0
Atom jitter error (maybe fixed) : 0
Drift error (maybe fixed) : 0
Dropped bytes error (maybe fixed) : 0
Duplicated bytes error (maybe fixed) : 0
Inconsistency in error sectors : 0
Track 04
Filename : /Users/gubarenko/Desktop/Electric Light Orchestra - Secret Messages/04 - Take Me On And On.flac
CRC32 hash (test run) : 050056C0
CRC32 hash : 050056C0
CRC32 hash (skip zero) : 75ED8F82
AccurateRip signature : 23AE11EC
->Track not present in AccurateRip database.
Statistics
Read error : 0
Skipped (treated as error) : 0
Edge jitter error (maybe fixed) : 0
Atom jitter error (maybe fixed) : 0
Drift error (maybe fixed) : 0
Dropped bytes error (maybe fixed) : 0
Duplicated bytes error (maybe fixed) : 0
Inconsistency in error sectors : 0
Track 05
Filename : /Users/gubarenko/Desktop/Electric Light Orchestra - Secret Messages/05 - Time After Time.flac
CRC32 hash (test run) : D942EED2
CRC32 hash : D942EED2
CRC32 hash (skip zero) : E624CD6F
AccurateRip signature : 0A74C52C
->Track not present in AccurateRip database.
Statistics
Read error : 0
Skipped (treated as error) : 0
Edge jitter error (maybe fixed) : 0
Atom jitter error (maybe fixed) : 0
Drift error (maybe fixed) : 0
Dropped bytes error (maybe fixed) : 0
Duplicated bytes error (maybe fixed) : 0
Inconsistency in error sectors : 0
Track 06
Filename : /Users/gubarenko/Desktop/Electric Light Orchestra - Secret Messages/06 - Four Little Diamonds.flac
CRC32 hash (test run) : 1D632F8A
CRC32 hash : 1D632F8A
CRC32 hash (skip zero) : 519439E8
AccurateRip signature : 5E28EE50
->Track not present in AccurateRip database.
Statistics
Read error : 0
Skipped (treated as error) : 0
Edge jitter error (maybe fixed) : 0
Atom jitter error (maybe fixed) : 0
Drift error (maybe fixed) : 0
Dropped bytes error (maybe fixed) : 0
Duplicated bytes error (maybe fixed) : 0
Inconsistency in error sectors : 0
Track 07
Filename : /Users/gubarenko/Desktop/Electric Light Orchestra - Secret Messages/07 - Stranger.flac
CRC32 hash (test run) : EAF29136
CRC32 hash : EAF29136
CRC32 hash (skip zero) : 9F49AAFF
AccurateRip signature : 81C18C15
->Track not present in AccurateRip database.
Statistics
Read error : 0
Skipped (treated as error) : 0
Edge jitter error (maybe fixed) : 0
Atom jitter error (maybe fixed) : 0
Drift error (maybe fixed) : 0
Dropped bytes error (maybe fixed) : 0
Duplicated bytes error (maybe fixed) : 0
Inconsistency in error sectors : 0
Track 08
Filename : /Users/gubarenko/Desktop/Electric Light Orchestra - Secret Messages/08 - Danger Ahead.flac
CRC32 hash (test run) : E9F38ECD
CRC32 hash : E9F38ECD
CRC32 hash (skip zero) : 8FD9D6A2
AccurateRip signature : 76C2B823
->Track not present in AccurateRip database.
Statistics
Read error : 0
Skipped (treated as error) : 0
Edge jitter error (maybe fixed) : 0
Atom jitter error (maybe fixed) : 0
Drift error (maybe fixed) : 0
Dropped bytes error (maybe fixed) : 0
Duplicated bytes error (maybe fixed) : 0
Inconsistency in error sectors : 0
Track 09
Filename : /Users/gubarenko/Desktop/Electric Light Orchestra - Secret Messages/09 - Letter From Spain.flac
CRC32 hash (test run) : FC6EF0E5
CRC32 hash : FC6EF0E5
CRC32 hash (skip zero) : 3D683A82
AccurateRip signature : 9BAE7B7B
->Track not present in AccurateRip database.
Statistics
Read error : 0
Skipped (treated as error) : 0
Edge jitter error (maybe fixed) : 0
Atom jitter error (maybe fixed) : 0
Drift error (maybe fixed) : 0
Dropped bytes error (maybe fixed) : 0
Duplicated bytes error (maybe fixed) : 0
Inconsistency in error sectors : 0
Track 10
Filename : /Users/gubarenko/Desktop/Electric Light Orchestra - Secret Messages/10 - Train Of Gold.flac
CRC32 hash (test run) : CEF0FDD2
CRC32 hash : CEF0FDD2
CRC32 hash (skip zero) : 24C95F55
AccurateRip signature : 0211E077
->Track not present in AccurateRip database.
Statistics
Read error : 0
Skipped (treated as error) : 0
Edge jitter error (maybe fixed) : 0
Atom jitter error (maybe fixed) : 0
Drift error (maybe fixed) : 0
Dropped bytes error (maybe fixed) : 0
Duplicated bytes error (maybe fixed) : 0
Inconsistency in error sectors : 0
Track 11
Filename : /Users/gubarenko/Desktop/Electric Light Orchestra - Secret Messages/11 - Rock 'N' Roll Is King.flac
CRC32 hash (test run) : 14DB3BB0
CRC32 hash : 14DB3BB0
CRC32 hash (skip zero) : 1FF582C7
AccurateRip signature : 5F9AEB21
->Track not present in AccurateRip database.
Statistics
Read error : 0
Skipped (treated as error) : 0
Edge jitter error (maybe fixed) : 0
Atom jitter error (maybe fixed) : 0
Drift error (maybe fixed) : 0
Dropped bytes error (maybe fixed) : 0
Duplicated bytes error (maybe fixed) : 0
Inconsistency in error sectors : 0
No errors occurred
End of status report

foobar2000 1.1.18 / Dynamic Range Meter 1.1.1
log date: 2013-02-09 23:49:55

––––––––––––––––––––––––––––––––––––––––
Analyzed: Electric Light Orchestra / Secret Messages
––––––––––––––––––––––––––––––––––––––––

DR Peak RMS Duration Track
––––––––––––––––––––––––––––––––––––––––
DR10 0.00 dB -11.67 dB 4:43 01-Secret Messages
DR12 -0.41 dB -14.91 dB 5:25 02-Loser Gone Wild
DR12 -0.50 dB -14.67 dB 4:06 03-Bluebird
DR13 0.00 dB -15.86 dB 5:02 04-Take Me On And On
DR12 -0.33 dB -14.70 dB 4:00 05-Time After Time
DR11 0.00 dB -12.35 dB 4:05 06-Four Little Diamonds
DR12 -0.36 dB -13.64 dB 4:27 07-Stranger
DR11 -0.28 dB -12.08 dB 3:52 08-Danger Ahead
DR10 -6.73 dB -19.12 dB 2:51 09-Letter From Spain
DR12 -0.66 dB -15.25 dB 4:21 10-Train Of Gold
DR11 -0.57 dB -13.95 dB 3:45 11-Rock 'N' Roll Is King
––––––––––––––––––––––––––––––––––––––––

Number of tracks: 11
Official DR value: DR11

Samplerate: 44100 Hz
Channels: 2
Bits per sample: 16
Bitrate: 925 kbps
Codec: FLAC

Personnel:

Jeff Lynne - vocals, background vocals, guitar, synthesisers, bass guitar, piano, percussion, Oberheim DMX, producer
Bev Bevan - drums, percussion
Richard Tandy - synthesizers, grand piano, electric piano, harmonica, Oberheim DMX
Kelly Groucutt - bass guitar, background vocals (Train Of Gold, Rock 'N' Roll Is King, No Way Out and Beatles Forever)
Mik Kaminski - violin (Rock 'n' Roll Is King)
Dave Morgan - additional background vocals
Bill Bottrell - Engineer
Strings conducted by Louis Clark

All thanks go to the original releaser

Download Electric Light Orchestra - Secret Messages (1983):