Subcategories

Electric Light Orchestra: 9 Non Remastered Japanese CDs (1972-1983)

Posted By: v3122
Electric Light Orchestra: 9 Non Remastered Japanese CDs (1972-1983)

Electric Light Orchestra: 9 Non Remastered Japanese CDs (1972-1983)
EAC | Flac(Image) + Cue + Log & MP3 CBR 320Kbps
9CD | CBS/Sony | ~ 2533 or 942 Mb | Scans(jpg) -> 1153 Mb
Progressive Rock, Art-Rock

The Electric Light Orchestra (ELO) are an English rock band formed in Birmingham in 1970, by songwriters/multi-instrumentalists Jeff Lynne and Roy Wood with drummer Bev Bevan. Their music is characterised by a fusion of Beatlesque pop, classical arrangements, and futuristic iconography. After Wood's departure in 1972, Lynne became the band's leader, arranging and producing every album while writing virtually all of their original material.

The band was formed to accommodate Lynne's and Wood's desire to create modern rock and pop songs with classical overtones, deriving as an offshoot of Wood's previous band the Move, of which Lynne and Bevan were also members. During their 1970s and 80s heyday, they recorded a string of studio albums that include the conceptual works Eldorado (1974) and Time (1981). For their initial tenure, Lynne, Bevan, and keyboard player Richard Tandy were the group's only consistent members. In 1986, Lynne lost interest in the band and ceased its operation. Bevan responded by forming his own band, ELO Part II, which later became The Orchestra. With the exception of a short-lived reformation in 2000–01, ELO remained largely inactive for the next three decades. In 2014, Lynne reformed the band once again with Tandy as Jeff Lynne's ELO, where he resumed concert touring and new recordings under the moniker.

During ELO's original 13-year period of active recording and touring, they sold over 50 million records worldwide, collecting 19 CRIA, 21 RIAA, and 38 BPI awards. Despite early singles success in the United Kingdom, the band was initially more successful in the United States, where they were billed as "the English guys with the big fiddles." From 1972 to 1986, ELO accumulated twenty Top 20 songs on the UK Singles Chart, and fifteen Top 20 songs on the US Billboard Hot 100. The band also holds the record for having the most Billboard Hot 100 Top 40 hits (20) without a number one single of any band in US chart history. In 2017, the ELO line-up of Wood, Lynne, Bevan, and Tandy were inducted into the Rock and Roll Hall of Fame…

~ wiki
Electric Light Orchestra: 9 Non Remastered Japanese CDs (1972-1983):

Electric Light Orchestra: 9 Non Remastered Japanese CDs (1972-1983)

Tracklist CD01 - No Answer – 1972:
1990 | CBS/Sony CSCS 6026

01. 10538 Overture [0:05:31.55]
02. Look At Me Now [0:03:17.45]
03. Nellie Takes Her Bow [0:05:59.37]
04. Battle Of Marston Moor (July 2nd 1644) [0:06:05.60]
05. 1st Movement [0:03:00.08]
06. Mr. Radio [0:05:04.15]
07. Manhatten Rumble (49th St. Massacre) [0:04:22.47]
08. Queen Of The Hours [0:03:22.10]
09. Electric Light Orchestra / Whisper In The Night [0:04:47.03]

Exact Audio Copy V1.0 beta 3 from 29. August 2011

EAC extraction logfile from 11. June 2016, 18:30

Electric Light Orchestra / No Answer

Used drive : PLEXTOR DVDR PX-L890SA Adapter: 5 ID: 1

Read mode : Secure
Utilize accurate stream : Yes
Defeat audio cache : Yes
Make use of C2 pointers : No

Read offset correction : 6
Overread into Lead-In and Lead-Out : No
Fill up missing offset samples with silence : Yes
Delete leading and trailing silent blocks : No
Null samples used in CRC calculations : Yes
Used interface : Native Win32 interface for Win NT & 2000

Used output format : User Defined Encoder
Selected bitrate : 768 kBit/s
Quality : High
Add ID3 tag : No
Command line compressor : C:\Program Files (x86)\Exact Audio Copy\Flac\flac.exe
Additional command line options : -V -8 -T "Date=%year%" -T "Genre=%genre%" %source%


TOC of the extracted CD

Track | Start | Length | Start sector | End sector
––––––––––––––––––––––––––––-
1 | 0:00.00 | 5:31.55 | 0 | 24879
2 | 5:31.55 | 3:17.45 | 24880 | 39699
3 | 8:49.25 | 5:59.37 | 39700 | 66661
4 | 14:48.62 | 6:05.60 | 66662 | 94096
5 | 20:54.47 | 3:00.08 | 94097 | 107604
6 | 23:54.55 | 5:04.15 | 107605 | 130419
7 | 28:58.70 | 4:22.47 | 130420 | 150116
8 | 33:21.42 | 3:22.10 | 150117 | 165276
9 | 36:43.52 | 4:47.03 | 165277 | 186804


Range status and errors

Selected range

Filename H:\MUSIC\1971. ELO - No Answer (CBS-Sony CSCS 6026, Japan)\Electric Light Orchestra - No Answer.wav

Peak level 100.0 %
Extraction speed 8.0 X
Range quality 100.0 %
Test CRC B1AB4224
Copy CRC B1AB4224
Copy OK

No errors occurred


AccurateRip summary

Track 1 accurately ripped (confidence 2) [E628C19E] (AR v2)
Track 2 accurately ripped (confidence 2) [94E8A8F4] (AR v2)
Track 3 accurately ripped (confidence 2) [03AD4850] (AR v2)
Track 4 accurately ripped (confidence 2) [FEE88981] (AR v2)
Track 5 accurately ripped (confidence 2) [B0A1BF6B] (AR v2)
Track 6 accurately ripped (confidence 2) [95D4E2C7] (AR v2)
Track 7 accurately ripped (confidence 2) [CCB93E81] (AR v2)
Track 8 accurately ripped (confidence 2) [BF39D400] (AR v2)
Track 9 accurately ripped (confidence 2) [D22B7E4B] (AR v2)

All tracks accurately ripped

End of status report

==== Log checksum C482235351AA380D0915A5A4CF5805FC66E9C8200DC8C9E80A8353D94598759B ====


[CUETools log; Date: 27.06.2017 20:21:27; Version: 2.1.2a]
[CTDB TOCID: uyZ3wXiJXsoatqYqUh3PRoWgJw4-] found.
[ CTDBID ] Status
[a145576a] (5/5) Accurately ripped
[AccurateRip ID: 000ebbbb-006b21f3-5b09ba09] found.
Track [ CRC ] Status
01 [c8188ade] (3/6) Accurately ripped
02 [5ef55496] (3/6) Accurately ripped
03 [8a634970] (3/6) Accurately ripped
04 [19e14fcb] (3/6) Accurately ripped
05 [1d4a3d86] (3/6) Accurately ripped
06 [57f0e86e] (3/6) Accurately ripped
07 [c432e588] (3/6) Accurately ripped
08 [c032632c] (3/6) Accurately ripped
09 [8eda71d3] (3/6) Accurately ripped
AccurateRip v2:
01 [e628c19e] (3/6) Accurately ripped
02 [94e8a8f4] (3/6) Accurately ripped
03 [03ad4850] (3/6) Accurately ripped
04 [fee88981] (3/6) Accurately ripped
05 [b0a1bf6b] (3/6) Accurately ripped
06 [95d4e2c7] (3/6) Accurately ripped
07 [ccb93e81] (3/6) Accurately ripped
08 [bf39d400] (3/6) Accurately ripped
09 [d22b7e4b] (3/6) Accurately ripped

Track Peak [ CRC32 ] [W/O NULL] [ LOG ]
– 100,0 [B1AB4224] [103E0698] CRC32
01 92,7 [71275B1D] [CC569FC2]
02 93,2 [BB93EFCE] [A29E8787]
03 100,0 [FB059E68] [22DEA5A7]
04 97,5 [C9F4DA41] [38F30EB5]
05 95,7 [48634AA7] [81C35E4E]
06 75,5 [DA114BFA] [06C8D832]
07 100,0 [3D6B6EB6] [06188CB2]
08 94,8 [F0975BDE] [26E4DE6B]
09 69,2 [6F4E62AD] [2B5D585C]


Electric Light Orchestra: 9 Non Remastered Japanese CDs (1972-1983)

Tracklist CD02 - E.L.O. 2 – 1973:
1990 | CBS/Sony CSCS 6027

01. In Old England Town (Boogie #2) [0:06:57.10]
02. Mama [0:07:04.30]
03. Roll Over Beethoven [0:08:09.72]
04. From The Sun To The World (Boogie #1) [0:08:22.58]
05. Kuiama [0:11:21.62]

Exact Audio Copy V1.0 beta 3 from 29. August 2011

EAC extraction logfile from 4. August 2016, 18:26

Electric Light Orchestra / Electric Light Orchestra II

Used drive : PLEXTOR DVDR PX-L890SA Adapter: 5 ID: 1

Read mode : Secure
Utilize accurate stream : Yes
Defeat audio cache : Yes
Make use of C2 pointers : No

Read offset correction : 6
Overread into Lead-In and Lead-Out : No
Fill up missing offset samples with silence : Yes
Delete leading and trailing silent blocks : No
Null samples used in CRC calculations : Yes
Used interface : Native Win32 interface for Win NT & 2000

Used output format : User Defined Encoder
Selected bitrate : 768 kBit/s
Quality : High
Add ID3 tag : No
Command line compressor : C:\Program Files (x86)\Exact Audio Copy\Flac\flac.exe
Additional command line options : -V -8 -T "Date=%year%" -T "Genre=%genre%" %source%


TOC of the extracted CD

Track | Start | Length | Start sector | End sector
––––––––––––––––––––––––––––-
1 | 0:00.00 | 6:57.10 | 0 | 31284
2 | 6:57.10 | 7:04.30 | 31285 | 63114
3 | 14:01.40 | 8:09.72 | 63115 | 99861
4 | 22:11.37 | 8:22.58 | 99862 | 137569
5 | 30:34.20 | 11:21.62 | 137570 | 188706


Range status and errors

Selected range

Filename H:\MUSIC\1973. ELO - ELO II (CBS-Sony CSCS 6027, Japan)\Electric Light Orchestra - Electric Light Orchestra II.wav

Peak level 85.7 %
Extraction speed 8.1 X
Range quality 100.0 %
Test CRC 34B83982
Copy CRC 34B83982
Copy OK

No errors occurred


AccurateRip summary

Track 1 accurately ripped (confidence 1) [9514717E] (AR v2)
Track 2 accurately ripped (confidence 1) [0B7240B3] (AR v2)
Track 3 accurately ripped (confidence 1) [5E6006BF] (AR v2)
Track 4 accurately ripped (confidence 1) [4CA956F0] (AR v2)
Track 5 accurately ripped (confidence 1) [05EF934E] (AR v2)

All tracks accurately ripped

End of status report

==== Log checksum EC720E86BF5890D6806C43F7F70D356DF1535E48C5B6A18783FBB65A0FDA6A38 ====


[CUETools log; Date: 27.06.2017 20:24:19; Version: 2.1.2a]
[CTDB TOCID: PbicNn_AGDAEKqTgQiuRc8hTK7I-] found.
[ CTDBID ] Status
[9937a8e1] (4/4) Accurately ripped
[AccurateRip ID: 0007f15b-0025b620-3b09d405] found.
Track [ CRC ] Status
01 [a6b10db2] (0/2) No match but offset
02 [c3784eb2] (0/2) No match but offset
03 [6532dcd8] (0/2) No match but offset
04 [52ef6b8d] (0/2) No match but offset
05 [cace5510] (0/2) No match but offset
AccurateRip v2:
01 [9514717e] (2/2) Accurately ripped
02 [0b7240b3] (2/2) Accurately ripped
03 [5e6006bf] (2/2) Accurately ripped
04 [4ca956f0] (2/2) Accurately ripped
05 [05ef934e] (2/2) Accurately ripped

Track Peak [ CRC32 ] [W/O NULL] [ LOG ]
– 85,7 [34B83982] [CCF3A3B1] CRC32
01 83,4 [9AC94D66] [9690F5CA]
02 69,7 [0DDDC247] [87E3F2B6]
03 85,7 [C154CB6F] [6814C231]
04 70,9 [17639A33] [DF808940]
05 74,2 [35ED19A2] [D911C53B]


Electric Light Orchestra: 9 Non Remastered Japanese CDs (1972-1983)

Tracklist CD03 - On The Third Day – 1973:
1990 | CBS/Sony CSCS 6028

01. Ocean Breakup + King Of The Universe [0:04:06.42]
02. Bluebird Is Dead [0:04:22.35]
03. Oh No Not Susan [0:03:27.38]
04. New World Rising + Ocean Breakup Reprise [0:04:06.47]
05. Showdown [0:04:12.18]
06. Daybreaker [0:03:50.47]
07. Ma-Ma-Ma Belle [0:03:52.30]
08. Dreaming Of 4000 [0:05:03.18]
09. In The Hall Of The Mountain King [0:06:34.00]

Exact Audio Copy V1.0 beta 3 from 29. August 2011

EAC extraction logfile from 5. January 2017, 13:09

Electric Light Orchestra / On The Third Day

Used drive : PLEXTOR DVDR PX-L890SA Adapter: 5 ID: 1

Read mode : Secure
Utilize accurate stream : Yes
Defeat audio cache : Yes
Make use of C2 pointers : No

Read offset correction : 6
Overread into Lead-In and Lead-Out : No
Fill up missing offset samples with silence : Yes
Delete leading and trailing silent blocks : No
Null samples used in CRC calculations : Yes
Used interface : Native Win32 interface for Win NT & 2000

Used output format : User Defined Encoder
Selected bitrate : 768 kBit/s
Quality : High
Add ID3 tag : No
Command line compressor : C:\Program Files (x86)\Exact Audio Copy\Flac\flac.exe
Additional command line options : -V -8 -T "Date=%year%" -T "Genre=%genre%" %source%


TOC of the extracted CD

Track | Start | Length | Start sector | End sector
––––––––––––––––––––––––––––-
1 | 0:00.00 | 4:06.42 | 0 | 18491
2 | 4:06.42 | 4:22.35 | 18492 | 38176
3 | 8:29.02 | 3:27.38 | 38177 | 53739
4 | 11:56.40 | 4:06.47 | 53740 | 72236
5 | 16:03.12 | 4:12.18 | 72237 | 91154
6 | 20:15.30 | 3:50.47 | 91155 | 108451
7 | 24:06.02 | 3:52.30 | 108452 | 125881
8 | 27:58.32 | 5:03.18 | 125882 | 148624
9 | 33:01.50 | 6:34.00 | 148625 | 178174


Range status and errors

Selected range

Filename H:\MUSIC\1973. ELO - On The Third Day (CBS-Sony CSCS 6028, Japan)\Electric Light Orchestra - On The Third Day.wav

Peak level 97.7 %
Extraction speed 7.9 X
Range quality 100.0 %
Test CRC 02FA4408
Copy CRC 02FA4408
Copy OK

No errors occurred


AccurateRip summary

Track 1 cannot be verified as accurate (confidence 1) [B4A0ADE3], AccurateRip returned [44374CA4] (AR v2)
Track 2 cannot be verified as accurate (confidence 1) [21A9C30F], AccurateRip returned [249447C4] (AR v2)
Track 3 cannot be verified as accurate (confidence 1) [9429E9D8], AccurateRip returned [D421AC4E] (AR v2)
Track 4 cannot be verified as accurate (confidence 1) [06870A9F], AccurateRip returned [157705B9] (AR v2)
Track 5 cannot be verified as accurate (confidence 1) [73A92527], AccurateRip returned [BF4FBB0B] (AR v2)
Track 6 cannot be verified as accurate (confidence 1) [20830E54], AccurateRip returned [FB4CCB83] (AR v2)
Track 7 cannot be verified as accurate (confidence 1) [16408E1A], AccurateRip returned [9745BCD5] (AR v2)
Track 8 cannot be verified as accurate (confidence 1) [0C991385], AccurateRip returned [CF4F06E1] (AR v2)
Track 9 cannot be verified as accurate (confidence 1) [D7B8895E], AccurateRip returned [B2F8ECFD] (AR v2)

No tracks could be verified as accurate
You may have a different pressing from the one(s) in the database

End of status report

==== Log checksum 141573B3A159AD447B840FB72B21F9EF2AD33A17656AF680CF9B116554BCF2BE ====


[CUETools log; Date: 27.06.2017 20:30:40; Version: 2.1.2a]
[CTDB TOCID: PU8h5Q4kyCe8qhgcJI1enCaJe3g-] found.
[ CTDBID ] Status
[c75caeec] (5/5) Accurately ripped
[AccurateRip ID: 000cbd77-005dff3a-7b094709] found.
Track [ CRC ] Status
01 [724ff37b] (0/2) No match
02 [f7459c49] (0/2) No match
03 [9e3a74eb] (0/2) No match
04 [86d967dc] (0/2) No match
05 [d15412e0] (0/2) No match
06 [8a1dcfe1] (0/2) No match
07 [53d66dc7] (0/2) No match
08 [ba621fa8] (0/2) No match
09 [ce466448] (0/2) No match
AccurateRip v2:
01 [b4a0ade3] (1/2) Accurately ripped
02 [21a9c30f] (1/2) Accurately ripped
03 [9429e9d8] (1/2) Accurately ripped
04 [06870a9f] (1/2) Accurately ripped
05 [73a92527] (1/2) Accurately ripped
06 [20830e54] (1/2) Accurately ripped
07 [16408e1a] (1/2) Accurately ripped
08 [0c991385] (1/2) Accurately ripped
09 [d7b8895e] (1/2) Accurately ripped

Track Peak [ CRC32 ] [W/O NULL] [ LOG ]
– 97,7 [02FA4408] [4145DE33] CRC32
01 97,7 [6881F723] [497179FA]
02 93,2 [688DDC69] [BF4AF80E]
03 89,6 [A3F68027] [63E77B21]
04 93,6 [409821B4] [8A4746BE]
05 92,2 [75D5F0E1] [CD5614FF]
06 91,9 [BFE27833] [FD921676]
07 78,1 [8F669AC8] [C645F7AC]
08 81,1 [0DB7DA25] [25EEC231]
09 88,2 [D9D224F2] [F2FC044E]


Electric Light Orchestra: 9 Non Remastered Japanese CDs (1972-1983)

Tracklist CD04 - Face The Music – 1975:
1990 | CBS/Sony CSCS 6030

01. Fire On High [0:04:02.20]
02. Waterfall [0:03:53.65]
03. Evil Woman [0:04:13.50]
04. Nightrider [0:04:24.42]
05. Poker [0:03:31.48]
06. Strange Music [0:04:08.17]
07. Down Home Town [0:03:44.35]
08. One Summer Dream [0:05:46.23]

Exact Audio Copy V1.0 beta 3 from 29. August 2011

EAC extraction logfile from 25. September 2016, 15:30

Electric Light Orchestra / Face The Music

Used drive : PLEXTOR DVDR PX-L890SA Adapter: 5 ID: 1

Read mode : Secure
Utilize accurate stream : Yes
Defeat audio cache : Yes
Make use of C2 pointers : No

Read offset correction : 6
Overread into Lead-In and Lead-Out : No
Fill up missing offset samples with silence : Yes
Delete leading and trailing silent blocks : No
Null samples used in CRC calculations : Yes
Used interface : Native Win32 interface for Win NT & 2000

Used output format : User Defined Encoder
Selected bitrate : 768 kBit/s
Quality : High
Add ID3 tag : No
Command line compressor : C:\Program Files (x86)\Exact Audio Copy\Flac\flac.exe
Additional command line options : -V -8 -T "Date=%year%" -T "Genre=%genre%" %source%


TOC of the extracted CD

Track | Start | Length | Start sector | End sector
––––––––––––––––––––––––––––-
1 | 0:00.00 | 4:02.20 | 0 | 18169
2 | 4:02.20 | 3:53.65 | 18170 | 35709
3 | 7:56.10 | 4:13.50 | 35710 | 54734
4 | 12:09.60 | 4:24.42 | 54735 | 74576
5 | 16:34.27 | 3:31.48 | 74577 | 90449
6 | 20:06.00 | 4:08.17 | 90450 | 109066
7 | 24:14.17 | 3:44.35 | 109067 | 125901
8 | 27:58.52 | 5:46.23 | 125902 | 151874


Range status and errors

Selected range

Filename H:\MUSIC\1975. ELO - Face The Music (CBS-Sony CSCS 6030, Japan)\Electric Light Orchestra - Face The Music.wav

Peak level 94.5 %
Extraction speed 2.8 X
Range quality 100.0 %
Test CRC FC03CBB5
Copy CRC FC03CBB5
Copy OK

No errors occurred


AccurateRip summary

Track 1 cannot be verified as accurate (confidence 5) [0F42F2A4], AccurateRip returned [57167B72] (AR v2)
Track 2 cannot be verified as accurate (confidence 5) [E4B9C555], AccurateRip returned [C45F4A4C] (AR v2)
Track 3 cannot be verified as accurate (confidence 5) [D2B313D2], AccurateRip returned [37CBF3F7] (AR v2)
Track 4 cannot be verified as accurate (confidence 5) [DC94593A], AccurateRip returned [C70179DE] (AR v2)
Track 5 cannot be verified as accurate (confidence 5) [1A951546], AccurateRip returned [7A479166] (AR v2)
Track 6 cannot be verified as accurate (confidence 5) [76F04CC3], AccurateRip returned [F0E36A43] (AR v2)
Track 7 cannot be verified as accurate (confidence 5) [9B41D549], AccurateRip returned [4ED7B8A1] (AR v2)
Track 8 cannot be verified as accurate (confidence 4) [F6D6F7B3], AccurateRip returned [BF1DC963] (AR v2)

No tracks could be verified as accurate
You may have a different pressing from the one(s) in the database

End of status report

==== Log checksum ADF4FBCC4D90CF5784FACA2399CE4566E3B69E58057DFB9827BE7284971E1143 ====


[CUETools log; Date: 27.06.2017 20:41:03; Version: 2.1.2a]
[CTDB TOCID: SFtD5yZyefH77i_F2rmCA6g2a.0-] found.
[ CTDBID ] Status
[14172959] (7/7) Accurately ripped
[AccurateRip ID: 000a1406-00436044-6c07e908] found.
Track [ CRC ] Status
01 [bd6038e9] (00/11) No match but offset
02 [9688fc18] (00/11) No match but offset
03 [23c981b5] (00/11) No match but offset
04 [5ab3e8ed] (00/11) No match but offset
05 [86b6aee9] (00/11) No match but offset
06 [75fa40a6] (00/11) No match but offset
07 [f5b32391] (00/11) No match but offset
08 [915f05b3] (00/10) No match but offset
AccurateRip v2:
01 [0f42f2a4] (02/11) Accurately ripped
02 [e4b9c555] (02/11) Accurately ripped
03 [d2b313d2] (02/11) Accurately ripped
04 [dc94593a] (02/11) Accurately ripped
05 [1a951546] (02/11) Accurately ripped
06 [76f04cc3] (02/11) Accurately ripped
07 [9b41d549] (02/11) Accurately ripped
08 [f6d6f7b3] (02/10) Accurately ripped
Offsetted by -976:
01 [0845852e] (04/11) Accurately ripped
02 [4abbd7db] (04/11) Accurately ripped
03 [43e03ac5] (04/11) Accurately ripped
04 [f4398a3d] (04/11) Accurately ripped
05 [db491f09] (04/11) Accurately ripped
06 [b5aaedc6] (04/11) Accurately ripped
07 [8b029441] (04/11) Accurately ripped
08 [bf1dc963] (04/10) Accurately ripped

Track Peak [ CRC32 ] [W/O NULL] [ LOG ]
– 94,5 [FC03CBB5] [9F049A3A] CRC32
01 92,4 [0C91D380] [3E778C68]
02 86,9 [0D2E95D2] [FCB6D089]
03 94,5 [BB12AB74] [0ADD4552]
04 93,9 [C5366CA4] [D7940E59]
05 86,3 [F90F73D1] [A6C47113]
06 85,3 [38BB94A4] [D7AC28A3]
07 90,5 [75A0D1B1] [077A2B9C]
08 87,5 [237280BF] [981CD756]


Electric Light Orchestra: 9 Non Remastered Japanese CDs (1972-1983)

Tracklist CD05 - Out Of The Blue – 1977:
1990 | CBS/Sony CSCS 6032

01. Turn To Stone [0:03:47.67]
02. It's Over [0:04:08.28]
03. Sweet Talkin' Woman [0:03:50.17]
04. Across The Border [0:03:53.20]
05. Night In The City [0:04:02.18]
06. Starlight [0:04:27.52]
07. Jungle [0:03:52.05]
08. Believe Me Now [0:01:21.10]
09. Steppin' Out [0:04:40.28]
10. Concerto For A Rainy Day: Standin' In The Rain [0:04:21.25]
11. Concerto For A Rainy Day: Big Wheels [0:05:06.30]
12. Concerto For A Rainy Day: Summer And Lightning [0:04:13.37]
13. Concerto For A Rainy Day: Mr. Blue Sky [0:05:05.63]
14. Sweet Is The Night [0:03:28.00]
15. The Whale [0:05:02.25]
16. Birmingham Blues [0:04:23.17]
17. Wild West Hero [0:04:42.45]

Exact Audio Copy V1.0 beta 3 from 29. August 2011

EAC extraction logfile from 14. May 2015, 15:20

Electric Light Orchestra / Out Of The Blue

Used drive : PLEXTOR DVDR PX-L890SA Adapter: 3 ID: 1

Read mode : Secure
Utilize accurate stream : Yes
Defeat audio cache : Yes
Make use of C2 pointers : No

Read offset correction : 6
Overread into Lead-In and Lead-Out : No
Fill up missing offset samples with silence : Yes
Delete leading and trailing silent blocks : No
Null samples used in CRC calculations : Yes
Used interface : Native Win32 interface for Win NT & 2000

Used output format : User Defined Encoder
Selected bitrate : 768 kBit/s
Quality : High
Add ID3 tag : No
Command line compressor : C:\Program Files (x86)\Exact Audio Copy\Flac\flac.exe
Additional command line options : -V -8 -T "Date=%year%" -T "Genre=%genre%" %source%


TOC of the extracted CD

Track | Start | Length | Start sector | End sector
––––––––––––––––––––––––––––-
1 | 0:00.00 | 3:47.67 | 0 | 17091
2 | 3:47.67 | 4:08.28 | 17092 | 35719
3 | 7:56.20 | 3:50.17 | 35720 | 52986
4 | 11:46.37 | 3:53.20 | 52987 | 70481
5 | 15:39.57 | 4:02.18 | 70482 | 88649
6 | 19:42.00 | 4:27.52 | 88650 | 108726
7 | 24:09.52 | 3:52.05 | 108727 | 126131
8 | 28:01.57 | 1:21.10 | 126132 | 132216
9 | 29:22.67 | 4:40.28 | 132217 | 153244
10 | 34:03.20 | 4:21.25 | 153245 | 172844
11 | 38:24.45 | 5:06.30 | 172845 | 195824
12 | 43:31.00 | 4:13.37 | 195825 | 214836
13 | 47:44.37 | 5:05.63 | 214837 | 237774
14 | 52:50.25 | 3:28.00 | 237775 | 253374
15 | 56:18.25 | 5:02.25 | 253375 | 276049
16 | 61:20.50 | 4:23.17 | 276050 | 295791
17 | 65:43.67 | 4:42.45 | 295792 | 316986


Range status and errors

Selected range

Filename H:\MUSIC\1977. ELO - Out Of The Blue (CBS-Sony CSCS 6032, Japan)\Electric Light Orchestra - Out Of The Blue.wav

Peak level 100.0 %
Extraction speed 10.1 X
Range quality 100.0 %
Test CRC FB4F8EA1
Copy CRC FB4F8EA1
Copy OK

No errors occurred


AccurateRip summary

Track 1 accurately ripped (confidence 2) [6D2CB6F3] (AR v2)
Track 2 accurately ripped (confidence 2) [817DB1DE] (AR v2)
Track 3 accurately ripped (confidence 2) [2709C69E] (AR v2)
Track 4 accurately ripped (confidence 2) [25E9D847] (AR v2)
Track 5 accurately ripped (confidence 2) [9193E680] (AR v2)
Track 6 accurately ripped (confidence 2) [F1C97546] (AR v2)
Track 7 accurately ripped (confidence 2) [C01E4E30] (AR v2)
Track 8 accurately ripped (confidence 2) [769C50BD] (AR v2)
Track 9 accurately ripped (confidence 2) [DC12EAED] (AR v2)
Track 10 accurately ripped (confidence 2) [A81D1688] (AR v2)
Track 11 accurately ripped (confidence 2) [085D0098] (AR v2)
Track 12 accurately ripped (confidence 2) [F1A3314A] (AR v2)
Track 13 accurately ripped (confidence 2) [1BEF9AFC] (AR v2)
Track 14 accurately ripped (confidence 2) [6808B2A3] (AR v2)
Track 15 accurately ripped (confidence 2) [47364D0B] (AR v2)
Track 16 accurately ripped (confidence 2) [299A7976] (AR v2)
Track 17 accurately ripped (confidence 2) [3C4E50EC] (AR v2)

All tracks accurately ripped

End of status report

==== Log checksum 39F14A155264C6D7274A6C54CE6A07F301B43ECE2A39F9F30F5EAC88391A84B5 ====


[CUETools log; Date: 27.06.2017 20:48:47; Version: 2.1.2a]
[CTDB TOCID: mt05ZSPAq.VjvsHKwBjGRfTUcSw-] found.
[ CTDBID ] Status
[bafd1c72] (51/52) Accurately ripped
[277bfc25] (01/52) No match
[AccurateRip ID: 0029f142-0216e48c-f7108211] found.
Track [ CRC ] Status
01 [7d387caa] (00/54) No match but offset
02 [23f4f026] (00/54) No match but offset
03 [bca53dfa] (00/54) No match but offset
04 [6f26ce20] (00/54) No match but offset
05 [7d9f364b] (00/54) No match but offset
06 [8570abe8] (00/54) No match but offset
07 [bfd5c9f7] (00/54) No match but offset
08 [6c181e75] (00/54) No match but offset
09 [bbe11099] (00/54) No match but offset
10 [6a85502b] (00/53) No match but offset
11 [42f51cee] (00/54) No match but offset
12 [550c9fe0] (00/54) No match but offset
13 [48f344dc] (00/54) No match but offset
14 [6af9f18b] (00/54) No match but offset
15 [fefd3b1e] (00/55) No match but offset
16 [000d8fd6] (00/55) No match but offset
17 [9c1f9e0b] (00/54) No match but offset
AccurateRip v2:
01 [6d2cb6f3] (03/54) Accurately ripped
02 [817db1de] (03/54) Accurately ripped
03 [2709c69e] (03/54) Accurately ripped
04 [25e9d847] (03/54) Accurately ripped
05 [9193e680] (03/54) Accurately ripped
06 [f1c97546] (03/54) Accurately ripped
07 [c01e4e30] (03/54) Accurately ripped
08 [769c50bd] (03/54) Accurately ripped
09 [dc12eaed] (03/54) Accurately ripped
10 [a81d1688] (03/53) Accurately ripped
11 [085d0098] (03/54) Accurately ripped
12 [f1a3314a] (03/54) Accurately ripped
13 [1bef9afc] (03/54) Accurately ripped
14 [6808b2a3] (03/54) Accurately ripped
15 [47364d0b] (03/55) Accurately ripped
16 [299a7976] (03/55) Accurately ripped
17 [3c4e50ec] (03/54) Accurately ripped
Offsetted by 295:
01 [acd42d4d] (19/54) Accurately ripped
02 [97a36fda] (20/54) Accurately ripped
03 [0496623c] (20/54) Accurately ripped
04 [b8c897b5] (20/54) Accurately ripped
05 [c1ef9de5] (20/54) Accurately ripped
06 [e74f8099] (20/54) Accurately ripped
07 [4b49f7cf] (20/54) Accurately ripped
08 [cb8d1719] (20/54) Accurately ripped
09 [37e3e383] (20/54) Accurately ripped
10 [bc0b6e52] (20/53) Accurately ripped
11 [6903d801] (20/54) Accurately ripped
12 [76ef4fb1] (20/54) Accurately ripped
13 [70cd222a] (20/54) Accurately ripped
14 [7ce98480] (20/54) Accurately ripped
15 [d0d37334] (21/55) Accurately ripped
16 [f1197b7c] (21/55) Accurately ripped
17 [81eed785] (20/54) Accurately ripped
Offsetted by -1091:
01 [01cb0f45] (00/54) No match but offset
02 [d8ff598c] (00/54) No match but offset
03 [ec01232c] (00/54) No match but offset
04 [f17568af] (00/54) No match but offset
05 [bf9748b9] (00/54) No match but offset
06 [8d6a62bf] (00/54) No match but offset
07 [251880bf] (00/54) No match but offset
08 [df2432e9] (00/54) No match but offset
09 [a7a1f8e7] (00/54) No match but offset
10 [5c501573] (00/53) No match but offset
11 [f0d41f02] (00/54) No match but offset
12 [3b1424fc] (00/54) No match but offset
13 [cde06947] (00/54) No match but offset
14 [fa793f3b] (00/54) No match but offset
15 [11551e77] (00/55) No match but offset
16 [c00950b2] (00/55) No match but offset
17 [470fbcbf] (00/54) No match but offset
Offsetted by -800:
01 [ce57a0fc] (00/54) No match but offset
02 [74769d81] (00/54) No match but offset
03 [9128ea0d] (00/54) No match but offset
04 [2da23bf9] (00/54) No match but offset
05 [69906ca5] (00/54) No match but offset
06 [a1e55d59] (00/54) No match but offset
07 [003b44f7] (00/54) No match but offset
08 [85db5b58] (00/54) No match but offset
09 [0faf9e6a] (00/54) No match but offset
10 [1857eb2e] (00/53) No match but offset
11 [43688bb4] (00/54) No match but offset
12 [9612c78e] (00/54) No match but offset
13 [2d7fba35] (00/54) No match but offset
14 [a75e6457] (00/54) No match but offset
15 [a5d658b2] (00/55) No match but offset
16 [20716c7c] (00/55) No match but offset
17 [dabb9c2d] (00/54) No match but offset

Track Peak [ CRC32 ] [W/O NULL] [ LOG ]
– 100,0 [FB4F8EA1] [C3B9C72A] CRC32
01 89,0 [5543B8E6] [B24609ED]
02 85,4 [1536378E] [B4DE20D9]
03 89,5 [87BA9F7B] [2F83F890]
04 91,4 [75332787] [D4B52F2E]
05 91,3 [9E38090E] [151DA2E1]
06 92,9 [58051155] [51C3A3AA]
07 87,1 [37A50BF6] [49166DBE]
08 92,1 [5C76694E] [EFC23ECA]
09 81,0 [DD7698CE] [45FB4CB4]
10 84,0 [439C906A] [60A950EA]
11 78,0 [3704DFAB] [DAB93FD2]
12 87,9 [A6C21E49] [57FE0115]
13 97,7 [84978829] [5B35EED0]
14 88,6 [CAD7A5C1] [E6B888EE]
15 100,0 [C8E543C5] [FB699912]
16 81,2 [AC236C6F] [B5BE9459]
17 81,0 [0891AB59] [92FF52FC]


Electric Light Orchestra: 9 Non Remastered Japanese CDs (1972-1983)

Tracklist CD06 - Discovery – 1979:
1990 | CBS/Sony CSCS 6006

01. Shine A Little Love [0:04:44.67]
02. Confusion [0:03:43.70]
03. Need Her Love [0:05:13.50]
04. The Diary Of Horace Wimp [0:04:21.50]
05. Last Train To London [0:04:34.13]
06. Midnight Blue [0:04:20.50]
07. On The Run [0:03:57.62]
08. Wishing [0:04:14.50]
09. Don't Bring Me Down [0:04:05.63]

Exact Audio Copy V1.0 beta 3 from 29. August 2011

EAC extraction logfile from 27. November 2015, 19:43

Electric Light Orchestra / Discovery

Used drive : PLEXTOR DVDR PX-L890SA Adapter: 3 ID: 1

Read mode : Secure
Utilize accurate stream : Yes
Defeat audio cache : Yes
Make use of C2 pointers : No

Read offset correction : 6
Overread into Lead-In and Lead-Out : No
Fill up missing offset samples with silence : Yes
Delete leading and trailing silent blocks : No
Null samples used in CRC calculations : Yes
Used interface : Native Win32 interface for Win NT & 2000

Used output format : User Defined Encoder
Selected bitrate : 768 kBit/s
Quality : High
Add ID3 tag : No
Command line compressor : C:\Program Files (x86)\Exact Audio Copy\Flac\flac.exe
Additional command line options : -V -8 -T "Date=%year%" -T "Genre=%genre%" %source%


TOC of the extracted CD

Track | Start | Length | Start sector | End sector
––––––––––––––––––––––––––––-
1 | 0:00.00 | 4:44.67 | 0 | 21366
2 | 4:44.67 | 3:43.70 | 21367 | 38161
3 | 8:28.62 | 5:13.50 | 38162 | 61686
4 | 13:42.37 | 4:21.50 | 61687 | 81311
5 | 18:04.12 | 4:34.13 | 81312 | 101874
6 | 22:38.25 | 4:20.50 | 101875 | 121424
7 | 26:59.00 | 3:57.62 | 121425 | 139261
8 | 30:56.62 | 4:14.50 | 139262 | 158361
9 | 35:11.37 | 4:05.63 | 158362 | 176799


Range status and errors

Selected range

Filename H:\MUSIC\1979. ELO - Discovery (CBS-Sony CSCS 6006, Japan)\Electric Light Orchestra - Discovery.wav

Peak level 85.2 %
Extraction speed 7.9 X
Range quality 100.0 %
Test CRC 0B123F2C
Copy CRC 0B123F2C
Copy OK

No errors occurred


AccurateRip summary

Track 1 accurately ripped (confidence 4) [AB3D62D5] (AR v1)
Track 2 accurately ripped (confidence 4) [D4A01475] (AR v1)
Track 3 accurately ripped (confidence 4) [0FD8E29A] (AR v1)
Track 4 accurately ripped (confidence 4) [ABE476F1] (AR v1)
Track 5 accurately ripped (confidence 4) [F4A19BCC] (AR v1)
Track 6 accurately ripped (confidence 4) [A5C9C4FB] (AR v1)
Track 7 accurately ripped (confidence 4) [C9062BCD] (AR v1)
Track 8 accurately ripped (confidence 4) [3B12F406] (AR v1)
Track 9 accurately ripped (confidence 4) [07B81CB4] (AR v1)

All tracks accurately ripped

End of status report

==== Log checksum CB4575D21B08CD060111832F28F54E9CA452E25CA2A33FD90DBDF180BD85730B ====


[CUETools log; Date: 27.06.2017 20:53:38; Version: 2.1.2a]
[CTDB TOCID: RJRUkQDLxBkf_B4GLgpdmrhI_64-] found.
[ CTDBID ] Status
[4e5167b4] (159/557) Accurately ripped
[40e5a9c5] (294/557) No match
[ded03587] (087/557) No match
[d6492e7d] (001/557) No match
[9f9cf0ab] (001/557) No match
[ec0717e8] (001/557) No match
[1bb30f97] (001/557) No match
[cad311e6] (001/557) No match
[50b5b4ce] (001/557) No match
[fe1f957e] (001/557) No match
[3f0c5cea] (001/557) No match
[1b0ecff9] (001/557) No match
[77b52343] (001/557) No match
[abc7a952] (001/557) No match
[7544e99f] (001/557) No match
[267ced8f] (001/557) No match
[62237dea] (001/557) No match
[b70a4f6f] (001/557) No match
[0c467d0b] (001/557) No match
[cba00945] (001/557) No match
[AccurateRip ID: 000dbc9c-006463a4-66093509] found.
Track [ CRC ] Status
01 [ab3d62d5] (004/471) Accurately ripped
02 [d4a01475] (004/470) Accurately ripped
03 [0fd8e29a] (004/466) Accurately ripped
04 [abe476f1] (004/465) Accurately ripped
05 [f4a19bcc] (004/468) Accurately ripped
06 [a5c9c4fb] (004/470) Accurately ripped
07 [c9062bcd] (004/465) Accurately ripped
08 [3b12f406] (004/463) Accurately ripped
09 [07b81cb4] (004/457) Accurately ripped
AccurateRip v2:
01 [21f50392] (004/471) Accurately ripped
02 [dca14d66] (004/470) Accurately ripped
03 [9aa043cc] (004/466) Accurately ripped
04 [83538ef2] (004/465) Accurately ripped
05 [c9369158] (004/468) Accurately ripped
06 [efba6ded] (004/470) Accurately ripped
07 [150741c6] (004/465) Accurately ripped
08 [75dc2e1f] (004/463) Accurately ripped
09 [bf76283e] (004/457) Accurately ripped
Offsetted by -1175:
01 [b6aa0a3a] (002/471) Accurately ripped
02 [1ca10897] (002/470) Accurately ripped
03 [0b451a29] (002/466) Accurately ripped
04 [9fd42a77] (002/465) Accurately ripped
05 [847f5bf4] (002/468) Accurately ripped
06 [97315358] (002/470) Accurately ripped
07 [cefd6865] (002/465) Accurately ripped
08 [beef1bd9] (002/463) Accurately ripped
09 [d433451b] (002/457) Accurately ripped
Offsetted by -193:
01 [c666a9b2] (003/471) Accurately ripped
02 [f1c864a8] (003/470) Accurately ripped
03 [5aae13c9] (003/466) Accurately ripped
04 [d258df5a] (003/465) Accurately ripped
05 [606c8ef9] (003/468) Accurately ripped
06 [0f164b0c] (003/470) Accurately ripped
07 [6a27dc8c] (003/465) Accurately ripped
08 [3e1b8d89] (003/463) Accurately ripped
09 [c5aa2a10] (003/457) Accurately ripped
Offsetted by 27:
01 [4e0617be] (011/471) Accurately ripped
02 [352fd18a] (011/470) Accurately ripped
03 [8c07a3d0] (011/466) Accurately ripped
04 [dedabbb5] (011/465) Accurately ripped
05 [76d3dce2] (011/468) Accurately ripped
06 [02de17ba] (011/470) Accurately ripped
07 [926ed60a] (011/465) Accurately ripped
08 [d9407a24] (011/463) Accurately ripped
09 [97d6087b] (011/457) Accurately ripped
Offsetted by 212:
01 [5f12e395] (030/471) Accurately ripped
02 [ad6e4377] (031/470) Accurately ripped
03 [34d16255] (031/466) Accurately ripped
04 [e5837ee4] (031/465) Accurately ripped
05 [51401281] (030/468) Accurately ripped
06 [40ac6ee3] (031/470) Accurately ripped
07 [d21147b2] (031/465) Accurately ripped
08 [3b58bb8a] (030/463) Accurately ripped
09 [570096de] (029/457) Accurately ripped
Offsetted by 220:
01 [9b7c2d36] (018/471) Accurately ripped
02 [e6ebd05f] (017/470) Accurately ripped
03 [b53e3dc7] (017/466) Accurately ripped
04 [82453701] (017/465) Accurately ripped
05 [7111d737] (017/468) Accurately ripped
06 [689fa324] (017/470) Accurately ripped
07 [64db74bd] (017/465) Accurately ripped
08 [50c41bee] (017/463) Accurately ripped
09 [918ac633] (017/457) Accurately ripped
Offsetted by 299:
01 [1750fbc7] (015/471) Accurately ripped
02 [be848478] (016/470) Accurately ripped
03 [b6423e4b] (016/466) Accurately ripped
04 [92ac6f47] (016/465) Accurately ripped
05 [63cf5d2c] (016/468) Accurately ripped
06 [f0ef8edc] (016/470) Accurately ripped
07 [42fb8e30] (016/465) Accurately ripped
08 [19e2f246] (015/463) Accurately ripped
09 [77075987] (015/457) Accurately ripped
Offsetted by -282:
01 [1eaac60f] (000/471) No match but offset
02 [23c86655] (000/470) No match
03 [c4e6f60c] (000/466) No match
04 [774498b5] (000/465) No match
05 [f0cf672e] (000/468) No match
06 [11dcb71b] (000/470) No match
07 [0328dd0f] (000/465) No match
08 [93980649] (000/463) No match but offset
09 [26347fd5] (000/457) No match
Offsetted by -177:
01 [a59a212f] (000/471) No match but offset
02 [08873b9a] (000/470) No match
03 [fbaaa587] (000/466) No match
04 [3d3f1ee9] (000/465) No match
05 [8007f816] (000/468) No match
06 [c6d0956c] (000/470) No match
07 [6a0b3bfc] (000/465) No match
08 [3be95361] (000/463) No match but offset
09 [c1ac25d2] (000/457) No match
Offsetted by 274:
01 [f0485fc6] (000/471) No match but offset
02 [8f3041d4] (000/470) No match but offset
03 [c74afdb6] (000/466) No match but offset
04 [54052c15] (000/465) No match but offset
05 [6d3d4def] (000/468) No match but offset
06 [f39c664f] (000/470) No match but offset
07 [e28ba6fb] (000/465) No match but offset
08 [3a7cf16d] (000/463) No match but offset
09 [ba6c1c64] (000/457) No match but offset
Offsetted by 1124:
01 [8d3689f7] (000/471) No match but offset
02 [311a08f2] (000/470) No match
03 [fc02f0b2] (000/466) No match
04 [bbc527ba] (000/465) No match but offset
05 [dafe7fc3] (000/468) No match
06 [571ea040] (000/470) No match
07 [86d9813a] (000/465) No match
08 [cc89117c] (000/463) No match but offset
09 [80ca32da] (000/457) No match
Offsetted by 1985:
01 [cd3e07c7] (000/471) No match but offset
02 [7d374bd6] (000/470) No match
03 [5cd1dc0f] (000/466) No match
04 [45bcd719] (000/465) No match but offset
05 [f7385fc0] (000/468) No match
06 [b5c85952] (000/470) No match
07 [929f0f43] (000/465) No match
08 [c64370ba] (000/463) No match
09 [2ad7e7d7] (000/457) No match

Track Peak [ CRC32 ] [W/O NULL] [ LOG ]
– 85,2 [0B123F2C] [D3E7E6FE] CRC32
01 82,3 [126FB587] [3B04CD31]
02 81,7 [CB2749ED] [A7265A9A]
03 57,9 [6E239ECE] [0C0AB041]
04 85,2 [2B9D4C4C] [4C535C86]
05 78,7 [EDC95C89] [32CCD695]
06 68,2 [C4396F8F] [B4CABD40]
07 70,6 [E48B67A8] [8CE71435]
08 64,3 [FDFF8ACF] [38DFF0D5]
09 71,1 [FB2CC260] [8D3828EB]


Electric Light Orchestra: 9 Non Remastered Japanese CDs (1972-1983)

Tracklist CD07 - Xanadu – 1980:
1990 | CBS/Sony CSCS 6034

01. I'm Alive (Electric Light Orchestra) [0:03:48.12]
02. The Fall (Electric Light Orchestra) [0:03:37.13]
03. Don't Walk Away (Electric Light Orchestra) [0:04:47.62]
04. All Over The World (Electric Light Orchestra) [0:04:06.13]
05. Xanadu (Electric Light Orchestra & Olivia Newton-John) [0:03:30.25]
06. Magic (Olivia Newton-John) [0:04:30.37]
07. Suddenly (Olivia Newton-John with Cliff Richard) [0:04:01.38]
08. Dancin' (Olivia Newton-John with The Tubes) [0:05:16.62]
09. Suspended In Time (Olivia Newton-John) [0:03:53.63]
10. Whenever You're Away From Me (Olivia Newton-John with Gene Kelly) [0:04:18.62]

Exact Audio Copy V1.0 beta 3 from 29. August 2011

EAC extraction logfile from 15. October 2016, 22:54

ELO / Xanadu

Used drive : PLEXTOR DVDR PX-L890SA Adapter: 5 ID: 1

Read mode : Secure
Utilize accurate stream : Yes
Defeat audio cache : Yes
Make use of C2 pointers : No

Read offset correction : 6
Overread into Lead-In and Lead-Out : No
Fill up missing offset samples with silence : Yes
Delete leading and trailing silent blocks : No
Null samples used in CRC calculations : Yes
Used interface : Native Win32 interface for Win NT & 2000

Used output format : User Defined Encoder
Selected bitrate : 768 kBit/s
Quality : High
Add ID3 tag : No
Command line compressor : C:\Program Files (x86)\Exact Audio Copy\Flac\flac.exe
Additional command line options : -V -8 -T "Date=%year%" -T "Genre=%genre%" %source%


TOC of the extracted CD

Track | Start | Length | Start sector | End sector
––––––––––––––––––––––––––––-
1 | 0:00.00 | 3:48.12 | 0 | 17111
2 | 3:48.12 | 3:37.13 | 17112 | 33399
3 | 7:25.25 | 4:47.62 | 33400 | 54986
4 | 12:13.12 | 4:06.13 | 54987 | 73449
5 | 16:19.25 | 3:30.25 | 73450 | 89224
6 | 19:49.50 | 4:30.37 | 89225 | 109511
7 | 24:20.12 | 4:01.38 | 109512 | 127624
8 | 28:21.50 | 5:16.62 | 127625 | 151386
9 | 33:38.37 | 3:53.63 | 151387 | 168924
10 | 37:32.25 | 4:18.62 | 168925 | 188336


Range status and errors

Selected range

Filename H:\MUSIC\1980. ELO & Olivia Newton-John - Xanadu (CBS-Sony CSCS 6034, Japan)\ELO - Xanadu.wav

Peak level 100.0 %
Extraction speed 8.0 X
Range quality 100.0 %
Test CRC 760CDA99
Copy CRC 760CDA99
Copy OK

No errors occurred


AccurateRip summary

Track 1 accurately ripped (confidence 31) [6AB459A8] (AR v2)
Track 2 accurately ripped (confidence 31) [87A403AC] (AR v2)
Track 3 accurately ripped (confidence 31) [61B3399A] (AR v2)
Track 4 accurately ripped (confidence 31) [57323436] (AR v2)
Track 5 accurately ripped (confidence 30) [0B4C386C] (AR v2)
Track 6 accurately ripped (confidence 31) [810DDE89] (AR v2)
Track 7 accurately ripped (confidence 31) [597D010C] (AR v2)
Track 8 accurately ripped (confidence 31) [7C6D49B0] (AR v2)
Track 9 accurately ripped (confidence 31) [A0A266D5] (AR v2)
Track 10 accurately ripped (confidence 31) [1BBA9F7F] (AR v2)

All tracks accurately ripped

End of status report

==== Log checksum CDD4B6B4FA0DAC32A77CD8CC1EED176AB0496A90F60E02458EF17A3F3A1D7AB1 ====


[CUETools log; Date: 27.06.2017 21:48:41; Version: 2.1.2a]
[CTDB TOCID: A_m6h8yTzRSZxmK6kpy2.sqJcLk-] found.
[ CTDBID ] Status
[d37a7bf3] (46/48) Accurately ripped
[e88b00c1] (02/48) Differs in 4411 samples @15:48:43,15:53:73,15:57:17-15:57:18,15:57:66-15:57:67,15:58:16-15:58:17,15:59:15,15:59:27-15:59:28,16:00:14,16:00:26,16:00:38,16:00:62-16:00:63,16:01:00,16:01:36-16:01:37,16:02:23-16:02:24,16:02:60-16:02:61,16:05:07,16:06:30-16:06:31,16:07:04-16:07:05,16:07:17,16:07:29-16:07:30,16:07:41-16:07:42,16:08:03-16:08:04,16:08:28,16:08:52-16:08:53,16:09:14-16:09:15,16:09:51-16:09:52,16:10:13-16:10:14,16:10:50-16:10:51,16:11:12,16:11:36-16:11:37,16:12:11-16:12:12,16:12:23,16:12:35-16:12:36,16:12:48,16:13:34-16:13:35,16:13:47,16:14:21-16:14:22,16:14:45-16:14:46,16:14:70-16:14:71,16:15:57,16:15:69-16:15:70,16:16:06-16:16:07,16:16:19-16:16:20,16:16:43-16:16:44,16:16:68-16:16:69,16:17:05-16:17:06,16:17:18-16:17:19,16:17:55-16:17:56,16:17:67-16:17:68,16:18:29-16:18:30,16:19:65-16:19:66,16:20:02-16:20:03,16:20:52-16:20:53,16:20:64-16:20:65,16:21:01-16:21:02,16:21:26-16:21:27,16:22:13-16:22:14,16:22:50,16:23:12-16:23:13,16:23:24,16:23:49-16:23:50,16:23:61-16:23:62,16:25:10,16:25:60,16:26:34,16:28:20,16:28:69-16:28:70,16:32:42,16:47:33-16:47:34,16:49:32-16:49:33,17:15:42,17:18:17-17:18:18,17:19:30,17:20:30,17:22:18,17:22:55-17:22:56,17:23:68,17:26:06,17:26:69-17:26:70,17:28:45,17:32:72,17:47:30-17:47:31,23:58:66,23:59:73,24:08:05-24:08:06,24:15:19,24:16:40-24:16:41,24:17:48,24:17:62,24:18:15,24:18:70-24:18:71,24:19:23,24:19:50-24:19:51,24:20:03,24:20:44-24:20:45,24:20:72-24:20:73,24:21:39,24:21:53,24:21:66-24:21:67,24:22:05,24:22:33,24:22:61,24:22:74-24:23:00,24:23:13-24:23:14,24:23:41,24:24:07-24:24:08,24:24:21,24:24:35-24:24:36,24:25:02,24:25:43-24:25:44,24:25:57,24:25:71-24:25:72,24:26:10,24:26:24,24:26:51-24:26:52,24:26:65-24:26:66,24:27:04,24:27:18-24:27:19,24:27:32-24:27:33,24:27:46,24:27:59-24:27:60,24:27:73-24:27:74,24:28:26-24:28:27,24:28:40-24:28:41,24:28:54,24:28:68,24:29:06-24:29:07,24:29:34-24:29:35,24:29:48-24:29:49,24:29:62-24:29:63,24:30:15,24:30:28-24:30:29,24:30:56-24:30:57,24:30:70-24:30:71,24:31:09-24:31:10,24:31:23-24:31:24,24:31:37,24:31:51,24:31:64-24:31:65,24:32:03-24:32:04,24:32:45-24:32:46,24:32:59-24:32:60,24:33:11-24:33:12,24:33:25-24:33:26,24:33:39-24:33:40,24:33:53-24:33:54,24:33:67-24:33:68,24:34:06,24:34:20,24:34:34,24:34:48,24:34:61-24:34:62,24:35:00-24:35:01,24:35:14-24:35:15,24:35:28-24:35:29,24:36:09,24:36:22-24:36:23,24:36:36-24:36:37,24:36:50-24:36:51,24:36:64-24:36:65,24:37:03-24:37:04,24:37:17-24:37:18,24:37:45,24:37:58-24:37:59,24:37:72-24:37:73,24:38:11-24:38:12,24:38:53-24:38:54,24:38:67-24:38:68,24:39:06,24:39:20,24:39:33-24:39:34,24:39:61-24:39:62,24:40:00,24:40:14-24:40:15,24:40:28-24:40:29,24:40:42,24:40:70,24:41:09,24:41:23,24:41:36-24:41:37,24:41:64-24:41:65,24:42:17-24:42:18,24:42:45,24:42:59,24:42:72-24:42:73,24:43:39-24:43:40,24:43:53-24:43:54,24:44:20-24:44:21,24:44:48,24:44:62,24:45:28-24:45:29,24:45:56-24:45:57,24:46:09-24:46:10,24:46:23-24:46:24,24:46:37,24:46:51,24:46:65,24:47:04,24:47:45-24:47:46,24:47:59-24:47:60,24:48:26,24:49:20-24:49:21,24:50:15-24:50:16,29:22:20-29:22:21,29:34:03-29:34:04,29:39:55-29:39:56,40:43:54-40:43:55,41:12:42-41:12:43,41:35:74-41:36:00
[AccurateRip ID: 000f78c8-007ca23d-6c09cf0a] found.
Track [ CRC ] Status
01 [fdff53fb] (20/53) Accurately ripped
02 [ebc79c2c] (19/52) Accurately ripped
03 [bf60d107] (19/52) Accurately ripped
04 [cf531f8b] (20/53) Accurately ripped
05 [329187b0] (23/55) Accurately ripped
06 [2af22e71] (19/52) Accurately ripped
07 [2e0bc400] (20/53) Accurately ripped
08 [20291e4e] (19/52) Accurately ripped
09 [dee31065] (19/52) Accurately ripped
10 [70c51c8d] (19/52) Accurately ripped
AccurateRip v2:
01 [6ab459a8] (33/53) Accurately ripped
02 [87a403ac] (33/52) Accurately ripped
03 [61b3399a] (33/52) Accurately ripped
04 [57323436] (33/53) Accurately ripped
05 [0b4c386c] (32/55) Accurately ripped
06 [810dde89] (33/52) Accurately ripped
07 [597d010c] (33/53) Accurately ripped
08 [7c6d49b0] (33/52) Accurately ripped
09 [a0a266d5] (33/52) Accurately ripped
10 [1bba9f7f] (33/52) Accurately ripped

Track Peak [ CRC32 ] [W/O NULL] [ LOG ]
– 100,0 [760CDA99] [F2954133] CRC32
01 97,7 [6834FAD9] [2EE55454]
02 100,0 [6D05D64D] [F86B6F20]
03 97,7 [331D8E4A] [BD1F05E4]
04 100,0 [34EBB3B7] [9B1ADE46]
05 97,7 [D2576CCD] [91C820CD]
06 100,0 [41D82136] [B0F78D56]
07 75,3 [6701C586] [5D1F344A]
08 87,4 [A8513D8F] [850C4001]
09 77,6 [3DA96713] [E599082F]
10 83,1 [2157DF60] [576F8029]


Electric Light Orchestra: 9 Non Remastered Japanese CDs (1972-1983)

Tracklist CD08 - Time – 1981:
1990 | CBS/Sony CSCS 6035

01. Prologue [0:01:15.65]
02. Twilight [0:03:42.07]
03. Yours Truly, 2095 [0:03:12.03]
04. Ticket To The Moon [0:04:07.15]
05. The Way Life's Meant To Be [0:04:39.00]
06. Another Heart Breaks [0:03:48.05]
07. Rain Is Falling [0:03:54.55]
08. From The End Of The World [0:03:16.45]
09. The Lights Go Down [0:03:33.35]
10. Here Is The News [0:03:45.30]
11. 21st Century Man [0:04:08.62]
12. Hold On Tight [0:03:06.30]
13. Epilogue [0:01:33.48]

Exact Audio Copy V1.0 beta 3 from 29. August 2011

EAC extraction logfile from 20. August 2015, 16:14

Electric Light Orchestra / Time

Used drive : PLEXTOR DVDR PX-L890SA Adapter: 3 ID: 1

Read mode : Secure
Utilize accurate stream : Yes
Defeat audio cache : Yes
Make use of C2 pointers : No

Read offset correction : 6
Overread into Lead-In and Lead-Out : No
Fill up missing offset samples with silence : Yes
Delete leading and trailing silent blocks : No
Null samples used in CRC calculations : Yes
Used interface : Native Win32 interface for Win NT & 2000

Used output format : User Defined Encoder
Selected bitrate : 768 kBit/s
Quality : High
Add ID3 tag : No
Command line compressor : C:\Program Files (x86)\Exact Audio Copy\Flac\flac.exe
Additional command line options : -V -8 -T "Date=%year%" -T "Genre=%genre%" %source%


TOC of the extracted CD

Track | Start | Length | Start sector | End sector
––––––––––––––––––––––––––––-
1 | 0:00.00 | 1:15.65 | 0 | 5689
2 | 1:15.65 | 3:42.07 | 5690 | 22346
3 | 4:57.72 | 3:12.03 | 22347 | 36749
4 | 8:10.00 | 4:07.15 | 36750 | 55289
5 | 12:17.15 | 4:39.00 | 55290 | 76214
6 | 16:56.15 | 3:48.05 | 76215 | 93319
7 | 20:44.20 | 3:54.55 | 93320 | 110924
8 | 24:39.00 | 3:16.45 | 110925 | 125669
9 | 27:55.45 | 3:33.35 | 125670 | 141679
10 | 31:29.05 | 3:45.30 | 141680 | 158584
11 | 35:14.35 | 4:08.62 | 158585 | 177246
12 | 39:23.22 | 3:06.30 | 177247 | 191226
13 | 42:29.52 | 1:33.48 | 191227 | 198249


Range status and errors

Selected range

Filename H:\MUSIC\1981. ELO - Time (CBS-Sony CSCS 6035, Japan)\Electric Light Orchestra - Time.wav

Peak level 100.0 %
Extraction speed 8.2 X
Range quality 100.0 %
Test CRC 3134317A
Copy CRC 3134317A
Copy OK

No errors occurred


AccurateRip summary

Track 1 accurately ripped (confidence 5) [76C9FB5B] (AR v1)
Track 2 accurately ripped (confidence 5) [CBD765FA] (AR v1)
Track 3 accurately ripped (confidence 5) [D3A706A3] (AR v1)
Track 4 accurately ripped (confidence 5) [EAACEAA3] (AR v1)
Track 5 accurately ripped (confidence 5) [F17C78EF] (AR v1)
Track 6 accurately ripped (confidence 5) [E9AE2126] (AR v1)
Track 7 accurately ripped (confidence 5) [C8E00B33] (AR v1)
Track 8 accurately ripped (confidence 5) [3DBE9F80] (AR v1)
Track 9 accurately ripped (confidence 5) [1C0C98FC] (AR v1)
Track 10 accurately ripped (confidence 5) [A7E2E19E] (AR v1)
Track 11 accurately ripped (confidence 5) [53485181] (AR v1)
Track 12 accurately ripped (confidence 5) [AE2C617B] (AR v1)
Track 13 accurately ripped (confidence 5) [D3ED66F2] (AR v1)

All tracks accurately ripped

End of status report

==== Log checksum D8DE1C59BF4F0CBE4F78AB2E879063201D34DC1B6E5BD1BD3B0A1F9D9B15E15E ====


[CUETools log; Date: 27.06.2017 21:51:41; Version: 2.1.2a]
[CTDB TOCID: wWK2etwktHyT2b2GFDtErsRj1rQ-] found.
[ CTDBID ] Status
[9d97224b] (22/22) Accurately ripped
[AccurateRip ID: 0015422c-00d86082-ba0a530d] found.
Track [ CRC ] Status
01 [76c9fb5b] (5/9) Accurately ripped
02 [cbd765fa] (5/9) Accurately ripped
03 [d3a706a3] (5/9) Accurately ripped
04 [eaaceaa3] (5/9) Accurately ripped
05 [f17c78ef] (5/9) Accurately ripped
06 [e9ae2126] (5/9) Accurately ripped
07 [c8e00b33] (5/9) Accurately ripped
08 [3dbe9f80] (5/9) Accurately ripped
09 [1c0c98fc] (5/9) Accurately ripped
10 [a7e2e19e] (5/9) Accurately ripped
11 [53485181] (5/9) Accurately ripped
12 [ae2c617b] (5/9) Accurately ripped
13 [d3ed66f2] (5/9) Accurately ripped
AccurateRip v2:
01 [2622acc3] (4/9) Accurately ripped
02 [e2153d4d] (4/9) Accurately ripped
03 [c30e6fde] (4/9) Accurately ripped
04 [38492619] (4/9) Accurately ripped
05 [82440878] (4/9) Accurately ripped
06 [f1b13865] (4/9) Accurately ripped
07 [a12fcb12] (4/9) Accurately ripped
08 [3e14840a] (4/9) Accurately ripped
09 [9450deda] (4/9) Accurately ripped
10 [f77926bd] (4/9) Accurately ripped
11 [e91dc573] (4/9) Accurately ripped
12 [c1ca0219] (4/9) Accurately ripped
13 [1a2fb52d] (4/9) Accurately ripped

Track Peak [ CRC32 ] [W/O NULL] [ LOG ]
– 100,0 [3134317A] [0C4D5E8A] CRC32
01 86,0 [3E41F9DD] [6D00EC12]
02 91,7 [396967FE] [BAF8425E]
03 72,7 [DE80A1FA] [EAD8D1C1]
04 68,1 [46DA50A6] [031F0E24]
05 95,3 [4C55FE16] [089412F1]
06 90,0 [4CF31B52] [B2206B7F]
07 60,8 [CB630F40] [766B1146]
08 80,2 [BBFFEC52] [4850FBBC]
09 100,0 [1C7E4584] [2A9091EC]
10 92,8 [E09B7559] [1B2456C0]
11 81,7 [DEF7C537] [6FEC0C68]
12 79,2 [4E0D20BA] [3717AC70]
13 93,2 [B5BF0543] [A9B8E0DD]


Electric Light Orchestra: 9 Non Remastered Japanese CDs (1972-1983)

Tracklist CD09 - Secret Messages – 1983:
1990 | CBS/Sony CSCS 6036

01. Secret Messages [0:04:44.42]
02. Loser Gone Wild [0:05:25.63]
03. Bluebird [0:04:06.20]
04. Take Me On And On [0:05:05.02]
05. Time After Time [0:04:01.35]
06. Four Little Diamonds [0:04:05.03]
07. Stranger [0:04:27.37]
08. Danger Ahead [0:03:52.15]
09. Letter from Spain [0:02:51.25]
10. Train of Gold [0:04:20.48]
11. Rock'n Roll Is King [0:03:16.60]

Exact Audio Copy V1.0 beta 3 from 29. August 2011

EAC extraction logfile from 24. October 2015, 21:35

ELO / Secret Messages

Used drive : PLEXTOR DVDR PX-L890SA Adapter: 3 ID: 1

Read mode : Secure
Utilize accurate stream : Yes
Defeat audio cache : Yes
Make use of C2 pointers : No

Read offset correction : 6
Overread into Lead-In and Lead-Out : No
Fill up missing offset samples with silence : Yes
Delete leading and trailing silent blocks : No
Null samples used in CRC calculations : Yes
Used interface : Native Win32 interface for Win NT & 2000

Used output format : User Defined Encoder
Selected bitrate : 768 kBit/s
Quality : High
Add ID3 tag : No
Command line compressor : C:\Program Files (x86)\Exact Audio Copy\Flac\flac.exe
Additional command line options : -V -8 -T "Date=%year%" -T "Genre=%genre%" %source%


TOC of the extracted CD

Track | Start | Length | Start sector | End sector
––––––––––––––––––––––––––––-
1 | 0:00.00 | 4:44.42 | 0 | 21341
2 | 4:44.42 | 5:25.63 | 21342 | 45779
3 | 10:10.30 | 4:06.20 | 45780 | 64249
4 | 14:16.50 | 5:05.02 | 64250 | 87126
5 | 19:21.52 | 4:01.35 | 87127 | 105236
6 | 23:23.12 | 4:05.03 | 105237 | 123614
7 | 27:28.15 | 4:27.37 | 123615 | 143676
8 | 31:55.52 | 3:52.15 | 143677 | 161091
9 | 35:47.67 | 2:51.25 | 161092 | 173941
10 | 38:39.17 | 4:20.48 | 173942 | 193489
11 | 42:59.65 | 3:16.60 | 193490 | 208249


Range status and errors

Selected range

Filename H:\MUSIC\1983. ELO - Secret Messages (CBS-Sony CSCS 6036, Japan)\ELO - Secret Messages.wav

Peak level 100.0 %
Extraction speed 7.6 X
Range quality 99.9 %
Test CRC EA39CC0E
Copy CRC EA39CC0E
Copy OK

No errors occurred


AccurateRip summary

Track 1 accurately ripped (confidence 2) [0B0AF97E] (AR v2)
Track 2 accurately ripped (confidence 2) [AC1833E9] (AR v2)
Track 3 accurately ripped (confidence 2) [73FB137F] (AR v2)
Track 4 accurately ripped (confidence 2) [891E61FB] (AR v2)
Track 5 accurately ripped (confidence 2) [E930EB74] (AR v2)
Track 6 accurately ripped (confidence 2) [8D7B5783] (AR v2)
Track 7 accurately ripped (confidence 2) [53EB6B7D] (AR v2)
Track 8 accurately ripped (confidence 2) [6F945557] (AR v2)
Track 9 accurately ripped (confidence 2) [637EF9A3] (AR v2)
Track 10 accurately ripped (confidence 2) [014FF747] (AR v1)
Track 11 accurately ripped (confidence 2) [C0C59203] (AR v1)

All tracks accurately ripped

End of status report

==== Log checksum 85C7E7510FF1FEBD7EFE1D5F0E60D699050FAA89C39F35545DBA00FEE70C654C ====


[CUETools log; Date: 27.06.2017 21:55:38; Version: 2.1.2a]
[CTDB TOCID: iDSiLQIR.zZxX4wYGk4YCafSHXg-] found.
[ CTDBID ] Status
[3804e473] (5/5) Accurately ripped
[AccurateRip ID: 001442ba-00acf711-8b0ad80b] found.
Track [ CRC ] Status
01 [32c581fa] (2/5) Accurately ripped
02 [df29206e] (2/5) Accurately ripped
03 [23e8fc78] (2/5) Accurately ripped
04 [8e5a9a29] (2/5) Accurately ripped
05 [802a9113] (2/5) Accurately ripped
06 [c79db70d] (2/5) Accurately ripped
07 [2f1358ac] (2/5) Accurately ripped
08 [3c8d17bd] (2/5) Accurately ripped
09 [e830385d] (2/5) Accurately ripped
10 [014ff747] (2/4) Accurately ripped
11 [c0c59203] (2/4) Accurately ripped
AccurateRip v2:
01 [0b0af97e] (3/5) Accurately ripped
02 [ac1833e9] (3/5) Accurately ripped
03 [73fb137f] (3/5) Accurately ripped
04 [891e61fb] (3/5) Accurately ripped
05 [e930eb74] (3/5) Accurately ripped
06 [8d7b5783] (3/5) Accurately ripped
07 [53eb6b7d] (3/5) Accurately ripped
08 [6f945557] (3/5) Accurately ripped
09 [637ef9a3] (3/5) Accurately ripped
10 [9b4fb6e9] (2/4) Accurately ripped
11 [47603e64] (2/4) Accurately ripped

Track Peak [ CRC32 ] [W/O NULL] [ LOG ]
– 100,0 [EA39CC0E] [02329D5E] CRC32
01 93,1 [CC36A194] [42ED8EFC]
02 100,0 [EAA3EB3A] [DD2BC2BE]
03 90,8 [CB412129] [5FD50DB3]
04 91,1 [2BE0893F] [89A87E34]
05 89,0 [5F5A2CBD] [27A435A2]
06 98,8 [DAB2E1FB] [769F8820]
07 93,0 [259A8CF9] [34938F91]
08 99,4 [E22ED465] [9408E462]
09 44,8 [BC856B07] [F3A7CD16]
10 93,3 [A954B3B7] [E5F9E049]
11 100,0 [68297A6F] [B9F49CBB]


* * *

All thanks go to snakesharmer

Electric Light Orchestra in my Blog

Download Electric Light Orchestra: 9 Non Remastered Japanese CDs (1972-1983):