Subcategories

Electric Light Orchestra - A New World Record (1976) [1991, EU Reissue for Spain Market]

Posted By: BlondStyle
Electric Light Orchestra - A New World Record (1976) [1991, EU Reissue for Spain Market]

Electric Light Orchestra - A New World Record (1976) [1991, EU Reissue for Spain Market]
Rock, Art Rock, Progressive Rock | EAC Rip | FLAC, Img+CUE+LOG+Full Scans-600dpi (JPEG) | 36:37 Min | 234,76 Mb
Label: Epic (EU) | Released: 1991
Electric Light Orchestra - A New World Record (1976) [1991, EU Reissue for Spain Market]

It's pretty rare 1991 Austrian edition for Spain Market of "A New World Record", where as a result of the erroneous merger of two songs ("Livin 'Thing" and the instrumental "Above The Clouds") we got only 8 tracks instead of 9. Jeff Lynne reportedly regards this album and its follow-up, Out of the Blue, as the high points in the band's history. One might be better off opting for A New World Record over its successor, however, as a more modest-sized creation chock full of superb songs that are produced even better. Opening with the opulently orchestrated "Tightrope," which heralds the perfect production found throughout this album, A New World Record contains seven of the best songs ever to come out of the group. The Beatles influence is present, to be sure, but developed to a very high degree of sophistication and on Lynne's own terms, rather than being imitative of specific songs. "Telephone Line" might be the best Lennon-McCartney collaboration that never was, lyrical and soaring in a way that manages to echo elements of Revolver and the Beatles without ever mimicking them. The original LP's second side opened with "So Fine," which seems like the perfect pop synthesis of guitar, percussion, and orchestral sounds, embodying precisely what Lynne had first set out to do with Roy Wood at the moment ELO was conceived. From there, the album soars through stomping rock numbers like "Livin' Thing" and "Do Ya," interspersed with lyrical pieces like "Above the Clouds" (which makes striking use of pizzicato bass strings).
Electric Light Orchestra - A New World Record (1976) [1991, EU Reissue for Spain Market]

Electric Light Orchestra - A New World Record (1976) [1991, EU Reissue for Spain Market]


Release of the album: 1976, September, 11 [LP Jet Records, Cat.# UAG 30017, UA-LA 679, JET LP 20, UK]
Release of this CD: 1991 [CD Epic (EU), Cat.# EPC 468880 2 / UPC: 5099746888022]
© 1976 Sony Music Entertainment Inc. / "Epic" is the exclusive trademark of Sony Music Entertainment Inc. / Distribution Sony Music
Note: CD was made in Austria. Jewelcase comes in Cardboard Slipcase which was made in Spain. Especially for the Spanish market, because the sleeve says: "El Arte De E.L.O.".

Arranged By [Orchestra, Choral] – Jeff Lynne, Louis Clark, Richard Tandy
Cello – Hugh McDowell, Melvyn Gale
Conductor [Orchestra] – Louis Clark
Drums, Synthesizer [Mini Moog Drum], Percussion, Backing Vocals – Bev Bevan
Edited By – Duane Scott
Electric Piano, Synthesizer, Guitar, Clavinet [Hohner], Piano [Grand Piano], Mellotron, Percussion, Backing Vocals – Richard Tandy
Engineer – Dick Plant, John Richards
Producer, Written-By – Jeff Lynne
Violin – Mik Kaminski
Vocals, Bass, Percussion, Backing Vocals – Kelly Groucutt
Vocals, Guitar [Lead, Rhythm, Slide], Percussion, Electric Piano – Jeff Lynne


Tracklist:

01. Tightrope (05:06)
(Jeff Lynne)
02. Telephone Line (04:40)
(Jeff Lynne)
03. Rockaria! (03:13)
(Jeff Lynne)
04. Mission (A World Record) (04:29)
(Jeff Lynne)
05. So Fine (03:56)
(Jeff Lynne)
06. Livin' Thing (05:50)
(Jeff Lynne)
07. Do Ya (03:45)
(Jeff Lynne)
08. Shangri-La (05:38)
(Jeff Lynne)

Exact Audio Copy V0.99 prebeta 5 from 4. May 2009

EAC extraction logfile from 10. October 2015, 9:39

Electric Light Orchestra / A New World Record

Used drive : ATAPI iHAS122 C Adapter: 1 ID: 1

Read mode : Secure
Utilize accurate stream : Yes
Defeat audio cache : Yes
Make use of C2 pointers : No

Read offset correction : 6
Overread into Lead-In and Lead-Out : No
Fill up missing offset samples with silence : Yes
Delete leading and trailing silent blocks : No
Null samples used in CRC calculations : Yes
Used interface : Native Win32 interface for Win NT & 2000

Used output format : Internal WAV Routines
Sample format : 44.100 Hz; 16 Bit; Stereo


TOC of the extracted CD

Track | Start | Length | Start sector | End sector
––––––––––––––––––––––––––––-
1 | 0:00.00 | 5:05.42 | 0 | 22916
2 | 5:05.42 | 4:40.25 | 22917 | 43941
3 | 9:45.67 | 3:13.13 | 43942 | 58429
4 | 12:59.05 | 4:28.42 | 58430 | 78571
5 | 17:27.47 | 3:56.13 | 78572 | 96284
6 | 21:23.60 | 5:49.62 | 96285 | 122521
7 | 27:13.47 | 3:45.33 | 122522 | 139429
8 | 30:59.05 | 5:38.00 | 139430 | 164779


Range status and errors

Selected range

Filename C:\Users\arthu\Desktop\Electric Light Orchestra - A New World Record.wav

Peak level 89.7 %
Range quality 100.0 %
Test CRC 059AC0F5
Copy CRC 059AC0F5
Copy OK

No errors occurred


AccurateRip summary

Track 1 accurately ripped (confidence 47) [D2349B03]
Track 2 accurately ripped (confidence 48) [5ED55CAF]
Track 3 accurately ripped (confidence 48) [6DFC58B0]
Track 4 accurately ripped (confidence 48) [DB2351FE]
Track 5 accurately ripped (confidence 48) [400E65E5]
Track 6 accurately ripped (confidence 49) [836F6AE0]
Track 7 accurately ripped (confidence 48) [059111E7]
Track 8 accurately ripped (confidence 47) [3A446404]

All tracks accurately ripped

End of status report

foobar2000 1.3.7 / Dynamic Range Meter 1.1.1
log date: 2016-02-10 20:09:22

––––––––––––––––––––––––––––––––––––––––
Analyzed: Electric Light Orchestra / A New World Record
––––––––––––––––––––––––––––––––––––––––

DR Peak RMS Duration Track
––––––––––––––––––––––––––––––––––––––––
DR11 -2.67 dB -16.65 dB 5:06 01-Tightrope
DR12 -2.55 dB -17.51 dB 4:40 02-Telephone Line
DR11 -1.22 dB -14.60 dB 3:13 03-Rockaria
DR11 -1.36 dB -16.10 dB 4:29 04-Mission (A World Record)
DR12 -1.68 dB -16.63 dB 3:56 05-So Fine
DR11 -2.36 dB -17.68 dB 5:50 06-Livinґ Thing
DR11 -0.94 dB -15.31 dB 3:45 07-Do Ya
DR11 -3.16 dB -16.79 dB 5:38 08-Shangri-La
––––––––––––––––––––––––––––––––––––––––

Number of tracks: 8
Official DR value: DR11

Samplerate: 44100 Hz
Channels: 2
Bits per sample: 16
Bitrate: 790 kbps
Codec: FLAC
================================================================================

All thanks to London
Nitroflare
password: BlondStyle