Subcategories

Elf - Carolina County Ball (1974)

Posted By: v3122
Elf - Carolina County Ball (1974)

Elf - Carolina County Ball (1974)
EAC | Flac(Image) + Cue + Log & MP3 CBR 320Kbps
1991 | Line, LICD9.00115 | ~ 245 or 89 Mb | Scans(jpg) -> 53 Mb
Classic Rock

Two years after the release of their eponymous debut, Elf went back into the studio to record their second album. In this time, some changes had taken place with regards to the band’s lineup. David ‘Rock’ Feinstein was replaced as the group’s axeman by Steve Edwards and Craig Gruber was brought in to handle bass guitar duties. This freed up singer Ronald James Padavona (A.K.A. Ronnie James Dio) to concentrate fully on his vocals and lyrics for the next album. Along with the newcomers and fellow veterans Mickey Lee Soule on the keys and Gary Driscoll battering the skins, Ronnie set about making an album superior to their groundbreaking but hardly successful debut, in his bid to forge a name for himself and his band.

Despite being a brilliantly conceived and expertly executed record, not to mention falling very much in line with the 1970s rock music zeitgeist, Elf did not see much commercial success. Even touring in support of rock giants Deep Purple did not seem to be gaining the band much in the way of recognition. However, producer and Deep Purple bassist Roger Glover continued to believe in them and kept them on his Purple label, financing two more albums for the band. They also caught the attentions of guitar legend Ritchie Blackmore, who left Deep Purple in 1974. The Deep Purple influence is even more evident in Carolina County Ball than the debut, resulting in a much more complex effort that brought together elements of hard rock, funk, jazz, blues, southern rock and a dose of boogie-woogie to boot. Those who would only come to know Dio through his work with Black Sabbath and his own eponymous band may find this sound shocking, even comical, but it was with this sound that Dio made his name, and things were about to get a lot more interesting.

The first point of interest is new guitarist Steve Edwards. Edwards had pretty big boots to fill, replacing Dio’s own cousin on the six– string. Feinstein’s axework was integral to the raw rocking sound of the group’s debut. Thankfully, Edwards’ skill is on par with Feinstein’s, dishing out those licks and riffs in a style so similar to Feinstein that his addition to the band’s ranks was to no detriment whatsoever. Edwards shines on tracks such as the hard-rocking L.A. 59- the track after which the album was named in the United States and Japan for some reason- and the ridiculously catchy Annie New Orleans. He could certainly solo like the best of his contemporaries, which included the likes of Joe Perry of Aerosmith and Jimmy Page of Led Zeppelin. New bassist Gruber shows off his chops brilliantly here as well, showing himself to be a much more capable bassist than Dio. Joined by the underrated Driscoll, their simple but crucial driving rhythms keep the album afloat. Gruber’s work also adds funky elements more prominently than on the debut, with songs such as the bouncy title track and the surreal closer Blanche being of a deeper and more complex nature than much of the tracks on the debut.

Mickey Lee Soule, however, absolutely tears it up on the piano throughout the record. Rock and roll has produced some fine musicians over the years, but Soule is certainly amongst the most underrated of all time. He practically does the work of a second bassist and a second guitarist simultaneously, with plenty of lead breaks on the keys and even a few full blown piano solos here and there, such as in the mid-paced rocker Rocking Chair Rock N Roll Blues and the especially piano-centric Rainbow. The piano and guitar intertwine most effectively on the super slow Happy, the closest thing the album has to a ballad. As a whole, the album is much more complex instrument-wise, with each member demonstrating a wide range of influences that shine through to make each of the songs more distinguishable from one another, something that their first album was somewhat lacking.

Of course, there’s no way to draw attention from the main man himself, and Dio’s distinctive, raspy wails are abundant on this album, as one would expect. Much like the last effort, Dio uses more aspects of his voice here than he would on future releases. Of course, this is because his versatility as a vocalist allowed him to adapt to whatever style of music he sang over, and in this case he was left to fly free as much as possible. This works, as one would expect, very much to the record’s advantage. If you want slow, Dio could pull off a haunting, doomy performance. If you wanted upbeat and perky, Dio was also the man for the job. He truly puts his heart and soul into his performance this time around, and it really shows as each distinctive song has its own distinctive layer of vocals to add to their already complex nature. The lyrics are quirky, even by Dio’s standards, but rather than singing of wizards and dragons, we get gems like hey doo-oo, on a boogie-woogie Friday night and crazy little woman go down, go down, go down, go down, down to where the honey is sweet. If the Elf albums didn’t exist, never in a million years would anyone imagine the voice of metal himself to come out with such material!

In their attempts to make a better record than its predecessor, Elf had great success with Carolina County Ball. The songs here are much more complex and intellectually arousing yet retain their upbeat and catchy feel that made the debut so enjoyable. Elf’s sophomore release is without a doubt their crowning achievement, blending a vast array of influences correctly and cohesively with outstanding performances from all members involved. Though they would release one more album under the Elf moniker, Carolina County Ball is the one they should have been most proud of. It was by all means a spectacular achievement, cramming so much in there and still having an album chock full of tasty cuts that makes it so irresistibly infectious that the listener is bound to tap their feet along to the nine hard-rocking, funky tunes.

by Conor, sputnikmusic.com
Elf - Carolina County Ball (1974):

Elf - Carolina County Ball (1974)

Tracklist:

01. Carolina Country Ball [0:04:48.30]
02. L.A. 59 [0:04:22.30]
03. Ain't It All Amusing [0:04:59.22]
04. Happy [0:05:20.40]
05. Annie New Orleans [0:03:00.38]
06. Rocking Chair Rock 'N' Roll Blues [0:05:38.37]
07. Rainbow [0:04:00.48]
08. Do The Same Thing [0:03:17.57]
09. Blanche [0:02:11.73]

Ronnie James Dio- vocals
Mickey Lee Soule- piano
Gary Driscoll- drums
Steve Edwards- guitar
Craig Gruber- bass guitar


Exact Audio Copy V1.0 beta 3 from 29. August 2011

EAC extraction logfile from 30. April 2016, 9:53

Elf / Carolina County Ball

Used drive : PLEXTOR DVDR PX-L890SA Adapter: 5 ID: 1

Read mode : Secure
Utilize accurate stream : Yes
Defeat audio cache : Yes
Make use of C2 pointers : No

Read offset correction : 6
Overread into Lead-In and Lead-Out : No
Fill up missing offset samples with silence : Yes
Delete leading and trailing silent blocks : No
Null samples used in CRC calculations : Yes
Used interface : Native Win32 interface for Win NT & 2000

Used output format : User Defined Encoder
Selected bitrate : 768 kBit/s
Quality : High
Add ID3 tag : No
Command line compressor : C:\Program Files (x86)\Exact Audio Copy\Flac\flac.exe
Additional command line options : -V -8 -T "Date=%year%" -T "Genre=%genre%" %source%


TOC of the extracted CD

Track | Start | Length | Start sector | End sector
––––––––––––––––––––––––––––-
1 | 0:00.00 | 4:48.30 | 0 | 21629
2 | 4:48.30 | 4:22.30 | 21630 | 41309
3 | 9:10.60 | 4:59.22 | 41310 | 63756
4 | 14:10.07 | 5:20.40 | 63757 | 87796
5 | 19:30.47 | 3:00.38 | 87797 | 101334
6 | 22:31.10 | 5:38.37 | 101335 | 126721
7 | 28:09.47 | 4:00.48 | 126722 | 144769
8 | 32:10.20 | 3:17.57 | 144770 | 159601
9 | 35:28.02 | 2:11.73 | 159602 | 169499


Range status and errors

Selected range

Filename H:\MUSIC\1974. Elf - Carolina County Ball (Line LICD9.00115 O, Germany)\Elf - Carolina County Ball.wav

Peak level 86.5 %
Extraction speed 7.7 X
Range quality 100.0 %
Test CRC FAF580B6
Copy CRC FAF580B6
Copy OK

No errors occurred


AccurateRip summary

Track 1 accurately ripped (confidence 3) [3F494D61] (AR v2)
Track 2 accurately ripped (confidence 3) [62E024D6] (AR v2)
Track 3 accurately ripped (confidence 3) [7CA95F66] (AR v2)
Track 4 accurately ripped (confidence 3) [7467FCE7] (AR v2)
Track 5 accurately ripped (confidence 3) [BEE6880A] (AR v2)
Track 6 accurately ripped (confidence 3) [E2548255] (AR v2)
Track 7 accurately ripped (confidence 3) [57F4CEBB] (AR v2)
Track 8 accurately ripped (confidence 3) [72DAF902] (AR v2)
Track 9 accurately ripped (confidence 3) [EC1B8FBA] (AR v2)

All tracks accurately ripped

End of status report

==== Log checksum 1474B2240EBA775D3E1ABFFE7E503B3D5B04394C7B4AF9D24C6F7919EF6F485A ====

foobar2000 1.2.9 / Dynamic Range Meter 1.1.1
log date: 2016-08-21 12:18:03

––––––––––––––––––––––––––––––––––––––––
Analyzed: Elf / Carolina County Ball
––––––––––––––––––––––––––––––––––––––––

DR Peak RMS Duration Track
––––––––––––––––––––––––––––––––––––––––
DR12 -2.38 dB -16.95 dB 4:48 01-Carolina Country Ball
DR12 -1.80 dB -16.57 dB 4:22 02-L.A. 59
DR13 -1.26 dB -17.04 dB 4:59 03-Ain't It All Amusing
DR11 -2.21 dB -16.88 dB 5:21 04-Happy
DR12 -2.42 dB -16.02 dB 3:01 05-Annie New Orleans
DR12 -1.84 dB -16.59 dB 5:38 06-Rocking Chair Rock 'N' Roll Blues
DR12 -1.82 dB -16.87 dB 4:01 07-Rainbow
DR12 -2.68 dB -16.80 dB 3:18 08-Do The Same Thing
DR13 -4.48 dB -20.09 dB 2:12 09-Blanche
––––––––––––––––––––––––––––––––––––––––

Number of tracks: 9
Official DR value: DR12

Samplerate: 44100 Hz
Channels: 2
Bits per sample: 16
Bitrate: 882 kbps
Codec: FLAC

[CUETools log; Date: 30.04.2016 9:54:11; Version: 2.1.2a]
[CTDB TOCID: gyt1jF5L3P2jqw2Yj7q2PeD7ppI-] found.
[ CTDBID ] Status
[b6101a5e] (2/2) Accurately ripped
[AccurateRip ID: 000dfbc7-00656856-6508d409] found.
Track [ CRC ] Status
01 [e2c43416] (0/3) No match but offset
02 [8ed3e70e] (0/3) No match but offset
03 [1bcf0081] (0/3) No match but offset
04 [545e92bf] (0/3) No match but offset
05 [28554867] (0/3) No match but offset
06 [be97b8bb] (0/3) No match but offset
07 [31121c66] (0/3) No match but offset
08 [8295cefc] (0/3) No match but offset
09 [d8a95c83] (0/3) No match but offset
AccurateRip v2:
01 [3f494d61] (3/3) Accurately ripped
02 [62e024d6] (3/3) Accurately ripped
03 [7ca95f66] (3/3) Accurately ripped
04 [7467fce7] (3/3) Accurately ripped
05 [bee6880a] (3/3) Accurately ripped
06 [e2548255] (3/3) Accurately ripped
07 [57f4cebb] (3/3) Accurately ripped
08 [72daf902] (3/3) Accurately ripped
09 [ec1b8fba] (3/3) Accurately ripped

Track Peak [ CRC32 ] [W/O NULL] [ LOG ]
– 86,5 [FAF580B6] [4979FA88] CRC32
01 76,0 [669DDD32] [821FF7A9]
02 81,2 [FC7E82B4] [E7B28D61]
03 86,5 [2C9715F8] [3AB901A2]
04 77,4 [0619109B] [C2A06F3E]
05 75,7 [61ED6CC6] [F1513502]
06 80,9 [5C3742BF] [17081853]
07 81,0 [E147F0B8] [FE1BEC20]
08 73,4 [83AA828E] [B32812FD]
09 59,7 [4EC1D474] [F98C085A]

Elf - Carolina County Ball (1974)

All thanks go to snakesharmer

Download Elf - Carolina County Ball (1974):