Subcategories
Tags
Language
Tags

Elmore James Jr. & The Broomdusters Blues Band - Old School Lover (2012)

Posted By: gribovar
Elmore James Jr. & The Broomdusters Blues Band - Old School Lover (2012)

Elmore James Jr. - Old School Lover (2012)
EAC Rip | FLAC (image+.cue+log) - 428 MB | MP3 CBR 320 kbps (LAME 3.93) - 146 MB | Covers - 21 MB
Genre: Blues | RAR 3% Rec. | Label: Wolf Records (120.829 CD)

Elmore James Jr., son of the great Elmore James, is an accomplished and masterful Chicago blues singer, slide guitarist, and former rock & roll drummer. Second CD for Wolf Records, titled Old School Lover, is one of the best traditional Chicago blues albums of 2012. Includes six new songs and six traditional tunes in the Chicago blues style. Features Eddie Taylor Jr., Ed Williams, and Illinois Slim.
Tracklist:
01. What's Wrong
02. 3rd Degree
03. She Put Me To The Test
04. Blues Is Gone
05. Studiotalk 1
06. Greenville Smokin'
07. Studiotalk 2
08. Old School Lover
09. Use The One
10. No One To Love Me
11. Studiotalk 3
12. Steppin' With Elmo Pt. 2
13. When My First Wife Left Me
14. Studiotalk 4
15. Goin' Home
16. I Can't Hold Out

Total time: 01:02:17

Exact Audio Copy V1.0 beta 3 from 29. August 2011

EAC extraction logfile from 25. February 2014, 20:06

Elmor James Jr. & The Broomdusters / Old School Lover

Used drive : ATAPI iHAS124 B Adapter: 1 ID: 0

Read mode : Secure
Utilize accurate stream : Yes
Defeat audio cache : Yes
Make use of C2 pointers : No

Read offset correction : 6
Overread into Lead-In and Lead-Out : No
Fill up missing offset samples with silence : Yes
Delete leading and trailing silent blocks : No
Null samples used in CRC calculations : Yes
Used interface : Installed external ASPI interface

Used output format : User Defined Encoder
Selected bitrate : 128 kBit/s
Quality : High
Add ID3 tag : Yes
Command line compressor : C:\Program Files (x86)\Exact Audio Copy\Flac\flac.exe
Additional command line options : -V -8 %source%


TOC of the extracted CD

Track | Start | Length | Start sector | End sector
––––––––––––––––––––––––––––-
1 | 0:00.00 | 3:57.67 | 0 | 17841
2 | 3:57.67 | 4:49.32 | 17842 | 39548
3 | 8:47.24 | 3:59.09 | 39549 | 57482
4 | 12:46.33 | 6:56.42 | 57483 | 88724
5 | 19:43.00 | 1:06.10 | 88725 | 93684
6 | 20:49.10 | 3:16.67 | 93685 | 108451
7 | 24:06.02 | 1:12.14 | 108452 | 113865
8 | 25:18.16 | 8:13.39 | 113866 | 150879
9 | 33:31.55 | 2:55.41 | 150880 | 164045
10 | 36:27.21 | 4:21.64 | 164046 | 183684
11 | 40:49.10 | 1:42.65 | 183685 | 191399
12 | 42:32.00 | 6:47.66 | 191400 | 221990
13 | 49:19.66 | 3:53.70 | 221991 | 239535
14 | 53:13.61 | 0:47.00 | 239536 | 243060
15 | 54:00.61 | 5:08.65 | 243061 | 266225
16 | 59:09.51 | 3:07.08 | 266226 | 280258


Range status and errors

Selected range

Filename G:\CD\Elmor James Jr. - Old School Lover.wav

Peak level 100.0 %
Extraction speed 8.8 X
Range quality 100.0 %
Test CRC 5FFA0EED
Copy CRC 5FFA0EED
Copy OK

No errors occurred


AccurateRip summary

Track 1 accurately ripped (confidence 1) [A0BCEE33] (AR v2)
Track 2 accurately ripped (confidence 1) [9AB8A326] (AR v2)
Track 3 accurately ripped (confidence 1) [24C68869] (AR v2)
Track 4 accurately ripped (confidence 1) [1CCEC80D] (AR v2)
Track 5 accurately ripped (confidence 1) [1F201ED2] (AR v2)
Track 6 accurately ripped (confidence 1) [989E1DA9] (AR v2)
Track 7 accurately ripped (confidence 1) [710541D7] (AR v2)
Track 8 accurately ripped (confidence 1) [3459A7B4] (AR v2)
Track 9 accurately ripped (confidence 1) [D8ADCF77] (AR v2)
Track 10 accurately ripped (confidence 1) [7A13C219] (AR v2)
Track 11 accurately ripped (confidence 1) [75A76E80] (AR v2)
Track 12 accurately ripped (confidence 1) [2B3294F8] (AR v2)
Track 13 accurately ripped (confidence 1) [9D1B765C] (AR v2)
Track 14 accurately ripped (confidence 1) [79AEDEE9] (AR v2)
Track 15 accurately ripped (confidence 1) [798BD5DB] (AR v2)
Track 16 accurately ripped (confidence 1) [3BCB7E66] (AR v2)

All tracks accurately ripped

End of status report

–– CUETools DB Plugin V2.1.3

[CTDB TOCID: ltBDQn1_A79anX8HFbldwdGL93s-] disk not present in database, Submit result: ltBDQn1_A79anX8HFbldwdGL93s- has been uploaded


==== Log checksum 638BC05773A8FC2980BA86B28097241C265FB078AF2662D9974B747A18F3E0D9 ====

[CUETools log; Date: 08.04.2021 2:04:36; Version: 2.1.4]
[CTDB TOCID: ltBDQn1_A79anX8HFbldwdGL93s-] found.
Track | CTDB Status
1 | (6/6) Accurately ripped
2 | (6/6) Accurately ripped
3 | (6/6) Accurately ripped
4 | (6/6) Accurately ripped
5 | (6/6) Accurately ripped
6 | (6/6) Accurately ripped
7 | (6/6) Accurately ripped
8 | (6/6) Accurately ripped
9 | (6/6) Accurately ripped
10 | (6/6) Accurately ripped
11 | (6/6) Accurately ripped
12 | (6/6) Accurately ripped
13 | (6/6) Accurately ripped
14 | (6/6) Accurately ripped
15 | (6/6) Accurately ripped
16 | (6/6) Accurately ripped
[AccurateRip ID: 00258c0e-01bedb07-d90e9810] found.
Track [ CRC | V2 ] Status
01 [e7e0b690|a0bcee33] (0+4/4) Accurately ripped
02 [78234ec8|9ab8a326] (0+4/4) Accurately ripped
03 [11bc7a8d|24c68869] (0+4/4) Accurately ripped
04 [012257ed|1ccec80d] (0+4/4) Accurately ripped
05 [b140005d|1f201ed2] (0+4/4) Accurately ripped
06 [c1f232fc|989e1da9] (0+4/4) Accurately ripped
07 [f0af9ead|710541d7] (0+4/4) Accurately ripped
08 [18febe27|3459a7b4] (0+4/4) Accurately ripped
09 [6dc39d0c|d8adcf77] (0+4/4) Accurately ripped
10 [3bac6204|7a13c219] (0+4/4) Accurately ripped
11 [09ea1e7e|75a76e80] (0+4/4) Accurately ripped
12 [9f28596f|2b3294f8] (0+4/4) Accurately ripped
13 [10a8579f|9d1b765c] (0+4/4) Accurately ripped
14 [494d09b4|79aedee9] (0+4/4) Accurately ripped
15 [0adbccf5|798bd5db] (0+4/4) Accurately ripped
16 [696542bb|3bcb7e66] (0+4/4) Accurately ripped

Track Peak [ CRC32 ] [W/O NULL] [ LOG ]
– 99,9 [5FFA0EED] [C78A25AF] CRC32
01 97,0 [CA834A49] [F99FE317]
02 97,0 [B97571BD] [B70F68E7]
03 97,0 [9EACB9E2] [31342ADB]
04 97,0 [A64AAEB6] [A6F20625]
05 99,9 [7696284C] [BAB95987]
06 97,0 [154F6BB3] [6D7864C2]
07 83,6 [26D24C6C] [B1AAEA35]
08 97,0 [0EBB959B] [0A7A5D25]
09 97,0 [1F06843F] [749A5BA0]
10 97,0 [10E7AB51] [32FD1D7A]
11 77,5 [054E2F7E] [6CEEBA7D]
12 99,9 [623FB16F] [0B29ED0C]
13 97,0 [6F95ED02] [280749C0]
14 54,5 [FEFF6768] [EB7B09CD]
15 97,0 [31A644AC] [9BD7F254]
16 97,0 [5D88A1F1] [D7918005]

Thanks to the original releaser