Elton John - Love Songs (1982)

Posted By: popsakov
Elton John - Love Songs (1982)

Elton John - Love Songs (1982)
EAC Rip | FLAC (Img) + Cue + Log ~ 347 Mb | MP3 CBR320 ~ 152 Mb
Full Scans (PNG) ~ 89 Mb | RAR 5% Recovery
Pop Rock, Soft Rock | The Rocket Record Company #811 312-2 | W. Germany

Elton John was the biggest pop star of the '70s, grabbing headlines and generating hits throughout the world. As it turned out, this was merely the first act in a remarkable career that kept him at the top of the charts for over 25 years. He charted a Top 40 hit single every year between 1970 and 1996, a sign that he knew how to both change with the times and mold the times to fit him. Initially marketed as a singer/songwriter, John soon revealed he could craft Beatlesque pop and pound out rockers with equal aplomb. He could dip into soul, disco, and country, as well as classic pop balladry and even progressive rock. His versatility, combined with his effortless melodic skills, dynamic charisma, and flamboyant stage shows, became his calling cards and many of his songs became contemporary pop standards.
~ All Music

***************

Elton John - Love Songs (1982)

Elton John - Love Songs (1982)

Track List:

01. Blue Eyes [0:03:27.00]
02. Little Jeannie [0:03:51.62]
03. Sartorial Eloquence [0:04:45.13]
04. Shine On Through [0:03:43.00]
05. Chloe [0:03:26.25]
06. Elton's Song [0:03:01.50]
07. Tonight [0:03:58.00]
08. Song For Guy [0:06:37.00]
09. Sorry Seems To Be The Hardest Word [0:03:46.62]
10. Princess [0:03:35.13]
11. Chameleon [0:04:16.00]
12. Return To Paradise [0:03:26.62]
13. Never Gonna Fall In Love Again [0:04:09.13]
14. Strangers [0:03:35.00]
15. Someone's Final Song [0:03:41.00]
16. All Quiet On The Western Front [0:04:12.07]

Exact Audio Copy V1.3 from 2. September 2016

EAC extraction logfile from 19. September 2017, 17:51

Elton John / Love Songs W. Germany

Used drive : SONY BD RW BDX-S600U Adapter: 1 ID: 2

Read mode : Secure
Utilize accurate stream : Yes
Defeat audio cache : Yes
Make use of C2 pointers : No

Read offset correction : 48
Overread into Lead-In and Lead-Out : No
Fill up missing offset samples with silence : Yes
Delete leading and trailing silent blocks : No
Null samples used in CRC calculations : Yes
Used interface : Native Win32 interface for Win NT & 2000

Used output format : User Defined Encoder
Selected bitrate : 768 kBit/s
Quality : High
Add ID3 tag : No
Command line compressor : C:\Program Files (x86)\Exact Audio Copy\FLAC\FLAC.EXE
Additional command line options : -V -8 -T "Date=%year%" -T "Genre=%genre%" %source%


TOC of the extracted CD

Track | Start | Length | Start sector | End sector
––––––––––––––––––––––––––––-
1 | 0:00.33 | 3:27.00 | 33 | 15557
2 | 3:27.33 | 3:51.62 | 15558 | 32944
3 | 7:19.20 | 4:45.13 | 32945 | 54332
4 | 12:04.33 | 3:43.00 | 54333 | 71057
5 | 15:47.33 | 3:26.25 | 71058 | 86532
6 | 19:13.58 | 3:01.50 | 86533 | 100157
7 | 22:15.33 | 3:58.00 | 100158 | 118007
8 | 26:13.33 | 6:37.00 | 118008 | 147782
9 | 32:50.33 | 3:46.62 | 147783 | 164794
10 | 36:37.20 | 3:35.13 | 164795 | 180932
11 | 40:12.33 | 4:16.00 | 180933 | 200132
12 | 44:28.33 | 3:26.62 | 200133 | 215644
13 | 47:55.20 | 4:09.13 | 215645 | 234332
14 | 52:04.33 | 3:35.00 | 234333 | 250457
15 | 55:39.33 | 3:41.00 | 250458 | 267032
16 | 59:20.33 | 4:12.07 | 267033 | 285939


Range status and errors

Selected range

Filename K:\Локальный диск\1982. Elton John - Love Songs (The Rocket Rec., 811 312-2, W.Germany)\Elton John - Love Songs W. Germany.wav

Peak level 96.6 %
Extraction speed 6.8 X
Range quality 100.0 %
Test CRC D8DFC990
Copy CRC D8DFC990
Copy OK

No errors occurred


AccurateRip summary

Track 1 accurately ripped (confidence 27) [8896FA34] (AR v2)
Track 2 accurately ripped (confidence 26) [592D1A5E] (AR v2)
Track 3 accurately ripped (confidence 26) [F6924B27] (AR v2)
Track 4 accurately ripped (confidence 26) [1F2F6FFB] (AR v2)
Track 5 accurately ripped (confidence 26) [F7D23B7D] (AR v2)
Track 6 accurately ripped (confidence 26) [2BCB627C] (AR v2)
Track 7 accurately ripped (confidence 26) [9F405BC4] (AR v2)
Track 8 accurately ripped (confidence 27) [F331D572] (AR v2)
Track 9 accurately ripped (confidence 27) [EF4ECD44] (AR v2)
Track 10 accurately ripped (confidence 26) [3D6ACAE2] (AR v2)
Track 11 accurately ripped (confidence 26) [B845F21D] (AR v2)
Track 12 accurately ripped (confidence 26) [5BD1926E] (AR v2)
Track 13 accurately ripped (confidence 26) [8BA57C69] (AR v2)
Track 14 accurately ripped (confidence 26) [04AF2D70] (AR v2)
Track 15 accurately ripped (confidence 26) [D6CB9DB0] (AR v2)
Track 16 accurately ripped (confidence 27) [9646BF16] (AR v2)

All tracks accurately ripped

End of status report

–– CUETools DB Plugin V2.1.6

[CTDB TOCID: aCcu35OHaFpo6Sy2lGt7O0K7o1k-] found
Submit result: aCcu35OHaFpo6Sy2lGt7O0K7o1k- has been confirmed
Track | CTDB Status
1 | (120/121) Accurately ripped
2 | (120/121) Accurately ripped
3 | (119/121) Accurately ripped
4 | (120/121) Accurately ripped
5 | (117/121) Accurately ripped
6 | (119/121) Accurately ripped
7 | (120/121) Accurately ripped
8 | (119/121) Accurately ripped
9 | (119/121) Accurately ripped
10 | (119/121) Accurately ripped
11 | (118/121) Accurately ripped
12 | (116/121) Accurately ripped
13 | (117/121) Accurately ripped
14 | (118/121) Accurately ripped
15 | (118/121) Accurately ripped
16 | (115/121) Accurately ripped


==== Log checksum 6F37E9157602EEB996FAE9750D3C5CF646194E894F140B1F007B957A26491CB1 ====

foobar2000 1.2.6 / Dynamic Range Meter 1.1.1
log date: 2017-09-19 20:59:54

––––––––––––––––––––––––––––––––––––––––
Analyzed: Elton John / Love Songs W. Germany
––––––––––––––––––––––––––––––––––––––––

DR Peak RMS Duration Track
––––––––––––––––––––––––––––––––––––––––
DR12 -1.21 dB -16.93 dB 3:27 01-Blue Eyes
DR13 -0.61 dB -17.30 dB 3:52 02-Little Jeannie
DR13 -0.30 dB -16.68 dB 4:45 03-Sartorial Eloquence
DR14 -0.82 dB -19.02 dB 3:43 04-Shine On Through
DR13 -0.94 dB -19.41 dB 3:26 05-Chloe
DR11 -2.22 dB -16.95 dB 3:02 06-Elton's Song
DR12 -1.26 dB -17.37 dB 3:58 07-Tonight
DR13 -1.80 dB -18.72 dB 6:37 08-Song For Guy
DR13 -1.87 dB -19.28 dB 3:47 09-Sorry Seems To Be The Hardest Word
DR13 -0.33 dB -16.09 dB 3:35 10-Princess
DR14 -1.20 dB -19.05 dB 4:16 11-Chameleon
DR13 -0.84 dB -16.44 dB 3:27 12-Return To Paradise
DR14 -0.93 dB -18.73 dB 4:09 13-Never Gonna Fall In Love Again
DR13 -1.02 dB -18.49 dB 3:35 14-Strangers
DR14 -1.85 dB -19.95 dB 3:41 15-Someone's Final Song
DR12 -2.02 dB -16.91 dB 4:12 16-All Quiet On The Western Front
––––––––––––––––––––––––––––––––––––––––

Number of tracks: 16
Official DR value: DR13

Samplerate: 44100 Hz
Channels: 2
Bits per sample: 16
Bitrate: 728 kbps
Codec: FLAC
================================================================================

[CUETools log; Date: 19.09.2017 21:00:10; Version: 2.1.5]
Pregap length 00:00:33.
[CTDB TOCID: aCcu35OHaFpo6Sy2lGt7O0K7o1k-] found.
Track | CTDB Status
1 | (121/122) Accurately ripped
2 | (121/122) Accurately ripped
3 | (120/122) Accurately ripped
4 | (121/122) Accurately ripped
5 | (118/122) Accurately ripped
6 | (120/122) Accurately ripped
7 | (121/122) Accurately ripped
8 | (120/122) Accurately ripped
9 | (120/122) Accurately ripped
10 | (120/122) Accurately ripped
11 | (119/122) Accurately ripped
12 | (117/122) Accurately ripped
13 | (118/122) Accurately ripped
14 | (119/122) Accurately ripped
15 | (119/122) Accurately ripped
16 | (116/122) Accurately ripped
[AccurateRip ID: 0025034f-01bdba77-e80ee410] found.
Track [ CRC | V2 ] Status
01 [7e1a3440|8896fa34] (017+027/123) Accurately ripped
02 [6e3fcd35|592d1a5e] (017+026/123) Accurately ripped
03 [f23e8339|f6924b27] (017+026/124) Accurately ripped
04 [98d5bd16|1f2f6ffb] (017+026/124) Accurately ripped
05 [8b2bf32d|f7d23b7d] (018+026/126) Accurately ripped
06 [5b482bf0|2bcb627c] (018+026/126) Accurately ripped
07 [2ade924e|9f405bc4] (018+026/126) Accurately ripped
08 [2912d20d|f331d572] (018+027/126) Accurately ripped
09 [20ab2696|ef4ecd44] (017+027/127) Accurately ripped
10 [3be186d8|3d6acae2] (016+026/124) Accurately ripped
11 [c58df68f|b845f21d] (018+026/126) Accurately ripped
12 [3dd5184a|5bd1926e] (018+026/124) Accurately ripped
13 [45168d74|8ba57c69] (017+026/124) Accurately ripped
14 [57c62a67|04af2d70] (018+026/126) Accurately ripped
15 [0d28c66f|d6cb9db0] (017+026/124) Accurately ripped
16 [aa57d6df|9646bf16] (014+027/121) Accurately ripped
Offsetted by 392:
01 [9a9e5a40] (033/123) Accurately ripped
02 [4fa5e51d] (034/123) Accurately ripped
03 [09826339] (034/124) Accurately ripped
04 [a17ada3e] (034/124) Accurately ripped
05 [64534355] (034/126) Accurately ripped
06 [03531738] (034/126) Accurately ripped
07 [9460532e] (034/126) Accurately ripped
08 [e5ef2edd] (034/126) Accurately ripped
09 [9382f84e] (035/127) Accurately ripped
10 [631f1dc8] (034/124) Accurately ripped
11 [e1147e97] (034/126) Accurately ripped
12 [040bf12a] (034/124) Accurately ripped
13 [369dce64] (033/124) Accurately ripped
14 [fb6f0a87] (034/126) Accurately ripped
15 [95075f0f] (033/124) Accurately ripped
16 [3cf30aa4] (032/121) Accurately ripped

Track Peak [ CRC32 ] [W/O NULL] [ LOG ]
– 96,6 [D8DFC990] [4D071EEC] CRC32
01 86,9 [5D5FEA2C] [EBA71047]
02 93,2 [27F775B3] [AA368DF7]
03 96,6 [8C29B6B2] [E92F990F]
04 91,0 [0F4BD026] [66E3DC1C]
05 89,7 [6B9F4307] [FE16E94A]
06 77,4 [4153149C] [B245D7BB]
07 86,4 [4E4F45EF] [D59D1BF3]
08 81,2 [C6DB4368] [C968EBCD]
09 80,6 [78879469] [4D87E897]
10 96,3 [80EBE462] [A67AC7A4]
11 87,1 [EA4CB4EE] [DD933F56]
12 90,7 [D6565BCF] [178AEC6B]
13 89,8 [E74A50AE] [5BA1931D]
14 88,8 [115C5BEE] [3D7D89EF]
15 80,8 [A3F6B30F] [D4D8D01F]
16 79,2 [EE64A1E1] [0B6EABE2]

Elton John - Love Songs (1982)

All thanks go to alonzo

>>> Elton John in my Blog <<<

Download from icerbox.com: