Subcategories

Elton John: Remastered CD Collection. Part 1 (1969 - 1973)

Posted By: v3122
Elton John: Remastered CD Collection. Part 1 (1969 - 1973)

Elton John: Remastered CD Collection. Part 1 (1969 - 1973)
EAC | Flac(Image) + Cue + Log & MP3 CBR 320Kbps
6CD | This Record, Rocket | ~ 2044 or 817 Mb | Scans(jpg) -> 1034 Mb
Pop Rock / Classic Rock / Rock & Roll

Sir Elton Hercules John CBE (born Reginald Kenneth Dwight; 25 March 1947 is an English singer, pianist, and composer. He has worked with lyricist Bernie Taupin as his songwriting partner since 1967; they have collaborated on more than 30 albums to date. In his five-decade career Elton John has sold more than 300 million records, making him one of the best-selling music artists in the world.[4][5] He has more than fifty Top 40 hits, including seven consecutive No. 1 US albums, 58 Billboard Top 40 singles, 27 Top 10, four No. 2 and nine No. 1. For 31 consecutive years (1970–2000) he had at least one song in the Billboard Hot 100. His tribute single "Candle in the Wind 1997", rewritten in dedication to Princess Diana, sold over 33 million copies worldwide and is the best-selling single in the history of the UK and US singles charts. He has also composed music, produced records, and has occasionally acted in films. John owned Watford Football Club from 1976 to 1987, and 1997 to 2002. He is an honorary Life President of the club, and in 2014 had a stand named after him at the club's home stadium.

Raised in the Pinner area of London, John learned to play piano at an early age, and by 1962 had formed Bluesology. John met his songwriting partner, Bernie Taupin, in 1967, after they had both answered an advert for songwriters. For two years they wrote songs for other artists, including Lulu, and John also worked as a session musician for artists such as the Hollies and the Scaffold. In 1969 his debut album, Empty Sky, was released. In 1970 a single, "Your Song", from his second album, Elton John, reached the top ten in the UK and the US, his first hit single. After decades of commercial chart success, John has also achieved success in musical theatre, both in the West End and on Broadway, composing the music for The Lion King (film and musical), Aida and Billy Elliot the Musical.

He has received five Grammy Awards, five Brit Awards – winning two awards for Outstanding Contribution to Music and the first Brits Icon in 2013 for his "lasting impact on British culture", an Academy Award, a Golden Globe Award, a Tony Award, a Disney Legends award, and the Kennedy Center Honors in 2004. In 2004, Rolling Stone ranked him Number 49 on its list of 100 influential musicians of the rock and roll era. In 2013, Billboard ranked him the most successful male solo artist on the Billboard Hot 100 Top All-Time Artists (third overall behind the Beatles and Madonna). He was inducted into the Rock and Roll Hall of Fame in 1994, is an inductee into the Songwriters Hall of Fame, and is a fellow of the British Academy of Songwriters, Composers and Authors. Having been named a Order of the British Empire in 1996, John was made a Knight Bachelor by Elizabeth II for "services to music and charitable services" in 1998. John has performed at a number of royal events, such as the funeral of Princess Diana at Westminster Abbey in 1997, the Party at the Palace in 2002 and the Queen's Diamond Jubilee Concert outside Buckingham Palace in 2012.

He has been heavily involved in the fight against AIDS since the late 1980s. In 1992, he established the Elton John AIDS Foundation and a year later began hosting the annual Academy Award Party, which has since become one of the highest-profile Oscar parties in the Hollywood film industry. Since its inception, the foundation has raised over US$200 million. John, who announced he was bisexual in 1976 and has been openly gay since 1988, entered into a civil partnership with David Furnish on 21 December 2005, and after same-sex marriage became legal in England and Wales in 2014, wed Furnish on 21 December 2014. On 24 January 2018, it was announced that John would be retiring from touring and would soon embark on a three-year farewell tour, which is set to begin in September 2018…

~ wiki


Elton John: Remastered CD Collection. Part 1 (1969 - 1973):

Elton John: Remastered CD Collection. Part 1 (1969 - 1973)

Tracklist CD1 - 1969. Elton John - Empty Sky (This Record 528 157-2, Germany):

01. Empty Sky [0:08:29.50]
02. Val-Hala [0:04:12.00]
03. Western Ford Gateway [0:03:15.33]
04. Hymn 2000 [0:04:29.47]
05. Lady What's Tomorrow [0:03:09.18]
06. Sails [0:03:45.07]
07. The Scaffold [0:03:18.13]
08. Skyline Pigeon [0:03:37.65]
09. Gulliver - It's Hay Chewed - Reprise [0:07:13.17]
10. Lady Samantha [0:03:04.30]
11. All Across The Havens [0:02:52.58]
12. It's Me That You Need [0:04:04.25]
13. Just Like Strange Rain [0:03:44.12]

Exact Audio Copy V1.0 beta 3 from 29. August 2011

EAC extraction logfile from 24. December 2014, 21:34

Elton John / Empty Sky [Japan Vinyl Replica]

Used drive : PLEXTOR DVDR PX-L890SA Adapter: 2 ID: 1

Read mode : Secure
Utilize accurate stream : Yes
Defeat audio cache : Yes
Make use of C2 pointers : No

Read offset correction : 6
Overread into Lead-In and Lead-Out : No
Fill up missing offset samples with silence : Yes
Delete leading and trailing silent blocks : No
Null samples used in CRC calculations : Yes
Used interface : Native Win32 interface for Win NT & 2000

Used output format : User Defined Encoder
Selected bitrate : 768 kBit/s
Quality : High
Add ID3 tag : No
Command line compressor : G:\Program Files\Exact Audio Copy\FLAC\FLAC.EXE
Additional command line options : -V -8 -T "Date=%year%" -T "Genre=%genre%" %source%


TOC of the extracted CD

Track | Start | Length | Start sector | End sector
––––––––––––––––––––––––––––-
1 | 0:00.00 | 8:29.50 | 0 | 38224
2 | 8:29.50 | 4:12.00 | 38225 | 57124
3 | 12:41.50 | 3:15.33 | 57125 | 71782
4 | 15:57.08 | 4:29.47 | 71783 | 92004
5 | 20:26.55 | 3:09.18 | 92005 | 106197
6 | 23:35.73 | 3:45.07 | 106198 | 123079
7 | 27:21.05 | 3:18.13 | 123080 | 137942
8 | 30:39.18 | 3:37.65 | 137943 | 154282
9 | 34:17.08 | 7:13.17 | 154283 | 186774
10 | 41:30.25 | 3:04.30 | 186775 | 200604
11 | 44:34.55 | 2:52.58 | 200605 | 213562
12 | 47:27.38 | 4:04.25 | 213563 | 231887
13 | 51:31.63 | 3:44.12 | 231888 | 248699


Range status and errors

Selected range

Filename H:\MUSIC\Elton John\1969. Elton John - Empty Sky (This Record 528 157-2, Germany)\Elton John - Empty Sky.wav

Peak level 100.0 %
Extraction speed 5.9 X
Range quality 99.9 %
Test CRC B571B39C
Copy CRC B571B39C
Copy OK

No errors occurred


AccurateRip summary

Track 1 accurately ripped (confidence 11) [F24FF3FE] (AR v2)
Track 2 accurately ripped (confidence 11) [DA501F38] (AR v2)
Track 3 accurately ripped (confidence 11) [3C36D2B2] (AR v2)
Track 4 accurately ripped (confidence 11) [74D9C617] (AR v2)
Track 5 accurately ripped (confidence 11) [5520703B] (AR v2)
Track 6 accurately ripped (confidence 11) [823A019A] (AR v2)
Track 7 accurately ripped (confidence 11) [A126190B] (AR v2)
Track 8 accurately ripped (confidence 11) [176CCAAE] (AR v2)
Track 9 accurately ripped (confidence 11) [9376D5A1] (AR v2)
Track 10 accurately ripped (confidence 10) [FD5EDF9B] (AR v2)
Track 11 accurately ripped (confidence 10) [8825CC25] (AR v2)
Track 12 accurately ripped (confidence 10) [DD5C7DA6] (AR v2)
Track 13 accurately ripped (confidence 10) [2E73BA56] (AR v2)

All tracks accurately ripped

End of status report

==== Log checksum 582D23473E93FD93B6314D13450500A91A616E42CFE7F42C45FE98F02C14887B ====


[CUETools log; Date: 12.05.2018 9:49:33; Version: 2.1.4]
[CTDB TOCID: 26v3lEDypd2cdVM7Rj99owijFQ0-] found.
Track | CTDB Status
1 | (33/33) Accurately ripped
2 | (33/33) Accurately ripped
3 | (33/33) Accurately ripped
4 | (33/33) Accurately ripped
5 | (33/33) Accurately ripped
6 | (33/33) Accurately ripped
7 | (33/33) Accurately ripped
8 | (33/33) Accurately ripped
9 | (33/33) Accurately ripped
10 | (33/33) Accurately ripped
11 | (33/33) Accurately ripped
12 | (33/33) Accurately ripped
13 | (33/33) Accurately ripped
[AccurateRip ID: 001c6a1d-01147a9f-c20cf40d] found.
Track [ CRC | V2 ] Status
01 [8240a292|f24ff3fe] (04+18/22) Accurately ripped
02 [5c5d7ff8|da501f38] (04+18/22) Accurately ripped
03 [ad6eeedf|3c36d2b2] (04+18/22) Accurately ripped
04 [3ab5f5f7|74d9c617] (04+18/22) Accurately ripped
05 [f7a8f2b0|5520703b] (04+18/22) Accurately ripped
06 [f218ea0f|823a019a] (04+18/22) Accurately ripped
07 [05624ed2|a126190b] (04+18/22) Accurately ripped
08 [2426e7dd|176ccaae] (04+18/22) Accurately ripped
09 [ada0cf63|9376d5a1] (04+18/22) Accurately ripped
10 [49e51ccf|fd5edf9b] (05+17/22) Accurately ripped
11 [641be727|8825cc25] (05+17/22) Accurately ripped
12 [1a951f0f|dd5c7da6] (05+17/22) Accurately ripped
13 [9177adbc|2e73ba56] (05+17/22) Accurately ripped

Track Peak [ CRC32 ] [W/O NULL] [ LOG ]
– 100,0 [B571B39C] [89F3F978] CRC32
01 98,6 [0A6D8BA9] [F81AF93A]
02 96,5 [C26561BD] [DF6643C7]
03 98,5 [FABBCE00] [0B9CA338]
04 98,2 [4585089E] [C9CA2911]
05 96,9 [BEEF33A9] [19AD7E77]
06 97,5 [6BCDE1AF] [117EFF23]
07 98,6 [89A08916] [19FFB8C9]
08 98,6 [3295D1BC] [BCB96616]
09 98,6 [421DE150] [626C11F9]
10 99,6 [519F0368] [C18B40C8]
11 97,8 [F547ED4E] [C6398970]
12 97,8 [376B81C4] [D2EABA11]
13 100,0 [ADBCA261] [3D5FBB3D]


Elton John: Remastered CD Collection. Part 1 (1969 - 1973)

Tracklist CD2 - 1970. Elton John - Elton John (This Record 528 156-2, Germany):

01. Your Song [0:04:04.10]
02. I Need You To Turn To [0:02:32.70]
03. Take Me To The Pilot [0:03:46.47]
04. No Shoe Strings On Louise [0:03:31.35]
05. First Episode At Hienton [0:04:48.25]
06. Sixty Years On [0:04:35.28]
07. Border Song [0:03:22.05]
08. The Greatest Discovery [0:04:12.35]
09. The Cage [0:03:28.07]
10. The King Must Die [0:05:21.10]
11. Bad Side Of The Moon [0:03:15.48]
12. Grey Seal [0:03:35.72]
13. Rock N Roll Madonna [0:04:17.40]

Exact Audio Copy V1.0 beta 3 from 29. August 2011

EAC extraction logfile from 11. February 2016, 19:13

Elton John / Elton John

Used drive : PLEXTOR DVDR PX-L890SA Adapter: 5 ID: 1

Read mode : Secure
Utilize accurate stream : Yes
Defeat audio cache : Yes
Make use of C2 pointers : No

Read offset correction : 6
Overread into Lead-In and Lead-Out : No
Fill up missing offset samples with silence : Yes
Delete leading and trailing silent blocks : No
Null samples used in CRC calculations : Yes
Used interface : Native Win32 interface for Win NT & 2000

Used output format : User Defined Encoder
Selected bitrate : 768 kBit/s
Quality : High
Add ID3 tag : No
Command line compressor : C:\Program Files (x86)\Exact Audio Copy\Flac\flac.exe
Additional command line options : -V -8 -T "Date=%year%" -T "Genre=%genre%" %source%


TOC of the extracted CD

Track | Start | Length | Start sector | End sector
––––––––––––––––––––––––––––-
1 | 0:00.00 | 4:04.10 | 0 | 18309
2 | 4:04.10 | 2:32.70 | 18310 | 29779
3 | 6:37.05 | 3:46.47 | 29780 | 46776
4 | 10:23.52 | 3:31.35 | 46777 | 62636
5 | 13:55.12 | 4:48.25 | 62637 | 84261
6 | 18:43.37 | 4:35.28 | 84262 | 104914
7 | 23:18.65 | 3:22.05 | 104915 | 120069
8 | 26:40.70 | 4:12.35 | 120070 | 139004
9 | 30:53.30 | 3:28.07 | 139005 | 154611
10 | 34:21.37 | 5:21.10 | 154612 | 178696
11 | 39:42.47 | 3:15.48 | 178697 | 193369
12 | 42:58.20 | 3:35.72 | 193370 | 209566
13 | 46:34.17 | 4:17.40 | 209567 | 228881


Range status and errors

Selected range

Filename H:\MUSIC\1970. Elton John - Elton John (This Record 528 156-2, Germany)\Elton John - Elton John.wav

Peak level 99.3 %
Extraction speed 8.4 X
Range quality 99.9 %
Test CRC 358B7BF9
Copy CRC 358B7BF9
Copy OK

No errors occurred


AccurateRip summary

Track 1 accurately ripped (confidence 30) [60DE9318] (AR v2)
Track 2 accurately ripped (confidence 30) [8C0EA2BD] (AR v2)
Track 3 accurately ripped (confidence 31) [01A08F80] (AR v2)
Track 4 accurately ripped (confidence 29) [7F02EA34] (AR v2)
Track 5 accurately ripped (confidence 31) [7D299AF0] (AR v2)
Track 6 accurately ripped (confidence 31) [08211456] (AR v2)
Track 7 accurately ripped (confidence 30) [001A2E2C] (AR v2)
Track 8 accurately ripped (confidence 30) [EC6300D2] (AR v2)
Track 9 accurately ripped (confidence 29) [C914E22A] (AR v2)
Track 10 accurately ripped (confidence 29) [71212EDC] (AR v2)
Track 11 accurately ripped (confidence 27) [8461E81A] (AR v2)
Track 12 accurately ripped (confidence 29) [9730037F] (AR v2)
Track 13 accurately ripped (confidence 29) [81AE70D9] (AR v2)

All tracks accurately ripped

End of status report

==== Log checksum D9947FEE28A75415E288D352380992F8BE7538A948CA8C44FA1E768583B67A0C ====


[CUETools log; Date: 12.05.2018 9:50:18; Version: 2.1.4]
[CTDB TOCID: UZN15OLQdhFhnb9ln8Fz821BjeQ-] found.
Track | CTDB Status
1 | (128/153) Accurately ripped
2 | (127/153) Accurately ripped
3 | (127/153) Accurately ripped
4 | (127/153) Accurately ripped
5 | (127/153) Accurately ripped
6 | (127/153) Accurately ripped
7 | (128/153) Accurately ripped
8 | (127/153) Accurately ripped
9 | (127/153) Accurately ripped
10 | (127/153) Accurately ripped
11 | (128/153) Accurately ripped
12 | (128/153) Accurately ripped
13 | (127/153) Accurately ripped
[AccurateRip ID: 0017f844-00f1ae3e-af0beb0d] found.
Track [ CRC | V2 ] Status
01 [939f7a61|60de9318] (005+043/182) Accurately ripped
02 [9127b7c0|8c0ea2bd] (005+043/181) Accurately ripped
03 [a361cdc3|01a08f80] (005+044/182) Accurately ripped
04 [a0579074|7f02ea34] (005+042/178) Accurately ripped
05 [25998a58|7d299af0] (005+044/182) Accurately ripped
06 [cb4d2615|08211456] (005+044/182) Accurately ripped
07 [dacb991b|001a2e2c] (005+043/181) Accurately ripped
08 [4f1b4fc2|ec6300d2] (005+043/179) Accurately ripped
09 [a268808c|c914e22a] (005+042/178) Accurately ripped
10 [21fc144f|71212edc] (005+042/180) Accurately ripped
11 [3219791e|8461e81a] (005+040/175) Accurately ripped
12 [d10b8035|9730037f] (005+042/178) Accurately ripped
13 [98cf57e5|81ae70d9] (005+042/177) Accurately ripped
Offsetted by 664:
01 [906ebd31] (008/182) Accurately ripped
02 [d87c97fc] (008/181) Accurately ripped
03 [a91899ca] (008/182) Accurately ripped
04 [eec26f03] (008/178) Accurately ripped
05 [13c5274e] (008/182) Accurately ripped
06 [59add722] (008/182) Accurately ripped
07 [ece6c978] (008/181) Accurately ripped
08 [a0c7222c] (008/179) Accurately ripped
09 [0b90c1bc] (008/178) Accurately ripped
10 [198aa5b7] (008/180) Accurately ripped
11 [2ea626be] (008/175) Accurately ripped
12 [54bf9dad] (008/178) Accurately ripped
13 [bc901659] (008/177) Accurately ripped
Offsetted by 682:
01 [d80e930d] (005/182) Accurately ripped
02 [70358fb1] (005/181) Accurately ripped
03 [506193f8] (005/182) Accurately ripped
04 [e6bfe96c] (005/178) Accurately ripped
05 [f1d70b9f] (005/182) Accurately ripped
06 [9a71341b] (005/182) Accurately ripped
07 [659f93fa] (005/181) Accurately ripped
08 [30b45deb] (005/179) Accurately ripped
09 [368cf48d] (005/178) Accurately ripped
10 [64e104a5] (005/180) Accurately ripped
11 [8bdb5076] (005/175) Accurately ripped
12 [562ac533] (005/178) Accurately ripped
13 [1436ae35] (005/177) Accurately ripped
Offsetted by 1571:
01 [d42bc71b] (028/182) Accurately ripped
02 [1cac8a6e] (029/181) Accurately ripped
03 [926a2517] (029/182) Accurately ripped
04 [15794ae6] (028/178) Accurately ripped
05 [8a9578ac] (028/182) Accurately ripped
06 [6a9eb9e0] (028/182) Accurately ripped
07 [50f8d27d] (028/181) Accurately ripped
08 [df08ca4a] (028/179) Accurately ripped
09 [cd8e82ef] (028/178) Accurately ripped
10 [8a2738ac] (028/180) Accurately ripped
11 [15808792] (028/175) Accurately ripped
12 [6db5bd21] (029/178) Accurately ripped
13 [c80a4406] (028/177) Accurately ripped
Offsetted by 1584:
01 [3290fe01] (006/182) Accurately ripped
02 [2e1c7465] (004/181) Accurately ripped
03 [bca8791a] (004/182) Accurately ripped
04 [ddfabb4f] (004/178) Accurately ripped
05 [05d9d674] (005/182) Accurately ripped
06 [c7fa2084] (005/182) Accurately ripped
07 [f65f78ee] (005/181) Accurately ripped
08 [0610a2df] (005/179) Accurately ripped
09 [b3f6e97a] (005/178) Accurately ripped
10 [07acb61f] (005/180) Accurately ripped
11 [3c5fd05e] (005/175) Accurately ripped
12 [d7fd4322] (005/178) Accurately ripped
13 [d370a370] (005/177) Accurately ripped
Offsetted by 25:
01 [21c4952f] (000/182) No match (V2 was not tested)
02 [1b9e65f3] (000/181) No match (V2 was not tested)
03 [6f3929ca] (000/182) No match (V2 was not tested)
04 [dd34f572] (000/178) No match (V2 was not tested)
05 [f52cc850] (000/182) No match (V2 was not tested)
06 [c597307e] (000/182) No match (V2 was not tested)
07 [58df2363] (000/181) No match (V2 was not tested)
08 [f351d50c] (000/179) No match (V2 was not tested)
09 [5a64953d] (000/178) No match (V2 was not tested)
10 [27107bb6] (000/180) No match (V2 was not tested)
11 [41c6ddba] (000/175) No match (V2 was not tested)
12 [16c58f17] (000/178) No match (V2 was not tested)
13 [5c83742e] (000/177) No match (V2 was not tested)

Track Peak [ CRC32 ] [W/O NULL] [ LOG ]
– 99,3 [358B7BF9] [D99C59D5] CRC32
01 94,9 [6BFE2B02] [9A159EB6]
02 90,6 [AEDF8FD6] [20A68082]
03 99,3 [9DBDDE03] [DA31B2E2]
04 97,1 [58512576] [A39D7C5B]
05 76,8 [CF78606F] [2D61F66A]
06 96,8 [E271389F] [522BFFA7]
07 93,8 [5ACD082E] [992A5E7C]
08 91,0 [AB87919F] [28728D7E]
09 99,1 [D9D566BB] [B508130E]
10 98,6 [DE435A31] [5C861546]
11 98,6 [FE74ECC6] [A16FFFBA]
12 97,0 [DBEEAAE6] [B20117F1]
13 98,6 [BA4D2DE0] [F7EF187B]


Elton John: Remastered CD Collection. Part 1 (1969 - 1973)

Tracklist CD3 - 1970. Elton John - Tumbleweed Connection (This Record 528 155-2, Germany):

01. Ballad Of A Well-Known Gun [0:04:59.20]
02. Come Down In Time [0:03:25.50]
03. Country Comfort [0:05:06.65]
04. Son Of Your Father [0:03:48.50]
05. My Father's Gun [0:06:20.57]
06. Where To Now St. Peter? [0:04:11.23]
07. Love Song [0:03:41.40]
08. Amoreena [0:05:00.27]
09. Talking Old Soldiers [0:04:06.25]
10. Burn Down The Mission [0:06:35.35]
11. Into The Old Man's Shoes [0:04:02.40]
12. Madman Across The Water (Original Version) [0:08:52.33]

Exact Audio Copy V1.0 beta 3 from 29. August 2011

EAC extraction logfile from 24. December 2014, 20:43

Elton John b / Tumbleweed Connection

Used drive : PLEXTOR DVDR PX-L890SA Adapter: 2 ID: 1

Read mode : Secure
Utilize accurate stream : Yes
Defeat audio cache : Yes
Make use of C2 pointers : No

Read offset correction : 6
Overread into Lead-In and Lead-Out : No
Fill up missing offset samples with silence : Yes
Delete leading and trailing silent blocks : No
Null samples used in CRC calculations : Yes
Used interface : Native Win32 interface for Win NT & 2000

Used output format : User Defined Encoder
Selected bitrate : 768 kBit/s
Quality : High
Add ID3 tag : No
Command line compressor : G:\Program Files\Exact Audio Copy\FLAC\FLAC.EXE
Additional command line options : -V -8 -T "Date=%year%" -T "Genre=%genre%" %source%


TOC of the extracted CD

Track | Start | Length | Start sector | End sector
––––––––––––––––––––––––––––-
1 | 0:00.00 | 4:59.20 | 0 | 22444
2 | 4:59.20 | 3:25.50 | 22445 | 37869
3 | 8:24.70 | 5:06.65 | 37870 | 60884
4 | 13:31.60 | 3:48.50 | 60885 | 78034
5 | 17:20.35 | 6:20.57 | 78035 | 106591
6 | 23:41.17 | 4:11.23 | 106592 | 125439
7 | 27:52.40 | 3:41.40 | 125440 | 142054
8 | 31:34.05 | 5:00.27 | 142055 | 164581
9 | 36:34.32 | 4:06.25 | 164582 | 183056
10 | 40:40.57 | 6:35.35 | 183057 | 212716
11 | 47:16.17 | 4:02.40 | 212717 | 230906
12 | 51:18.57 | 8:52.33 | 230907 | 270839


Range status and errors

Selected range

Filename H:\MUSIC\Elton John\1970. Elton John - Tumbleweed Connection (This Record 528 155-2, Germany)\Elton John - Tumbleweed Connection.wav

Peak level 100.0 %
Extraction speed 6.0 X
Range quality 99.9 %
Test CRC 40DE1827
Copy CRC 40DE1827
Copy OK

No errors occurred


AccurateRip summary

Track 1 accurately ripped (confidence 69) [04F47ED3] (AR v2)
Track 2 accurately ripped (confidence 73) [9F4355D0] (AR v2)
Track 3 accurately ripped (confidence 72) [80A8B0A7] (AR v2)
Track 4 accurately ripped (confidence 72) [FBA8FF62] (AR v2)
Track 5 accurately ripped (confidence 73) [9FDF98BA] (AR v2)
Track 6 accurately ripped (confidence 73) [CCFD65C0] (AR v2)
Track 7 accurately ripped (confidence 73) [0E607F9A] (AR v2)
Track 8 accurately ripped (confidence 72) [5987DB60] (AR v2)
Track 9 accurately ripped (confidence 72) [E64045B9] (AR v2)
Track 10 accurately ripped (confidence 69) [9F76F344] (AR v2)
Track 11 accurately ripped (confidence 70) [C8DC0B21] (AR v2)
Track 12 accurately ripped (confidence 69) [A8F2BA6E] (AR v2)

All tracks accurately ripped

End of status report

==== Log checksum 52B4A01112E0C433ED6CD57087FBE1709ECA69A40EA38F74523727577D5D08C9 ====


[CUETools log; Date: 12.05.2018 9:50:41; Version: 2.1.4]
[CTDB TOCID: Vn.sfmLkSp0qItNGfr8VTBNKtiU-] found.
Track | CTDB Status
1 | (437/441) Accurately ripped
2 | (438/441) Accurately ripped
3 | (438/441) Accurately ripped
4 | (438/441) Accurately ripped
5 | (439/441) Accurately ripped
6 | (436/441) Accurately ripped
7 | (439/441) Accurately ripped
8 | (436/441) Accurately ripped
9 | (438/441) Accurately ripped
10 | (438/441) Accurately ripped
11 | (436/441) Accurately ripped
12 | (431/441) Accurately ripped
[AccurateRip ID: 0018f461-00ead45b-960e1b0c] found.
Track [ CRC | V2 ] Status
01 [b4a7c1c6|04f47ed3] (026+098/547) Accurately ripped
02 [63a6b745|9f4355d0] (027+103/550) Accurately ripped
03 [a5f3cd5c|80a8b0a7] (027+102/544) Accurately ripped
04 [b627d007|fba8ff62] (027+101/544) Accurately ripped
05 [6f4851fb|9fdf98ba] (027+102/546) Accurately ripped
06 [fe912eab|ccfd65c0] (027+104/550) Accurately ripped
07 [9c492776|0e607f9a] (027+104/555) Accurately ripped
08 [667fbaac|5987db60] (027+101/549) Accurately ripped
09 [3a286cc0|e64045b9] (027+102/543) Accurately ripped
10 [62d18c5e|9f76f344] (027+100/547) Accurately ripped
11 [d74c4574|c8dc0b21] (027+100/542) Accurately ripped
12 [6c8c78e4|a8f2ba6e] (027+098/535) Accurately ripped
Offsetted by -1791:
01 [21f515eb] (027/547) Accurately ripped
02 [edaa3343] (027/550) Accurately ripped
03 [aad8c1b7] (025/544) Accurately ripped
04 [4faa9889] (027/544) Accurately ripped
05 [a8522cc5] (027/546) Accurately ripped
06 [a4733ff7] (027/550) Accurately ripped
07 [e6b5245f] (027/555) Accurately ripped
08 [380ba830] (027/549) Accurately ripped
09 [40a1ae5f] (025/543) Accurately ripped
10 [74160e6e] (024/547) Accurately ripped
11 [9c4073af] (027/542) Accurately ripped
12 [3ca4b1a7] (024/535) Accurately ripped
Offsetted by 664:
01 [81541f88] (018/547) Accurately ripped
02 [e1e0e6b2] (017/550) Accurately ripped
03 [5b908ad8] (018/544) Accurately ripped
04 [553f4cca] (017/544) Accurately ripped
05 [a227d8b1] (017/546) Accurately ripped
06 [f3d1b79b] (018/550) Accurately ripped
07 [8438bcba] (017/555) Accurately ripped
08 [9538ac0b] (017/549) Accurately ripped
09 [b7c5d885] (017/543) Accurately ripped
10 [a77565de] (017/547) Accurately ripped
11 [0194cc68] (018/542) Accurately ripped
12 [50345590] (019/535) Accurately ripped
Offsetted by 1331:
01 [daee17c3] (025/547) Accurately ripped
02 [a0ef9283] (025/550) Accurately ripped
03 [f2702e74] (024/544) Accurately ripped
04 [de8dd590] (024/544) Accurately ripped
05 [b4d7e092] (024/546) Accurately ripped
06 [0ad3ef1a] (024/550) Accurately ripped
07 [0f3a9ad1] (024/555) Accurately ripped
08 [d3482825] (024/549) Accurately ripped
09 [aadfc174] (024/543) Accurately ripped
10 [bdc2158e] (024/547) Accurately ripped
11 [e58bd710] (024/542) Accurately ripped
12 [b5d8f41a] (025/535) Accurately ripped
Offsetted by 1539:
01 [c0168e8a] (023/547) Accurately ripped
02 [0c5b84a1] (025/550) Accurately ripped
03 [7ee0da91] (024/544) Accurately ripped
04 [fc1c13cb] (024/544) Accurately ripped
05 [c46a65f2] (024/546) Accurately ripped
06 [a37b5b4a] (025/550) Accurately ripped
07 [f1390d88] (026/555) Accurately ripped
08 [8a1022c5] (026/549) Accurately ripped
09 [b6751238] (025/543) Accurately ripped
10 [8626c28e] (025/547) Accurately ripped
11 [cf162dd0] (024/542) Accurately ripped
12 [3ed46302] (024/535) Accurately ripped
Offsetted by 1584:
01 [ae3dc0bb] (050/547) Accurately ripped
02 [c6b2a0d8] (049/550) Accurately ripped
03 [d10c63c2] (049/544) Accurately ripped
04 [43946e87] (049/544) Accurately ripped
05 [9c87b7b4] (048/546) Accurately ripped
06 [bd129e65] (049/550) Accurately ripped
07 [ccf93e5d] (050/555) Accurately ripped
08 [1bbf7864] (049/549) Accurately ripped
09 [7ffec560] (048/543) Accurately ripped
10 [cf0b4f5e] (050/547) Accurately ripped
11 [618041b8] (049/542) Accurately ripped
12 [393301c0] (049/535) Accurately ripped
Offsetted by -12:
01 [f46ace90] (000/547) No match (V2 was not tested)
02 [2320ab07] (000/550) No match (V2 was not tested)
03 [e4afd2f0] (000/544) No match (V2 was not tested)
04 [30203452] (000/544) No match (V2 was not tested)
05 [af852581] (000/546) No match (V2 was not tested)
06 [611f4c47] (000/550) No match (V2 was not tested)
07 [0f49cfe5] (000/555) No match (V2 was not tested)
08 [9a98f531] (000/549) No match (V2 was not tested)
09 [448a0dd7] (000/543) No match (V2 was not tested)
10 [1c2e339e] (000/547) No match (V2 was not tested)
11 [67bbc28e] (000/542) No match (V2 was not tested)
12 [59745b4a] (000/535) No match (V2 was not tested)
Offsetted by 6:
01 [38cabb61] (000/547) No match
02 [1a9d72a5] (000/550) No match
03 [47a40b8b] (000/544) No match
04 [c7038fc8] (000/544) No match
05 [256cf3ee] (000/546) No match
06 [e145090d] (000/550) No match
07 [e241d3d0] (000/555) No match
08 [55d0cd77] (000/549) No match (V2 was not tested)
09 [34ed1c3b] (000/543) No match (V2 was not tested)
10 [062338be] (000/547) No match
11 [a77e0489] (000/542) No match
12 [f62b07ab] (000/535) No match

Track Peak [ CRC32 ] [W/O NULL] [ LOG ]
– 100,0 [40DE1827] [7CEDCEA8] CRC32
01 83,8 [D0991F27] [E9BE9B45]
02 82,4 [68354048] [4944BEC8]
03 97,1 [68119DC1] [EBE6CA80]
04 79,1 [85B21FDE] [2D56DCF2]
05 98,6 [15C1DF80] [DCD58050]
06 83,6 [04C097AF] [28C046E2]
07 61,1 [7DB2334B] [496ED178]
08 99,6 [0835649F] [EAC6E9EC]
09 100,0 [96B3339C] [624A3396]
10 100,0 [88202A1B] [AFB9A317]
11 98,6 [EC792A7B] [14C16E5E]
12 99,6 [72626357] [90F22815]


Elton John: Remastered CD Collection. Part 1 (1969 - 1973)

Tracklist CD4 - 1971. Elton John - Madman Across the Water (Rocket 314-528 161-2, USA):

01. Tiny Dancer [0:06:17.10]
02. Levon [0:05:22.12]
03. Razor Face [0:04:44.28]
04. Madman Across The Water [0:05:57.25]
05. Indian Sunset [0:06:46.45]
06. Holiday Inn [0:04:16.70]
07. Rotten Peaches [0:04:58.05]
08. All The Nasties [0:05:09.12]
09. Goodbye [0:01:48.50]

Exact Audio Copy V1.0 beta 3 from 29. August 2011

EAC extraction logfile from 1. August 2015, 13:57

Elton John / Madman Across The Water

Used drive : PLEXTOR DVDR PX-L890SA Adapter: 3 ID: 1

Read mode : Secure
Utilize accurate stream : Yes
Defeat audio cache : Yes
Make use of C2 pointers : No

Read offset correction : 6
Overread into Lead-In and Lead-Out : No
Fill up missing offset samples with silence : Yes
Delete leading and trailing silent blocks : No
Null samples used in CRC calculations : Yes
Used interface : Native Win32 interface for Win NT & 2000

Used output format : User Defined Encoder
Selected bitrate : 768 kBit/s
Quality : High
Add ID3 tag : No
Command line compressor : C:\Program Files (x86)\Exact Audio Copy\Flac\flac.exe
Additional command line options : -V -8 -T "Date=%year%" -T "Genre=%genre%" %source%


TOC of the extracted CD

Track | Start | Length | Start sector | End sector
––––––––––––––––––––––––––––-
1 | 0:00.00 | 6:17.10 | 0 | 28284
2 | 6:17.10 | 5:22.12 | 28285 | 52446
3 | 11:39.22 | 4:44.28 | 52447 | 73774
4 | 16:23.50 | 5:57.25 | 73775 | 100574
5 | 22:21.00 | 6:46.45 | 100575 | 131069
6 | 29:07.45 | 4:16.70 | 131070 | 150339
7 | 33:24.40 | 4:58.05 | 150340 | 172694
8 | 38:22.45 | 5:09.12 | 172695 | 195881
9 | 43:31.57 | 1:48.50 | 195882 | 204031


Range status and errors

Selected range

Filename H:\MUSIC\Elton John\1971. Elton John - Madman Across the Water (Rocket 314-528 161-2, USA)\Elton John - Madman Across The Water.wav

Peak level 98.6 %
Extraction speed 8.1 X
Range quality 99.9 %
Test CRC 235AB9EF
Copy CRC 235AB9EF
Copy OK

No errors occurred


AccurateRip summary

Track 1 accurately ripped (confidence 68) [8FA2D204] (AR v2)
Track 2 accurately ripped (confidence 67) [FD7E4130] (AR v2)
Track 3 accurately ripped (confidence 66) [917D9F99] (AR v2)
Track 4 accurately ripped (confidence 67) [189C8DA4] (AR v2)
Track 5 accurately ripped (confidence 66) [C939F3DB] (AR v2)
Track 6 accurately ripped (confidence 66) [50724208] (AR v2)
Track 7 accurately ripped (confidence 66) [639B2480] (AR v2)
Track 8 accurately ripped (confidence 66) [C17081B6] (AR v2)
Track 9 accurately ripped (confidence 66) [10DC4E67] (AR v2)

All tracks accurately ripped

End of status report

==== Log checksum 4B9D760F56BA10C3911C5E4CF90077FBDC323F05CA7C86DE0C812FEE8780A636 ====


[CUETools log; Date: 12.05.2018 9:51:09; Version: 2.1.4]
[CTDB TOCID: 3YburRQWvyviPQR1sPegIiR.zlw-] found.
Track | CTDB Status
1 | (477/485) Accurately ripped
2 | (480/485) Accurately ripped
3 | (480/485) Accurately ripped
4 | (480/485) Accurately ripped
5 | (480/485) Accurately ripped
6 | (481/485) Accurately ripped
7 | (480/485) Accurately ripped
8 | (480/485) Accurately ripped
9 | (482/485) Accurately ripped
[AccurateRip ID: 0010ec6d-007a9cb1-700aa009] found.
Track [ CRC | V2 ] Status
01 [e6b69bfa|8fa2d204] (104+087/595) Accurately ripped
02 [3e043809|fd7e4130] (103+087/598) Accurately ripped
03 [7c4bdaa4|917d9f99] (102+086/594) Accurately ripped
04 [30b2eb32|189c8da4] (103+087/602) Accurately ripped
05 [9cf574a2|c939f3db] (101+086/591) Accurately ripped
06 [ddaa9992|50724208] (100+086/587) Accurately ripped
07 [be3dada1|639b2480] (100+087/590) Accurately ripped
08 [5b181271|c17081b6] (102+086/590) Accurately ripped
09 [c17e1569|10dc4e67] (100+087/591) Accurately ripped
Offsetted by -2688:
01 [3702aef7] (007/595) Accurately ripped
02 [96cbe4bb] (006/598) Accurately ripped
03 [801107e8] (006/594) Accurately ripped
04 [48e97681] (006/602) Accurately ripped
05 [ee9a8759] (006/591) Accurately ripped
06 [67518720] (006/587) Accurately ripped
07 [e0251585] (006/590) Accurately ripped
08 [a53789c1] (006/590) Accurately ripped
09 [589b46ba] (006/591) Accurately ripped
Offsetted by -2544:
01 [4d1d4214] (010/595) Accurately ripped
02 [899e8d87] (010/598) Accurately ripped
03 [ebc44761] (010/594) Accurately ripped
04 [583b7242] (010/602) Accurately ripped
05 [84d5d43f] (010/591) Accurately ripped
06 [f403e3e7] (010/587) Accurately ripped
07 [c453c2b9] (010/590) Accurately ripped
08 [e5328ba1] (010/590) Accurately ripped
09 [39a99962] (010/591) Accurately ripped
Offsetted by -2496:
01 [7fe8373a] (008/595) Accurately ripped
02 [3cb878e8] (008/598) Accurately ripped
03 [b386970c] (008/594) Accurately ripped
04 [1774bb32] (008/602) Accurately ripped
05 [7082c2f3] (008/591) Accurately ripped
06 [4819e725] (008/587) Accurately ripped
07 [f9a41543] (008/590) Accurately ripped
08 [9c93f29e] (008/590) Accurately ripped
09 [7dfba2bf] (008/591) Accurately ripped
Offsetted by -2478:
01 [eb25a7fd] (034/595) Accurately ripped
02 [9abd81a3] (034/598) Accurately ripped
03 [cc20452f] (035/594) Accurately ripped
04 [900023e8] (035/602) Accurately ripped
05 [33caf24a] (034/591) Accurately ripped
06 [cdbd8d0d] (035/587) Accurately ripped
07 [b7df99e5] (035/590) Accurately ripped
08 [cdee89dc] (034/590) Accurately ripped
09 [b75f8531] (034/591) Accurately ripped
Offsetted by -2413:
01 [cbb9d4a5] (020/595) Accurately ripped
02 [5c913aa4] (020/598) Accurately ripped
03 [09d75c78] (020/594) Accurately ripped
04 [14377feb] (020/602) Accurately ripped
05 [ca950195] (020/591) Accurately ripped
06 [bdf5c55b] (020/587) Accurately ripped
07 [04f69b9a] (019/590) Accurately ripped
08 [000d6fbc] (020/590) Accurately ripped
09 [226c7716] (020/591) Accurately ripped
Offsetted by -2411:
01 [19123fe3] (010/595) Accurately ripped
02 [47697bea] (010/598) Accurately ripped
03 [c27fbbca] (010/594) Accurately ripped
04 [c56fbe0b] (010/602) Accurately ripped
05 [27e8bec4] (010/591) Accurately ripped
06 [0614fcd0] (010/587) Accurately ripped
07 [f9e31067] (010/590) Accurately ripped
08 [7506fbb5] (010/590) Accurately ripped
09 [452056f6] (011/591) Accurately ripped
Offsetted by -2400:
01 [907bff6a] (023/595) Accurately ripped
02 [88e31918] (023/598) Accurately ripped
03 [792f3d77] (023/594) Accurately ripped
04 [eed9367f] (026/602) Accurately ripped
05 [6f1237e6] (023/591) Accurately ripped
06 [d23c76bb] (023/587) Accurately ripped
07 [736835b6] (023/590) Accurately ripped
08 [cbb9a431] (024/590) Accurately ripped
09 [03dfa614] (024/591) Accurately ripped
Offsetted by -1821:
01 [d689f508] (023/595) Accurately ripped
02 [e3a2ca36] (024/598) Accurately ripped
03 [a902858a] (025/594) Accurately ripped
04 [34092f98] (024/602) Accurately ripped
05 [d17dfabc] (024/591) Accurately ripped
06 [65099b1c] (024/587) Accurately ripped
07 [0fe18bc9] (024/590) Accurately ripped
08 [4e836faf] (025/590) Accurately ripped
09 [719ebbb4] (024/591) Accurately ripped
Offsetted by -664:
01 [bf26506d] (014/595) Accurately ripped
02 [c4ae39cc] (014/598) Accurately ripped
03 [d8b9f6c6] (014/594) Accurately ripped
04 [5c45ecbd] (014/602) Accurately ripped
05 [f4a91ad3] (014/591) Accurately ripped
06 [22c24765] (014/587) Accurately ripped
07 [1228f1f6] (014/590) Accurately ripped
08 [72c7f8a3] (014/590) Accurately ripped
09 [5f6cc9db] (014/591) Accurately ripped
Offsetted by -2682:
01 [cad663b4] (000/595) No match (V2 was not tested)
02 [f43b75b6] (000/598) No match (V2 was not tested)
03 [e19ff3ea] (000/594) No match (V2 was not tested)
04 [7791c80a] (000/602) No match (V2 was not tested)
05 [2ae307ca] (000/591) No match (V2 was not tested)
06 [77892af1] (000/587) No match (V2 was not tested)
07 [0bad2a34] (000/590) No match (V2 was not tested)
08 [96083d21] (000/590) No match (V2 was not tested)
09 [c3cbebda] (000/591) No match (V2 was not tested)

Track Peak [ CRC32 ] [W/O NULL] [ LOG ]
– 98,6 [235AB9EF] [300DCC68] CRC32
01 98,5 [ADF83DD3] [FC067712]
02 98,6 [20D54449] [471A62A2]
03 78,3 [D275668D] [EE0C2322]
04 98,6 [8D2F9667] [A5AFDC28]
05 98,6 [D2DB1202] [A53E0BC1]
06 98,6 [54CABF1F] [D25C2E15]
07 98,6 [5E30427B] [D3C05AD9]
08 98,6 [25E00FBE] [628DBE61]
09 56,2 [3154E546] [79026C5E]


Elton John: Remastered CD Collection. Part 1 (1969 - 1973)

Tracklist CD5 - 1972. Elton John - Honky Chаteau (Rocket 314-528 162-2, USA):

01. Honky Cat [0:05:13.05]
02. Mellow [0:05:32.57]
03. I Think I'm Going To Kill Myself [0:03:35.15]
04. Susie (Dramas) [0:03:25.00]
05. Rocket Man [0:04:41.48]
06. Salvation [0:03:58.62]
07. Slave [0:04:22.08]
08. Amy [0:04:03.27]
09. Mona Lisas And Mad Hatters [0:05:00.40]
10. Hercules [0:05:35.55]
11. Slave (alt) [0:02:53.35]

Exact Audio Copy V1.0 beta 3 from 29. August 2011

EAC extraction logfile from 1. August 2015, 14:26

Elton John / Honky Château [RM 1995]

Used drive : PLEXTOR DVDR PX-L890SA Adapter: 3 ID: 1

Read mode : Secure
Utilize accurate stream : Yes
Defeat audio cache : Yes
Make use of C2 pointers : No

Read offset correction : 6
Overread into Lead-In and Lead-Out : No
Fill up missing offset samples with silence : Yes
Delete leading and trailing silent blocks : No
Null samples used in CRC calculations : Yes
Used interface : Native Win32 interface for Win NT & 2000

Used output format : User Defined Encoder
Selected bitrate : 768 kBit/s
Quality : High
Add ID3 tag : No
Command line compressor : C:\Program Files (x86)\Exact Audio Copy\Flac\flac.exe
Additional command line options : -V -8 -T "Date=%year%" -T "Genre=%genre%" %source%


TOC of the extracted CD

Track | Start | Length | Start sector | End sector
––––––––––––––––––––––––––––-
1 | 0:00.00 | 5:13.05 | 0 | 23479
2 | 5:13.05 | 5:32.57 | 23480 | 48436
3 | 10:45.62 | 3:35.15 | 48437 | 64576
4 | 14:21.02 | 3:25.00 | 64577 | 79951
5 | 17:46.02 | 4:41.48 | 79952 | 101074
6 | 22:27.50 | 3:58.62 | 101075 | 118986
7 | 26:26.37 | 4:22.08 | 118987 | 138644
8 | 30:48.45 | 4:03.27 | 138645 | 156896
9 | 34:51.72 | 5:00.40 | 156897 | 179436
10 | 39:52.37 | 5:35.55 | 179437 | 204616
11 | 45:28.17 | 2:53.35 | 204617 | 217626


Range status and errors

Selected range

Filename H:\MUSIC\Elton John\1972. Elton John - Honky Chаteau (Rocket 314-528 162-2, USA)\Elton John - Honky Château.wav

Peak level 99.6 %
Extraction speed 9.0 X
Range quality 99.9 %
Test CRC 6BBDB123
Copy CRC 6BBDB123
Copy OK

No errors occurred


AccurateRip summary

Track 1 accurately ripped (confidence 50) [26216427] (AR v2)
Track 2 accurately ripped (confidence 50) [8740BCC0] (AR v2)
Track 3 accurately ripped (confidence 50) [E8A06D48] (AR v2)
Track 4 accurately ripped (confidence 50) [2C8AC124] (AR v2)
Track 5 accurately ripped (confidence 50) [69FAD584] (AR v2)
Track 6 accurately ripped (confidence 50) [B38C1ACE] (AR v2)
Track 7 accurately ripped (confidence 50) [836F5BBA] (AR v2)
Track 8 accurately ripped (confidence 50) [F302258D] (AR v2)
Track 9 accurately ripped (confidence 50) [02C01F14] (AR v2)
Track 10 accurately ripped (confidence 49) [5D274B9A] (AR v2)
Track 11 accurately ripped (confidence 48) [C48BD86C] (AR v2)

All tracks accurately ripped

End of status report

==== Log checksum 42689C2FFA62817CC76FDEA9900849722AC65F8293C6874D72D7D58BCEB73797 ====


[CUETools log; Date: 12.05.2018 9:58:24; Version: 2.1.4]
[CTDB TOCID: LA6gTyNVXlN6d8KId_f55q7F2bk-] found.
Track | CTDB Status
1 | (420/462) Accurately ripped
2 | (420/462) Accurately ripped
3 | (420/462) Accurately ripped
4 | (417/462) Accurately ripped
5 | (418/462) Accurately ripped
6 | (417/462) Accurately ripped
7 | (419/462) Accurately ripped
8 | (419/462) Accurately ripped
9 | (419/462) Accurately ripped
10 | (418/462) Accurately ripped
11 | (420/462) Accurately ripped
[AccurateRip ID: 001459e3-00aefb5d-9d0b550b] found.
Track [ CRC | V2 ] Status
01 [29bd0aaa|26216427] (043+069/543) Accurately ripped
02 [0a20bf93|8740bcc0] (040+069/537) Accurately ripped
03 [c8b855b6|e8a06d48] (042+070/541) Accurately ripped
04 [a5afd23c|2c8ac124] (041+070/529) Accurately ripped
05 [16c72890|69fad584] (043+069/541) Accurately ripped
06 [91a4da1d|b38c1ace] (041+070/533) Accurately ripped
07 [9792fa87|836f5bba] (041+070/534) Accurately ripped
08 [14614726|f302258d] (041+070/534) Accurately ripped
09 [50c0a890|02c01f14] (044+069/545) Accurately ripped
10 [283c88e8|5d274b9a] (043+068/532) Accurately ripped
11 [fbb6a3ef|c48bd86c] (039+067/523) Accurately ripped
Offsetted by 807:
01 [ec30f8dd] (014/543) Accurately ripped
02 [6f7cb65d] (014/537) Accurately ripped
03 [bbe0aa19] (014/541) Accurately ripped
04 [e0bc1121] (013/529) Accurately ripped
05 [f955c27f] (014/541) Accurately ripped
06 [41847314] (014/533) Accurately ripped
07 [61f37337] (013/534) Accurately ripped
08 [f5fc2af1] (014/534) Accurately ripped
09 [d3525c77] (014/545) Accurately ripped
10 [7054515b] (014/532) Accurately ripped
11 [11bb33a4] (012/523) Accurately ripped
Offsetted by 810:
01 [215d5f5c] (008/543) Accurately ripped
02 [30eb33fa] (008/537) Accurately ripped
03 [eb7a3f79] (008/541) Accurately ripped
04 [14ffd391] (008/529) Accurately ripped
05 [21d8b9a3] (008/541) Accurately ripped
06 [fb70582d] (008/533) Accurately ripped
07 [3d2e4c05] (008/534) Accurately ripped
08 [78e8a0b5] (008/534) Accurately ripped
09 [0783f022] (008/545) Accurately ripped
10 [f4f7dd71] (008/532) Accurately ripped
11 [5561c2ed] (008/523) Accurately ripped
Offsetted by 1474:
01 [73a71d9c] (027/543) Accurately ripped
02 [d4aace9f] (025/537) Accurately ripped
03 [e355a840] (026/541) Accurately ripped
04 [6daa3f14] (025/529) Accurately ripped
05 [683d40ed] (027/541) Accurately ripped
06 [7ede9af2] (025/533) Accurately ripped
07 [62c79150] (026/534) Accurately ripped
08 [ee9e9f22] (025/534) Accurately ripped
09 [ba7db538] (026/545) Accurately ripped
10 [f926a745] (026/532) Accurately ripped
11 [280da4b5] (025/523) Accurately ripped
Offsetted by 2131:
01 [29e200f6] (002/543) Accurately ripped
02 [63f21dfa] (002/537) Accurately ripped
03 [935d5267] (002/541) Accurately ripped
04 [3de82478] (002/529) Accurately ripped
05 [1ae91710] (002/541) Accurately ripped
06 [6e2fdecc] (002/533) Accurately ripped
07 [c9edc903] (002/534) Accurately ripped
08 [cf16871f] (002/534) Accurately ripped
09 [e5d73a0a] (002/545) Accurately ripped
10 [e89167fe] (002/532) Accurately ripped
11 [078a3828] (002/523) Accurately ripped
Offsetted by 2735:
01 [ae3ddfbe] (052/543) Accurately ripped
02 [40c076be] (052/537) Accurately ripped
03 [7f35aa16] (053/541) Accurately ripped
04 [f59ceb1b] (053/529) Accurately ripped
05 [28d19b30] (054/541) Accurately ripped
06 [447d93ca] (054/533) Accurately ripped
07 [45163979] (052/534) Accurately ripped
08 [dea1d094] (052/534) Accurately ripped
09 [7e2de7e2] (053/545) Accurately ripped
10 [8f0836df] (051/532) Accurately ripped
11 [9132e83c] (051/523) Accurately ripped
Offsetted by 2810:
01 [c41621a6] (006/543) Accurately ripped
02 [1f51c5eb] (006/537) Accurately ripped
03 [c3f09cdb] (006/541) Accurately ripped
04 [cc77dc1d] (006/529) Accurately ripped
05 [3215a6a6] (006/541) Accurately ripped
06 [0c1166ee] (007/533) Accurately ripped
07 [beb8740c] (006/534) Accurately ripped
08 [38768446] (006/534) Accurately ripped
09 [fad84ce4] (006/545) Accurately ripped
10 [9461fcf6] (006/532) Accurately ripped
11 [2c76e65d] (007/523) Accurately ripped
Offsetted by 2866:
01 [57664db7] (011/543) Accurately ripped
02 [83b1da17] (011/537) Accurately ripped
03 [fdee75cb] (011/541) Accurately ripped
04 [e373bd2d] (011/529) Accurately ripped
05 [337b073b] (011/541) Accurately ripped
06 [e054420a] (011/533) Accurately ripped
07 [6934e2c1] (011/534) Accurately ripped
08 [a8bc4ce1] (011/534) Accurately ripped
09 [99c44668] (011/545) Accurately ripped
10 [691e9cc4] (011/532) Accurately ripped
11 [c5f15905] (012/523) Accurately ripped
Offsetted by 795:
01 [c2ad6215] (000/543) No match (V2 was not tested)
02 [def6b0f9] (000/537) No match (V2 was not tested)
03 [3747d824] (000/541) No match (V2 was not tested)
04 [7ee1b5e9] (000/529) No match (V2 was not tested)
05 [0f218d99] (000/541) No match (V2 was not tested)
06 [926d6c7f] (000/533) No match (V2 was not tested)
07 [4ad6d031] (000/534) No match (V2 was not tested)
08 [ea1bec86] (000/534) No match (V2 was not tested)
09 [5b7bb033] (000/545) No match (V2 was not tested)
10 [5e1e2120] (000/532) No match (V2 was not tested)
11 [0320f680] (000/523) No match (V2 was not tested)

Track Peak [ CRC32 ] [W/O NULL] [ LOG ]
– 99,6 [6BBDB123] [1DB3A81D] CRC32
01 97,4 [E2CCC631] [B05B2C5B]
02 98,5 [C19D55EF] [DC66B87A]
03 95,1 [354BECF8] [F6ADBDC6]
04 99,6 [5D2D1D1F] [6280633D]
05 98,3 [2B620092] [DA5550D4]
06 98,6 [8D9D0556] [672E1028]
07 99,4 [364DA275] [CD15FCC8]
08 98,3 [8691E6DC] [075E9CF9]
09 78,3 [86FD1476] [E9C8D3BE]
10 99,6 [EB109193] [5EB58515]
11 98,6 [9ECD5465] [0394B2FB]


Elton John: Remastered CD Collection. Part 1 (1969 - 1973)

Tracklist CD6 - 1973. Elton John - Don't Shoot Me I'm Only The Piano Player (Rocket 314-528 154-2, USA):

01. Daniel [0:03:54.52]
02. Teacher I Need You [0:04:09.65]
03. Elderberry Wine [0:03:33.68]
04. Blues For My Baby And Me [0:05:42.52]
05. Midnight Creeper [0:03:53.18]
06. Have Mercy On The Criminal [0:05:57.57]
07. I'm Gonna Be A Teenage Idol [0:03:55.48]
08. Texan Love Song [0:03:33.30]
09. Crocodile Rock [0:03:56.45]
10. High-Flying Bird [0:04:27.07]
11. Screw You (Young Man's Blues) [0:04:43.30]
12. Jack Rabbit [0:01:49.65]
13. Whenever You're Ready (We'll Go Steady Again) [0:02:51.05]
14. Skyline Pigeon (Piano Version) [0:03:54.15]

Exact Audio Copy V1.3 from 2. September 2016

EAC extraction logfile from 25. February 2018, 13:38

Elton John / Don't Shoot Me I'm Only The Piano Player

Used drive : PLEXTOR DVDR PX-L890SA Adapter: 1 ID: 0

Read mode : Secure
Utilize accurate stream : Yes
Defeat audio cache : Yes
Make use of C2 pointers : No

Read offset correction : 6
Overread into Lead-In and Lead-Out : No
Fill up missing offset samples with silence : Yes
Delete leading and trailing silent blocks : No
Null samples used in CRC calculations : Yes
Used interface : Native Win32 interface for Win NT & 2000

Used output format : User Defined Encoder
Selected bitrate : 1024 kBit/s
Quality : High
Add ID3 tag : No
Command line compressor : C:\Program Files (x86)\Exact Audio Copy\Flac\flac.exe
Additional command line options : -V -8 -T "Date=%year%" -T "Genre=%genre%" %source%


TOC of the extracted CD

Track | Start | Length | Start sector | End sector
––––––––––––––––––––––––––––-
1 | 0:00.00 | 3:54.52 | 0 | 17601
2 | 3:54.52 | 4:09.65 | 17602 | 36341
3 | 8:04.42 | 3:33.68 | 36342 | 52384
4 | 11:38.35 | 5:42.52 | 52385 | 78086
5 | 17:21.12 | 3:53.18 | 78087 | 95579
6 | 21:14.30 | 5:57.57 | 95580 | 122411
7 | 27:12.12 | 3:55.48 | 122412 | 140084
8 | 31:07.60 | 3:33.30 | 140085 | 156089
9 | 34:41.15 | 3:56.45 | 156090 | 173834
10 | 38:37.60 | 4:27.07 | 173835 | 193866
11 | 43:04.67 | 4:43.30 | 193867 | 215121
12 | 47:48.22 | 1:49.65 | 215122 | 223361
13 | 49:38.12 | 2:51.05 | 223362 | 236191
14 | 52:29.17 | 3:54.15 | 236192 | 253756


Range status and errors

Selected range

Filename H:\AUDIO\MUSIC\1973. Elton John - Don't Shoot Me I'm Only The Piano Player (Rocket 314-528 154-2, USA)\Elton John - Don't Shoot Me I'm Only The Piano Player.wav

Peak level 100.0 %
Extraction speed 8.6 X
Range quality 99.9 %
Test CRC 847C5429
Copy CRC 847C5429
Copy OK

No errors occurred


AccurateRip summary

Track 1 accurately ripped (confidence 39) [B09D0B5B] (AR v2)
Track 2 accurately ripped (confidence 41) [3F7E9502] (AR v2)
Track 3 accurately ripped (confidence 38) [E86143A7] (AR v2)
Track 4 accurately ripped (confidence 38) [47F44C8B] (AR v2)
Track 5 accurately ripped (confidence 38) [F3E0F471] (AR v2)
Track 6 accurately ripped (confidence 38) [CA414E34] (AR v2)
Track 7 accurately ripped (confidence 38) [C3B31667] (AR v2)
Track 8 accurately ripped (confidence 39) [2C10EE05] (AR v2)
Track 9 accurately ripped (confidence 38) [5D5463EB] (AR v2)
Track 10 accurately ripped (confidence 38) [63CF1816] (AR v2)
Track 11 accurately ripped (confidence 39) [68A60AE4] (AR v2)
Track 12 accurately ripped (confidence 38) [F0B6EEE0] (AR v2)
Track 13 accurately ripped (confidence 38) [7EA007A2] (AR v2)
Track 14 accurately ripped (confidence 37) [27523532] (AR v2)

All tracks accurately ripped

End of status report

==== Log checksum 32282D66933152F3A9B326DED7A0A36584BAFDBE452ECAF2A406B734089C1D1A ====


[CUETools log; Date: 12.05.2018 9:59:02; Version: 2.1.4]
[CTDB TOCID: IrgUclwIadnat9cyS7ja8RCtfio-] found.
Track | CTDB Status
1 | (340/368) Accurately ripped
2 | (337/368) Accurately ripped
3 | (338/368) Accurately ripped
4 | (340/368) Accurately ripped
5 | (340/368) Accurately ripped
6 | (338/368) Accurately ripped
7 | (338/368) Accurately ripped
8 | (340/368) Accurately ripped
9 | (339/368) Accurately ripped
10 | (340/368) Accurately ripped
11 | (341/368) Accurately ripped
12 | (336/368) Accurately ripped
13 | (336/368) Accurately ripped
14 | (336/368) Accurately ripped
[AccurateRip ID: 001e6fde-01430408-c30d370e] found.
Track [ CRC | V2 ] Status
01 [74c4ac44|b09d0b5b] (062+039/433) Accurately ripped
02 [79b3d261|3f7e9502] (061+041/432) Accurately ripped
03 [eadaf8f6|e86143a7] (063+038/433) Accurately ripped
04 [78e9331f|47f44c8b] (062+038/430) Accurately ripped
05 [9f415a00|f3e0f471] (060+038/427) Accurately ripped
06 [69c7ab5c|ca414e34] (059+038/426) Accurately ripped
07 [7d7f5d8e|c3b31667] (059+038/426) Accurately ripped
08 [2400bdbf|2c10ee05] (060+039/430) Accurately ripped
09 [f1e387a8|5d5463eb] (062+038/431) Accurately ripped
10 [e167b5a6|63cf1816] (061+038/428) Accurately ripped
11 [21f62018|68a60ae4] (060+039/421) Accurately ripped
12 [ba788893|f0b6eee0] (060+038/416) Accurately ripped
13 [a2c8b0fa|7ea007a2] (060+038/418) Accurately ripped
14 [f5ccffe6|27523532] (059+037/419) Accurately ripped
Offsetted by -2804:
01 [12f1092b] (002/433) Accurately ripped
02 [f39de32c] (002/432) Accurately ripped
03 [7f15b8a7] (002/433) Accurately ripped
04 [08cafaf4] (002/430) Accurately ripped
05 [9572c74c] (002/427) Accurately ripped
06 [038b484c] (002/426) Accurately ripped
07 [c93a9bf6] (002/426) Accurately ripped
08 [71345200] (002/430) Accurately ripped
09 [26b0cd2f] (002/431) Accurately ripped
10 [3ca91d16] (002/428) Accurately ripped
11 [657c374c] (002/421) Accurately ripped
12 [a975c0ff] (002/416) Accurately ripped
13 [2413d33f] (002/418) Accurately ripped
14 [d7db63b1] (002/419) Accurately ripped
Offsetted by -2176:
01 [ea69ab43] (006/433) Accurately ripped
02 [cc0ec967] (006/432) Accurately ripped
03 [103f663b] (006/433) Accurately ripped
04 [90267229] (006/430) Accurately ripped
05 [dedb7980] (006/427) Accurately ripped
06 [adc14022] (006/426) Accurately ripped
07 [c753413c] (006/426) Accurately ripped
08 [30379e7f] (006/430) Accurately ripped
09 [15baf0e0] (006/431) Accurately ripped
10 [67669ba6] (006/428) Accurately ripped
11 [311cd098] (005/421) Accurately ripped
12 [32a8eb28] (005/416) Accurately ripped
13 [3ef26511] (005/418) Accurately ripped
14 [1c633f4a] (005/419) Accurately ripped
Offsetted by -2158:
01 [c1e8b143] (002/433) Accurately ripped
02 [c7b313a2] (002/432) Accurately ripped
03 [5ccd32d3] (002/433) Accurately ripped
04 [bc2429bc] (002/430) Accurately ripped
05 [369105f2] (002/427) Accurately ripped
06 [0ee409fc] (002/426) Accurately ripped
07 [0c89ce8f] (002/426) Accurately ripped
08 [c1b7d0af] (002/430) Accurately ripped
09 [543ef407] (002/431) Accurately ripped
10 [20e170ce] (002/428) Accurately ripped
11 [78fcbae6] (002/421) Accurately ripped
12 [1d9b2b5c] (002/416) Accurately ripped
13 [8bc0ee5a] (002/418) Accurately ripped
14 [493b22eb] (002/419) Accurately ripped
Offsetted by -2140:
01 [f66192b9] (018/433) Accurately ripped
02 [2fc0c865] (018/432) Accurately ripped
03 [057af197] (018/433) Accurately ripped
04 [e822df69] (018/430) Accurately ripped
05 [8e469264] (018/427) Accurately ripped
06 [2f369286] (018/426) Accurately ripped
07 [73fe0cf4] (018/426) Accurately ripped
08 [8af49d47] (018/430) Accurately ripped
09 [9266f5b0] (018/431) Accurately ripped
10 [da5c45f6] (018/428) Accurately ripped
11 [c0dca534] (017/421) Accurately ripped
12 [890506fc] (017/416) Accurately ripped
13 [308a963d] (017/418) Accurately ripped
14 [76d2066e] (017/419) Accurately ripped
Offsetted by -1846:
01 [54d8ef24] (033/433) Accurately ripped
02 [bf5e7103] (032/432) Accurately ripped
03 [3ccce90f] (034/433) Accurately ripped
04 [401f777e] (033/430) Accurately ripped
05 [26dbddaa] (033/427) Accurately ripped
06 [21a0ba6a] (033/426) Accurately ripped
07 [efab6f4d] (033/426) Accurately ripped
08 [496fc40a] (034/430) Accurately ripped
09 [2129da28] (034/431) Accurately ripped
10 [05328a2e] (033/428) Accurately ripped
11 [56d0982e] (034/421) Accurately ripped
12 [1bb8c4fb] (033/416) Accurately ripped
13 [d023780f] (033/418) Accurately ripped
14 [4b10357f] (034/419) Accurately ripped
Offsetted by -1839:
01 [f7585581] (019/433) Accurately ripped
02 [c544e00b] (019/432) Accurately ripped
03 [8119e724] (019/433) Accurately ripped
04 [14c18f13] (018/430) Accurately ripped
05 [9e4d2281] (018/427) Accurately ripped
06 [05a15b6d] (018/426) Accurately ripped
07 [e03b4622] (018/426) Accurately ripped
08 [122d042e] (019/430) Accurately ripped
09 [2164ed18] (018/431) Accurately ripped
10 [b0e24eda] (019/428) Accurately ripped
11 [f2c41df7] (017/421) Accurately ripped
12 [b610423e] (017/416) Accurately ripped
13 [2b114b77] (018/418) Accurately ripped
14 [fbe7b469] (018/419) Accurately ripped
Offsetted by -1476:
01 [384d8b84] (021/433) Accurately ripped
02 [f82638d3] (021/432) Accurately ripped
03 [4617af0a] (021/433) Accurately ripped
04 [7ee39db1] (021/430) Accurately ripped
05 [871a5d7c] (020/427) Accurately ripped
06 [516b5166] (021/426) Accurately ripped
07 [2b2c5406] (021/426) Accurately ripped
08 [8d49bb3d] (021/430) Accurately ripped
09 [aad81eb0] (021/431) Accurately ripped
10 [780f6ed6] (020/428) Accurately ripped
11 [1c3d131c] (021/421) Accurately ripped
12 [bb6e1bfa] (019/416) Accurately ripped
13 [9c870cc4] (020/418) Accurately ripped
14 [7a96e319] (021/419) Accurately ripped

Track Peak [ CRC32 ] [W/O NULL] [ LOG ]
– 100,0 [847C5429] [670A2066] CRC32
01 98,1 [A44A8E9F] [ED2D0D0C]
02 99,2 [9ACDEB13] [87D99323]
03 97,0 [D89CDE5E] [22C711A3]
04 95,4 [EBC6A645] [788F3429]
05 100,0 [939E6F6E] [F1C2A6CC]
06 99,6 [D9CF284D] [C7147D50]
07 98,8 [D3600934] [263FF679]
08 94,0 [BF625A71] [D874F670]
09 98,5 [CDC3D3B2] [D2D89816]
10 99,6 [D7E079FC] [FDB55DC5]
11 98,6 [B23C5358] [DF6B545C]
12 78,3 [18A28524] [2CA07098]
13 98,6 [7F5A2A34] [46457CFC]
14 98,7 [7ECFDEB2] [332593F1]


All thanks go to snakesharmer

Elton John or Elton John in my Blog

Download Elton John: Remastered CD Collection. Part 1 (1969 - 1973):