Subcategories

Elvin Bishop - Ace In The Hole (1995)

Posted By: popsakov
Elvin Bishop - Ace In The Hole (1995)

Elvin Bishop - Ace In The Hole (1995)
EAC Rip | FLAC (Img) + Cue + Log ~ 374 Mb | MP3 CBR320 ~ 128 Mb
Scans (PNG, 400 dpi) ~ 104 Mb | RAR 5% Recovery
Modern Electric Blues, Chicago Blues | Alligator Records #ALCD 4833

Elvin Richard Bishop is an American blues and rock musician as singer and guitarist, a bandleader, and a recording artist, having released over two dozen studio and live albums to date, including a #3 charting U.S. hit single. He was an original member of the historic 1960s group, the Paul Butterfield Blues Band and as such, was inducted into the Rock and Roll Hall of Fame in 2015.
~ Wiki

Elvin Bishop - Ace In The Hole (1995)


***************

Elvin Bishop - Ace In The Hole (1995)

Track List:

01. Another Mule Kickin' In Your Stall [0:04:34.32]
02. Driving Wheel [0:03:01.45]
03. Give Me Some of That Money [0:04:38.10]
04. Ace In The Hole [0:02:15.68]
05. Party 'Til The Cows Come Home [0:04:02.02]
06. Think [0:03:12.08]
07. Home of The Blues [0:04:31.02]
08. Pigmeat On The Line [0:03:27.55]
09. Ain't That Love [0:03:16.65]
10. Fishin' [0:07:35.03]
11. Blue Flame [0:04:07.02]
12. Talkin' Mood [0:04:04.65]
13. Fooled Around And Fell In Love [0:04:45.43]

Personnel:

Alto Saxophone – "Daddy Ray" Arvizu
Backing Vocals – Bill Thompson (track 10), Ed Early, Larry Vann, Randy Forrester, "Daddy Ray" Arvizu, Rick Meyers (track 10)
Bass – Evan Palmerson
Drums – Larry Vann
Guest, Backing Vocals – Camille (track 3), Joyce Garcia (track 3), Willie Jordan
Guest, Congas [Conga Drums] – Willie Jordan
Guest, Guitar – Carl Lockett (tracks: 1, 3, 12)
Guest, Harmonica – Charlie Musselwhite (tracks: 4, 7)
Keyboards – Randy Forrester
Lead Vocals – Randy Forrester (track 5)
Trombone – Ed Early
Vocals, Guitar – Elvin Bishop

Exact Audio Copy V1.1 from 23. June 2015

EAC extraction logfile from 16. July 2016, 9:34

Elvin Bishop / Ace In The Hole

Used drive : HL-DT-STDVDRAM GH24NSC0 Adapter: 1 ID: 0

Read mode : Secure
Utilize accurate stream : Yes
Defeat audio cache : Yes
Make use of C2 pointers : No

Read offset correction : 6
Overread into Lead-In and Lead-Out : No
Fill up missing offset samples with silence : Yes
Delete leading and trailing silent blocks : No
Null samples used in CRC calculations : Yes
Used interface : Native Win32 interface for Win NT & 2000

Used output format : Internal WAV Routines
Sample format : 44.100 Hz; 16 Bit; Stereo


TOC of the extracted CD

Track | Start | Length | Start sector | End sector
––––––––––––––––––––––––––––-
1 | 0:00.00 | 4:34.32 | 0 | 20581
2 | 4:34.32 | 3:01.45 | 20582 | 34201
3 | 7:36.02 | 4:38.10 | 34202 | 55061
4 | 12:14.12 | 2:15.68 | 55062 | 65254
5 | 14:30.05 | 4:02.02 | 65255 | 83406
6 | 18:32.07 | 3:12.08 | 83407 | 97814
7 | 21:44.15 | 4:31.02 | 97815 | 118141
8 | 26:15.17 | 3:27.55 | 118142 | 133721
9 | 29:42.72 | 3:16.65 | 133722 | 148486
10 | 32:59.62 | 7:35.03 | 148487 | 182614
11 | 40:34.65 | 4:07.02 | 182615 | 201141
12 | 44:41.67 | 4:04.65 | 201142 | 219506
13 | 48:46.57 | 4:45.43 | 219507 | 240924


Range status and errors

Selected range

Filename C:\Music CD\Elvin Bishop - Ace In The Hole.wav

Peak level 98.9 %
Extraction speed 7.3 X
Range quality 100.0 %
Test CRC 484C1536
Copy CRC 484C1536
Copy OK

No errors occurred


AccurateRip summary

Track 1 accurately ripped (confidence 8) [73665077] (AR v2)
Track 2 accurately ripped (confidence 8) [2089FCBF] (AR v2)
Track 3 accurately ripped (confidence 8) [B78E911E] (AR v2)
Track 4 accurately ripped (confidence 8) [61D20FB1] (AR v2)
Track 5 accurately ripped (confidence 8) [0059313A] (AR v2)
Track 6 accurately ripped (confidence 8) [E950E685] (AR v2)
Track 7 accurately ripped (confidence 8) [E4500799] (AR v2)
Track 8 accurately ripped (confidence 7) [AF82A230] (AR v2)
Track 9 accurately ripped (confidence 8) [DA226BC4] (AR v2)
Track 10 accurately ripped (confidence 7) [69CA71CE] (AR v2)
Track 11 accurately ripped (confidence 8) [CE782911] (AR v2)
Track 12 accurately ripped (confidence 8) [5EEC3073] (AR v2)
Track 13 accurately ripped (confidence 8) [C5061936] (AR v2)

All tracks accurately ripped

End of status report

–– CUETools DB Plugin V2.1.6

[CTDB TOCID: l8jliH8.3DaPLxYboun4WtalUX8-] found
Submit result: l8jliH8.3DaPLxYboun4WtalUX8- has been confirmed
Track | CTDB Status
1 | (15/15) Accurately ripped
2 | (15/15) Accurately ripped
3 | (15/15) Accurately ripped
4 | (15/15) Accurately ripped
5 | (15/15) Accurately ripped
6 | (15/15) Accurately ripped
7 | (15/15) Accurately ripped
8 | (15/15) Accurately ripped
9 | (15/15) Accurately ripped
10 | (15/15) Accurately ripped
11 | (15/15) Accurately ripped
12 | (14/15) Accurately ripped
13 | (14/15) Accurately ripped


==== Log checksum 893785A67C9C5C673FF2FA70FEE546D6A9E8ED2C2DD532706EA6CD2BF0DF8A38 ====

foobar2000 1.2.6 / Dynamic Range Meter 1.1.1
log date: 2016-11-07 14:52:06

––––––––––––––––––––––––––––––––––––––––
Analyzed: Elvin Bishop / Ace In The Hole
––––––––––––––––––––––––––––––––––––––––

DR Peak RMS Duration Track
––––––––––––––––––––––––––––––––––––––––
DR10 -0.87 dB -13.05 dB 4:34 01-Another Mule Kickin' In Your Stall
DR10 -0.60 dB -11.83 dB 3:02 02-Driving Wheel
DR10 -0.48 dB -12.40 dB 4:38 03-Give Me Some of That Money
DR11 -1.08 dB -14.35 dB 2:16 04-Ace In The Hole
DR9 -0.74 dB -11.85 dB 4:02 05-Party 'Til The Cows Come Home
DR10 -0.71 dB -11.92 dB 3:12 06-Think
DR11 -0.09 dB -12.90 dB 4:31 07-Home of The Blues
DR9 -0.60 dB -11.52 dB 3:28 08-Pigmeat On The Line
DR9 -0.68 dB -12.23 dB 3:17 09-Ain't That Love
DR10 -0.31 dB -12.55 dB 7:35 10-Fishin'
DR11 -1.19 dB -13.93 dB 4:07 11-Blue Flame
DR11 -0.68 dB -13.09 dB 4:05 12-Talkin' Mood
DR10 -0.64 dB -12.63 dB 4:46 13-Fooled Around And Fell In Love
––––––––––––––––––––––––––––––––––––––––

Number of tracks: 13
Official DR value: DR10

Samplerate: 44100 Hz
Channels: 2
Bits per sample: 16
Bitrate: 925 kbps
Codec: FLAC
================================================================================

[CUETools log; Date: 07.11.2016 14:52:11; Version: 2.1.5]
[CTDB TOCID: l8jliH8.3DaPLxYboun4WtalUX8-] found.
Track | CTDB Status
1 | (18/18) Accurately ripped
2 | (18/18) Accurately ripped
3 | (18/18) Accurately ripped
4 | (18/18) Accurately ripped
5 | (18/18) Accurately ripped
6 | (18/18) Accurately ripped
7 | (18/18) Accurately ripped
8 | (18/18) Accurately ripped
9 | (18/18) Accurately ripped
10 | (18/18) Accurately ripped
11 | (18/18) Accurately ripped
12 | (17/18) Accurately ripped
13 | (17/18) Accurately ripped
[AccurateRip ID: 00186d5f-00f68d03-c60c8c0d] found.
Track [ CRC | V2 ] Status
01 [c7c821fb|73665077] (08+08/21) Accurately ripped
02 [5666417f|2089fcbf] (08+08/21) Accurately ripped
03 [d677a9db|b78e911e] (08+08/21) Accurately ripped
04 [80cb781c|61d20fb1] (08+08/21) Accurately ripped
05 [0d249e26|0059313a] (08+08/21) Accurately ripped
06 [c0aa08b8|e950e685] (08+08/21) Accurately ripped
07 [2eeba9d6|e4500799] (08+08/21) Accurately ripped
08 [b9e65cc1|af82a230] (07+07/19) Accurately ripped
09 [7f9a761c|da226bc4] (08+08/21) Accurately ripped
10 [9ce47130|69ca71ce] (07+07/19) Accurately ripped
11 [c99ad712|ce782911] (08+08/21) Accurately ripped
12 [4a486cd2|5eec3073] (07+08/20) Accurately ripped
13 [2ba432da|c5061936] (08+08/21) Accurately ripped
Offsetted by -1023:
01 [866b980d] (02/21) Accurately ripped
02 [9f6a36a6] (02/21) Accurately ripped
03 [359eb79e] (02/21) Accurately ripped
04 [9f7dfa29] (02/21) Accurately ripped
05 [75e31ada] (02/21) Accurately ripped
06 [f49c823e] (02/21) Accurately ripped
07 [9b3d5054] (02/21) Accurately ripped
08 [0546a588] (02/19) Accurately ripped
09 [4ea292aa] (02/21) Accurately ripped
10 [004870e7] (02/19) Accurately ripped
11 [b01c49c7] (02/21) Accurately ripped
12 [304d631f] (02/20) Accurately ripped
13 [40184c83] (02/21) Accurately ripped

Track Peak [ CRC32 ] [W/O NULL] [ LOG ]
– 98,9 [484C1536] [7D1AECEC] CRC32
01 90,4 [3CE8586A] [752BD206]
02 93,3 [9D4C23D7] [CF1C6E51]
03 94,6 [705ED8F0] [C035E9EE]
04 88,3 [41EF3790] [D6A30AAA]
05 91,8 [0E9E65E8] [DF4687B4]
06 92,1 [77DE0C55] [E51C38BE]
07 98,9 [6E2DACD4] [E6F5B36F]
08 93,3 [8724CC54] [9EEB528B]
09 92,4 [86862746] [BE444F74]
10 96,4 [3BEC9473] [F1D03484]
11 87,1 [3C143D3A] [428FF2B0]
12 92,4 [2D28161C] [21BC6307]
13 92,9 [E0D04992] [2A5206A9]

Elvin Bishop - Ace In The Hole (1995)

Elvin Bishop - Ace In The Hole (1995)

All thanks go to edenika

> Visit my blog <

Download: