Tags
Language
Tags

Elvis Costello And The Attractions - Highlights From Almost Blue & Imperial Bedroom (1994) {Promo}

Posted By: popsakov
Elvis Costello And The Attractions - Highlights From Almost Blue & Imperial Bedroom (1994) {Promo}

Elvis Costello And The Attractions - Highlights From Almost Blue & Imperial Bedroom (1994) {Promo}
EAC Rip | FLAC (Img) + Cue + Log ~ 216 Mb | MP3 CBR320 ~ 129 Mb
Full Scans | 00:19:38 | RAR 5% Recovery
Rock | Demon Records #ECPROMO 2

Promo CD for two albums in Demon Records' re-issue campaign of the mighty Elvis Costello back catalogue. 1994 promo sampler includes highlights from the 1994 reissues of Almost Blue (1981) and Imperial Bedroom (1982).
Elvis Costello And The Attractions - Highlights From Almost Blue & Imperial Bedroom (1994) {Promo}


***************

Elvis Costello And The Attractions - Highlights From Almost Blue & Imperial Bedroom (1994) {Promo}

Elvis Costello And The Attractions - Highlights From Almost Blue & Imperial Bedroom (1994) {Promo}

Track List:

From Almost Blue
01. Sweet Dreams [03:01]
02. Sittin' And Thinkin' (Live At The Mean Machine, Aberdeen) [02:55]
03. How Much I Lied [02:48]
From Imperial Bedroom
04. Man Out Of Time [05:30]
05. The Loved Ones [02:51]
06. From Head To Toe [02:36]

Exact Audio Copy V1.0 beta 3 from 29. August 2011

EAC extraction logfile from 9. February 2013, 16:28

Elvis Costello And The Attractions / Highlights From Almost Blue & Imperial Bedroom

Used drive : HL-DT-STBDDVDRW GBC-H20N Adapter: 1 ID: 0

Read mode : Secure
Utilize accurate stream : Yes
Defeat audio cache : Yes
Make use of C2 pointers : No

Read offset correction : 667
Overread into Lead-In and Lead-Out : No
Fill up missing offset samples with silence : Yes
Delete leading and trailing silent blocks : No
Null samples used in CRC calculations : Yes
Used interface : Native Win32 interface for Win NT & 2000

Used output format : User Defined Encoder
Selected bitrate : 1024 kBit/s
Quality : High
Add ID3 tag : No
Command line compressor : C:\Program Files\Exact Audio Copy\wavpack.exe
Additional command line options : -hm %source% %dest%


TOC of the extracted CD

Track | Start | Length | Start sector | End sector
––––––––––––––––––––––––––––-
1 | 0:00.32 | 3:00.38 | 32 | 13569
2 | 3:00.70 | 2:54.52 | 13570 | 26671
3 | 5:55.47 | 2:47.53 | 26672 | 39249
4 | 8:43.25 | 5:29.05 | 39250 | 63929
5 | 14:12.30 | 2:50.22 | 63930 | 76701
6 | 17:02.52 | 2:35.50 | 76702 | 88376


Range status and errors

Selected range

Filename C:\Users\ProgDog\Music\ZALIVKI\Elvis Costello\Promotion\Elvis Costello And The Attractions - Highlights From Almost Blue & Imperial Bedroom.wav

Peak level 100.0 %
Extraction speed 4.9 X
Range quality 100.0 %
Test CRC BF1D885F
Copy CRC BF1D885F
Copy OK

No errors occurred


AccurateRip summary

Track 1 not present in database
Track 2 not present in database
Track 3 not present in database
Track 4 not present in database
Track 5 not present in database
Track 6 not present in database

None of the tracks are present in the AccurateRip database

End of status report

–– CUETools DB Plugin V2.1.3

[CTDB TOCID: 9PwrhFF6jCW2fCbB9l9mF0OTHhM-] disk not present in database, Submit result: discs with pregaps not supported in this protocol version


==== Log checksum 0E1F039C073DB7E018F67C40262933DA4405E62A8E4DE2B6977E7031F68E3EB6 ====

Elvis Costello And The Attractions - Highlights From Almost Blue & Imperial Bedroom (1994) {Promo}


All thanks go to arizonadream

>>> Elvis Costello in my Blog <<<

DOWNLOAD: