Tags
Language
Tags

Elvis Costello - My Aim Is True (1977) {2007, Remastered, Deluxe Edition}

Posted By: popsakov
Elvis Costello - My Aim Is True (1977) {2007, Remastered, Deluxe Edition}

Elvis Costello - My Aim Is True (1977) {2007, Remastered, Deluxe Edition}
2CD | EAC Rip | WavPack (Img) + Cue + Log ~ 913 Mb | MP3 CBR320 ~ 362 Mb
Scans Included | RAR 5% Recovery
Pub Rock / New Wave / British Punk / Rock & Roll / Power Pop
HIP-O Records #B0009514-02

My Aim Is True is the debut album by English singer-songwriter Elvis Costello. In 1977 Rolling Stone magazine named the album one of the best of the year. In 2003, the TV network VH1 named My Aim Is True the 80th greatest album of all time. In 2003, the album was ranked number 168 on Rolling Stone magazine's list of The 500 Greatest Albums of All Time. In 2004, it was ranked 37 of the top 100 albums of the 1970s by Pitchfork which reported the album to be "held by many as the most impressive debut in pop music history." In 2007, the album was inducted into the Grammy Hall of Fame.

Given that Universal's 2007 deluxe edition is the third expanded reissue of My Aim Is True, it is a reasonable question to ask whether hardcore fans need to bother with buying the album for a fourth time (or a fifth or sixth, depending how many LPs wore out before CDs) – to ask whether this double-disc reissue offers anything that the previous double-disc reissue on Rhino, released just six years before, does not, since that Rhino edition had only four cuts on it that weren't on the first expanded edition from Demon/Rykodisc in 1993, suggesting that there might not be much in the vaults that Elvis Costello wanted to release. As it turns out, Universal's 48-track deluxe edition of Elvis' 1977 debut has a whopping 29 unreleased tracks, most of them coming in the form of a concert at the Nashville Rooms on August 7, 1977, the entirety of which is on the second disc, along with five songs from the soundcheck, four of which they didn't play in the main gig. The other unreleased cuts are demos recorded at Pathway Studios before the debut album was cut. There are eight of these, all but one previously unreleased ("Welcome to the Working Week" surfaced on the Rock and Roll Music comp released earlier in 2007), among them are four previously unheard tunes: "Blue Minute," "Call on Me," "I Don't Want to Go Home," and "I Hear a Melody." None of these are forgotten classics, but none of them are bad – they're solid, tuneful, clever pub rock that share the same sound and sensibility of the 13 songs that made the finished album, but they're just not as good. They are certainly worthwhile additions to this expanded edition, as is the excellent live second disc, an energetic, thoroughly entertaining show that contains most of My Aim Is True and a good chunk of tunes that would show up on This Year's Model the following year. Appropriately, the concert serves as a bridge between the two albums: it's rougher and rowdier than the debut, but it's not nearly as frenzied, frazzled, and furious as Model – the sensibility is much closer to the pumped-up pub rock of My Aim Is True, only without the polish it received in the studio. So there's plenty of new music here, all of it good-to-excellent – so what is there to complain about? Mainly, that there are nine songs orphaned on the Rhino expanded edition, including all the "Honky Tonk" demos Elvis recorded in his bedroom that were later aired on Charlie Gillett's BBC show Honky Tonk. Among these are four songs not available elsewhere – "Cheap Reward," "Jump Up," "Wave a White Flag," "Poison Moon" – and their absence is regrettable, but they're not as lamented as the lack of the B-side "I Just Don't Know What to Do with Myself," the alternate "Dallas Version" of "Less Than Zero," and the Flip City demo "Imagination (Is a Powerful Deceiver)," which is among the best of his early material not cut for My Aim Is True. Although these two discs are packed – and they do include the early alternate versions of "No Action" and "Living in Paradise," plus "Radio Sweetheart" and "Stranger in the House," two flat-out classics that weren't on the debut because they were too country – it's hard not to be a bit irked that this deluxe edition falls just short of being definitive because of their absence (and the absence of any new or recycled liner notes, for that matter; maybe Costello is tired of writing liners, or saving all future reminiscences for a memoir), because that means any hardcore fan will need to keep two double-disc versions of My Aim Is True in their collection. And let's face it, hardcore fans are the audience that would buy a double-disc reissue of an album, whether it's once or twice. And this 2007 deluxe edition has enough great unheard music to make it worth the investment for hardcore fans, since there is no question at all that they will enjoy this second disc immensely, but whether they enjoy it enough to purchase the album all over again? That's all a matter of personal taste, really, or perhaps personal finances.

~ Stephen Thomas Erlewine, All Music
Elvis Costello - My Aim Is True (1977) {2007, Remastered, Deluxe Edition}


***************

Elvis Costello - My Aim Is True (1977) {2007, Remastered, Deluxe Edition}

Elvis Costello - My Aim Is True (1977) {2007, Remastered, Deluxe Edition}

Track List CD1:

My Aim Is True
01. Welcome To The Working Week [1:23]
02. Miracle Man [3:33]
03. No Dancing [2:43]
04. Blame It On Cain [2:54]
05. Alison [3:26]
06. Sneaky Feelings [2:12]
07. (The Angels Wanna Wear My) Red Shoes [2:50]
08. Less Than Zero [3:19]
09. Mystery Dance [1:37]
10. Pay It Back [2:36]
11. I'm Not Angry [3:02]
12. Waiting For The End Of The World [3:27]
13. Watching The Detectives [3:50]
The Out-Takes
14. No Action (Early Version) [2:16]
15. Living In Paradise (Early Version) [3:00]
16. Radio Sweetheart (Outtake) [2:32]
17. Stranger In The House (Outtake) [3:05]
The Pathway Studios Demos
18. Welcome To The Working Week (Pathway Studios Demo) [1:28]
19. Blue Minute (Pathway Studios Demo) [1:36]
20. Miracle Man (Pathway Studios Demo) [2:22]
21. Waiting For The End Of The World (Pathway Studios Demo) [2:28]
22. Call On Me (Pathway Studios Demo) [1:58]
23. (The Angels Wanna Wear My) Red Shoes (Pathway Studios Demo) [2:06]
24. I Don't Want To Go Home (Pathway Studios Demo) [1:45]
25. I Hear A Melody (Pathway Studios Demo) [2:11]

Exact Audio Copy V0.99 prebeta 3 from 28. July 2007

EAC extraction logfile from 26. December 2007, 16:02

Elvis Costello / My Aim Is True (Deluxe Edition) - Disc 1 of 2

Used drive : _NEC DVD_RW ND-3500AG Adapter: 0 ID: 2

Read mode : Secure
Utilize accurate stream : Yes
Defeat audio cache : Yes
Make use of C2 pointers : No

Read offset correction : 48
Overread into Lead-In and Lead-Out : No
Fill up missing offset samples with silence : Yes
Delete leading and trailing silent blocks : No
Null samples used in CRC calculations : Yes
Used interface : Installed external ASPI interface

Used output format : Internal WAV Routines
Sample format : 44.100 Hz; 16 Bit; Stereo


TOC of the extracted CD

Track | Start | Length | Start sector | End sector
––––––––––––––––––––––––––––-
1 | 0:00.00 | 1:23.04 | 0 | 6228
2 | 1:23.04 | 3:33.04 | 6229 | 22207
3 | 4:56.08 | 2:43.06 | 22208 | 34438
4 | 7:39.14 | 2:53.47 | 34439 | 47460
5 | 10:32.61 | 3:25.41 | 47461 | 62876
6 | 13:58.27 | 2:12.32 | 62877 | 72808
7 | 16:10.59 | 2:49.51 | 72809 | 85534
8 | 19:00.35 | 3:18.68 | 85535 | 100452
9 | 22:19.28 | 1:37.31 | 100453 | 107758
10 | 23:56.59 | 2:36.36 | 107759 | 119494
11 | 26:33.20 | 3:02.30 | 119495 | 133174
12 | 29:35.50 | 3:26.45 | 133175 | 148669
13 | 33:02.20 | 3:49.42 | 148670 | 165886
14 | 36:51.62 | 2:15.41 | 165887 | 176052
15 | 39:07.28 | 3:00.17 | 176053 | 189569
16 | 42:07.45 | 2:31.41 | 189570 | 200935
17 | 44:39.11 | 3:04.64 | 200936 | 214799
18 | 47:44.00 | 1:27.61 | 214800 | 221385
19 | 49:11.61 | 1:36.34 | 221386 | 228619
20 | 50:48.20 | 2:22.16 | 228620 | 239285
21 | 53:10.36 | 2:27.71 | 239286 | 250381
22 | 55:38.32 | 1:58.16 | 250382 | 259247
23 | 57:36.48 | 2:06.06 | 259248 | 268703
24 | 59:42.54 | 1:45.36 | 268704 | 276614
25 | 61:28.15 | 2:10.66 | 276615 | 286430


Range status and errors

Selected range

Filename I:\Elvis Costello\Elvis Deluxe\Elvis Costello - My Aim Is True (Deluxe Edition) - Disc 1 of 2.wav

Peak level 99.8 %
Range quality 99.9 %
Copy CRC 8A0CB7E3
Copy OK

No errors occurred


AccurateRip summary

Track 1 accurately ripped (confidence 1) [ACE752CA]
Track 2 accurately ripped (confidence 1) [22C8E52C]
Track 3 accurately ripped (confidence 1) [B7FBBE67]
Track 4 accurately ripped (confidence 1) [32127E64]
Track 5 accurately ripped (confidence 1) [0A19A071]
Track 6 accurately ripped (confidence 1) [20DE2ACD]
Track 7 accurately ripped (confidence 1) [A37E303F]
Track 8 accurately ripped (confidence 1) [E162FD1C]
Track 9 accurately ripped (confidence 1) [AF19675F]
Track 10 accurately ripped (confidence 1) [16CAF23D]
Track 11 accurately ripped (confidence 1) [C85248F1]
Track 12 accurately ripped (confidence 1) [793450ED]
Track 13 accurately ripped (confidence 1) [4B6D9973]
Track 14 accurately ripped (confidence 1) [33FDBC7D]
Track 15 accurately ripped (confidence 1) [52F70908]
Track 16 accurately ripped (confidence 1) [8D4D928F]
Track 17 accurately ripped (confidence 1) [7C9FDDEA]
Track 18 accurately ripped (confidence 1) [85388F81]
Track 19 accurately ripped (confidence 1) [506F7C2D]
Track 20 accurately ripped (confidence 1) [BFEAD5F5]
Track 21 accurately ripped (confidence 1) [289478C7]
Track 22 accurately ripped (confidence 1) [ACECC24A]
Track 23 accurately ripped (confidence 1) [D739D69A]
Track 24 accurately ripped (confidence 1) [ED18EC2F]
Track 25 accurately ripped (confidence 1) [730B07B7]

All tracks accurately ripped

End of status report

[CUETools log; Date: 05.03.2017 21:47:52; Version: 2.1.5]
[CTDB TOCID: xrnHqIhTNdOMKz88Amt67xdy7bI-] found.
Track | CTDB Status
1 | (45/45) Accurately ripped
2 | (45/45) Accurately ripped
3 | (45/45) Accurately ripped
4 | (45/45) Accurately ripped
5 | (45/45) Accurately ripped
6 | (45/45) Accurately ripped
7 | (45/45) Accurately ripped
8 | (45/45) Accurately ripped
9 | (45/45) Accurately ripped
10 | (45/45) Accurately ripped
11 | (45/45) Accurately ripped
12 | (45/45) Accurately ripped
13 | (45/45) Accurately ripped
14 | (45/45) Accurately ripped
15 | (45/45) Accurately ripped
16 | (43/45) Accurately ripped
17 | (44/45) Accurately ripped
18 | (45/45) Accurately ripped
19 | (45/45) Accurately ripped
20 | (45/45) Accurately ripped
21 | (45/45) Accurately ripped
22 | (45/45) Accurately ripped
23 | (43/45) Accurately ripped
24 | (45/45) Accurately ripped
25 | (43/45) Accurately ripped
[AccurateRip ID: 003bccb4-042f6e19-7b0eeb19] found.
Track [ CRC | V2 ] Status
01 [ace752ca|e4c8c5eb] (44+40/84) Accurately ripped
02 [22c8e52c|fa3f4545] (43+40/83) Accurately ripped
03 [b7fbbe67|d48af221] (44+40/84) Accurately ripped
04 [32127e64|956e8dff] (44+40/84) Accurately ripped
05 [0a19a071|31aa06ad] (44+40/84) Accurately ripped
06 [20de2acd|d6ba2239] (44+40/84) Accurately ripped
07 [a37e303f|991720aa] (44+40/84) Accurately ripped
08 [e162fd1c|ec43a4cb] (44+40/84) Accurately ripped
09 [af19675f|c7f0dfc2] (44+40/84) Accurately ripped
10 [16caf23d|c9643e9c] (44+40/84) Accurately ripped
11 [c85248f1|78f96e6b] (44+40/84) Accurately ripped
12 [793450ed|e876f41e] (43+40/83) Accurately ripped
13 [4b6d9973|4d91cd3c] (43+40/83) Accurately ripped
14 [33fdbc7d|86586ab9] (45+40/85) Accurately ripped
15 [52f70908|c9d61c9c] (45+40/85) Accurately ripped
16 [8d4d928f|73fd4745] (45+40/85) Accurately ripped
17 [7c9fddea|3c4e483a] (45+40/85) Accurately ripped
18 [85388f81|9fa1a55c] (45+41/86) Accurately ripped
19 [506f7c2d|8eec5150] (45+41/86) Accurately ripped
20 [bfead5f5|fd881f31] (45+41/86) Accurately ripped
21 [289478c7|6fd827ed] (45+41/86) Accurately ripped
22 [acecc24a|160c1ab1] (45+41/86) Accurately ripped
23 [d739d69a|e7fdd58b] (45+41/86) Accurately ripped
24 [ed18ec2f|f63ab95d] (45+41/86) Accurately ripped
25 [730b07b7|c30933d8] (44+41/85) Accurately ripped

Track Peak [ CRC32 ] [W/O NULL] [ LOG ]
– 99,8 [8A0CB7E3] [C312704A] CRC32
01 99,8 [2F9A5B1F] [26DE899D]
02 96,8 [4B73AD24] [CB22B323]
03 94,1 [B461B437] [CAECECC6]
04 95,0 [25C33879] [279AC908]
05 97,2 [99924D34] [2809858D]
06 97,2 [74AD6B18] [FE3E1F3C]
07 98,8 [362DBA1C] [39E0CC91]
08 97,2 [E4E84F87] [4A736BF1]
09 97,2 [8D7D495A] [BA24CE70]
10 95,0 [DFD8528F] [DD548DB8]
11 97,2 [7936E643] [B70D1BF6]
12 97,2 [00E47497] [62E1CA32]
13 97,2 [32F32B77] [35FE192D]
14 86,6 [5860C1C9] [EE30716D]
15 85,5 [A9B8598C] [F73C1ADD]
16 79,8 [2EF55E40] [1E048231]
17 74,1 [57FED296] [47C510F5]
18 83,3 [FC18E8A8] [4CD23E24]
19 85,0 [5E7D55CA] [29BA9BEE]
20 83,8 [C505F635] [B9F83156]
21 85,1 [53F7F9D0] [22CA5575]
22 84,1 [A4646C2F] [AECC2228]
23 83,5 [DB5A7704] [825428E7]
24 85,4 [A78C5045] [F09EC240]
25 88,3 [EC6DA70F] [C1674D67]

Elvis Costello - My Aim Is True (1977) {2007, Remastered, Deluxe Edition}

Elvis Costello - My Aim Is True (1977) {2007, Remastered, Deluxe Edition}

Track List CD2:

Live At The Nashville Rooms, August 7, 1977
01. Introduction By Dave Robinson (Live at the Nashville Rooms 08-07-1977) [0:26]
02. Welcome To The Working Week (Live at the Nashville Rooms 08-07-1977) [1:19]
03. Blame It On Cain (Live at the Nashville Rooms 08-07-1977) [2:53]
04. No Dancing (Live at the Nashville Rooms 08-07-1977) [2:58]
05. Waiting For The End Of The World (Live at the Nashville Rooms 08-07-1977) [3:54]
06. Night Rally (Live at the Nashville Rooms 08-07-1977) [2:35]
07. Hoover Factory (Live at the Nashville Rooms 08-07-1977) [2:02]
08. No Action (Live at the Nashville Rooms 08-07-1977) [2:32]
09. (I Don't Want To Go To) Chelsea (Live at the Nashville Rooms 08-07-1977) [3:03]
10. Miracle Man (Live at the Nashville Rooms 08-07-1977) [3:53]
11. The Beat (Live at the Nashville Rooms 08-07-1977) [3:46]
12. Less Than Zero (Live at the Nashville Rooms 08-07-1977) [3:28]
13. (The Angels Wanna Wear My) Red Shoes (Live at the Nashville Rooms 08-07-1977) [2:58]
14. Lipstick Vogue (Live at the Nashville Rooms 08-07-1977) [4:00]
15. Watching The Detectives (Live at the Nashville Rooms 08-07-1977) [4:24]
16. Lip Service (Live at the Nashville Rooms 08-07-1977) [4:32]
17. Mystery Dance (Live at the Nashville Rooms 08-07-1977) [3:34]
18. Alison (Live at the Nashville Rooms 08-07-1977) [3:35]
Live At The Nashville Rooms, Soundcheck, August 7, 1977
19. Pay It Back (Nashville Rooms Soundcheck 08-07-1977) [2:24]
20. Radio Sweetheart (Nashville Rooms Soundcheck 08-07-1977) [2:57]
21. Sneaky Feelings (Nashville Rooms Soundcheck 08-07-1977) [2:17]
22. Crawling In The USA (Nashville Rooms Soundcheck 08-07-1977) [3:00]
23. Alison (Nashville Rooms Soundcheck 08-07-1977) [3:26]

Exact Audio Copy V0.99 prebeta 3 from 28. July 2007

EAC extraction logfile from 26. December 2007, 16:14

Elvis Costello & The Attractions / My Aim Is True (Deluxe Edition) - Disc 2 of 2

Used drive : _NEC DVD_RW ND-3500AG Adapter: 0 ID: 2

Read mode : Secure
Utilize accurate stream : Yes
Defeat audio cache : Yes
Make use of C2 pointers : No

Read offset correction : 48
Overread into Lead-In and Lead-Out : No
Fill up missing offset samples with silence : Yes
Delete leading and trailing silent blocks : No
Null samples used in CRC calculations : Yes
Used interface : Installed external ASPI interface

Used output format : Internal WAV Routines
Sample format : 44.100 Hz; 16 Bit; Stereo


TOC of the extracted CD

Track | Start | Length | Start sector | End sector
––––––––––––––––––––––––––––-
1 | 0:00.00 | 0:26.08 | 0 | 1957
2 | 0:26.08 | 1:18.72 | 1958 | 7879
3 | 1:45.05 | 2:53.17 | 7880 | 20871
4 | 4:38.22 | 2:57.67 | 20872 | 34213
5 | 7:36.14 | 3:54.19 | 34214 | 51782
6 | 11:30.33 | 2:34.55 | 51783 | 63387
7 | 14:05.13 | 2:01.43 | 63388 | 72505
8 | 16:06.56 | 2:31.57 | 72506 | 83887
9 | 18:38.38 | 3:03.09 | 83888 | 97621
10 | 21:41.47 | 3:53.13 | 97622 | 115109
11 | 25:34.60 | 3:46.36 | 115110 | 132095
12 | 29:21.21 | 3:27.47 | 132096 | 147667
13 | 32:48.68 | 2:57.66 | 147668 | 161008
14 | 35:46.59 | 3:59.45 | 161009 | 178978
15 | 39:46.29 | 4:23.63 | 178979 | 198766
16 | 44:10.17 | 4:31.69 | 198767 | 219160
17 | 48:42.11 | 3:34.22 | 219161 | 235232
18 | 52:16.33 | 3:34.72 | 235233 | 251354
19 | 55:51.30 | 2:23.44 | 251355 | 262123
20 | 58:14.74 | 2:56.67 | 262124 | 275390
21 | 61:11.66 | 2:16.50 | 275391 | 285640
22 | 63:28.41 | 2:59.73 | 285641 | 299138
23 | 66:28.39 | 3:25.42 | 299139 | 314555


Range status and errors

Selected range

Filename I:\Elvis Costello\Elvis Deluxe\Elvis Costello - My Aim Is True (Deluxe Edition) - Disc 2 of 2.wav

Peak level 100.0 %
Range quality 100.0 %
Copy CRC 0ECD70C1
Copy OK

No errors occurred


AccurateRip summary

Track 1 accurately ripped (confidence 1) [69ABD4C5]
Track 2 accurately ripped (confidence 1) [E4421EA7]
Track 3 accurately ripped (confidence 1) [CA5DEB62]
Track 4 accurately ripped (confidence 1) [56A9B432]
Track 5 accurately ripped (confidence 1) [21FC1585]
Track 6 accurately ripped (confidence 1) [DE1DE86E]
Track 7 accurately ripped (confidence 1) [E1C3CED7]
Track 8 accurately ripped (confidence 1) [F763391D]
Track 9 accurately ripped (confidence 1) [0AB35BCB]
Track 10 accurately ripped (confidence 1) [059316BC]
Track 11 accurately ripped (confidence 1) [F7856ACD]
Track 12 accurately ripped (confidence 1) [3E2E0D3F]
Track 13 accurately ripped (confidence 1) [603E3311]
Track 14 accurately ripped (confidence 1) [081F82BF]
Track 15 accurately ripped (confidence 1) [73603D2A]
Track 16 accurately ripped (confidence 1) [F5C40F19]
Track 17 accurately ripped (confidence 1) [DAD30F60]
Track 18 accurately ripped (confidence 1) [2904045A]
Track 19 accurately ripped (confidence 1) [B1A36694]
Track 20 accurately ripped (confidence 1) [77515976]
Track 21 accurately ripped (confidence 1) [341147A4]
Track 22 accurately ripped (confidence 1) [1ED5D752]
Track 23 accurately ripped (confidence 1) [B2FCB0BF]

All tracks accurately ripped

End of status report

[CUETools log; Date: 05.03.2017 21:49:48; Version: 2.1.5]
[CTDB TOCID: ZnDfFIcUCiJgF9y6DyVyH9KIteA-] found.
Track | CTDB Status
1 | (39/39) Accurately ripped
2 | (39/39) Accurately ripped
3 | (39/39) Accurately ripped
4 | (39/39) Accurately ripped
5 | (39/39) Accurately ripped
6 | (39/39) Accurately ripped
7 | (39/39) Accurately ripped
8 | (39/39) Accurately ripped
9 | (39/39) Accurately ripped
10 | (39/39) Accurately ripped
11 | (39/39) Accurately ripped
12 | (39/39) Accurately ripped
13 | (39/39) Accurately ripped
14 | (39/39) Accurately ripped
15 | (39/39) Accurately ripped
16 | (39/39) Accurately ripped
17 | (38/39) Accurately ripped
18 | (39/39) Accurately ripped
19 | (39/39) Accurately ripped
20 | (39/39) Accurately ripped
21 | (39/39) Accurately ripped
22 | (38/39) Accurately ripped
23 | (38/39) Accurately ripped
[AccurateRip ID: 00359044-039e67e0-52106217] found.
Track [ CRC | V2 ] Status
01 [69abd4c5|0a9c5248] (43+38/81) Accurately ripped
02 [e4421ea7|382eb133] (43+38/81) Accurately ripped
03 [ca5deb62|46dc70e8] (43+38/81) Accurately ripped
04 [56a9b432|75dedb6e] (43+38/81) Accurately ripped
05 [21fc1585|8608cfbf] (43+38/81) Accurately ripped
06 [de1de86e|6424dd76] (43+38/81) Accurately ripped
07 [e1c3ced7|dfb637ed] (43+38/81) Accurately ripped
08 [f763391d|163519b2] (43+38/81) Accurately ripped
09 [0ab35bcb|2f1485bf] (43+38/81) Accurately ripped
10 [059316bc|2c218f7d] (43+38/81) Accurately ripped
11 [f7856acd|d6be208b] (43+38/81) Accurately ripped
12 [3e2e0d3f|6c6c2669] (43+37/80) Accurately ripped
13 [603e3311|bbb4d496] (43+37/80) Accurately ripped
14 [081f82bf|f8d09a04] (43+37/80) Accurately ripped
15 [73603d2a|e26ecbf6] (43+38/81) Accurately ripped
16 [f5c40f19|7a82ca25] (43+38/81) Accurately ripped
17 [dad30f60|ae6b9d35] (42+38/80) Accurately ripped
18 [2904045a|e7c44892] (43+38/81) Accurately ripped
19 [b1a36694|e867b380] (43+38/81) Accurately ripped
20 [77515976|8463751a] (42+38/80) Accurately ripped
21 [341147a4|a69abd88] (42+39/81) Accurately ripped
22 [1ed5d752|9ff9c9f8] (42+34/76) Accurately ripped
23 [b2fcb0bf|bd9eeda2] (41+38/79) Accurately ripped

Track Peak [ CRC32 ] [W/O NULL] [ LOG ]
– 100,0 [0ECD70C1] [0610C3DF] CRC32
01 45,1 [77DC347E] [8615152C]
02 97,7 [2B1EA161] [65354797]
03 100,0 [EF6ACF56] [55C754D1]
04 100,0 [BF8E5AA0] [30029E7D]
05 100,0 [8979F67E] [890B7B05]
06 100,0 [646A12EC] [DF7CC621]
07 70,4 [B26B681B] [461DEC34]
08 100,0 [34CA68E7] [12F5E38A]
09 100,0 [C8356411] [9EBF9423]
10 100,0 [6B628620] [9E3419C5]
11 100,0 [CDFF82CF] [A77600CC]
12 100,0 [07A9B879] [916A1B2B]
13 100,0 [B956C947] [6D0C3513]
14 100,0 [952A9763] [1352A0A6]
15 100,0 [DF8C8CDE] [D70D8F2C]
16 100,0 [55C1C8E8] [78B316D8]
17 100,0 [93B33BCB] [9063303C]
18 100,0 [D28B24F5] [885C0B04]
19 97,7 [8A7BE0D4] [7A9B9175]
20 97,7 [33685682] [E79A7753]
21 97,7 [0F5F63CE] [3163FD7C]
22 97,7 [FC07B799] [980E268F]
23 97,7 [CBC88C7A] [46674E29]

Elvis Costello - My Aim Is True (1977) {2007, Remastered, Deluxe Edition}


All thanks go to the original ripper(s) …

>>> Elvis Costello in my Blog <<<

Download: