Subcategories

Elvis Presley - The Complete U.S. EP Collection 1955-1962 (2019) {4CD Box Set}

Posted By: popsakov
Elvis Presley - The Complete U.S. EP Collection 1955-1962 (2019) {4CD Box Set}

Elvis Presley - The Complete U.S. EP Collection 1955-1962 (2019) {4CD Box Set}
EAC Rip | FLAC (Img) + Cue + Log ~ 1,47 Gb | MP3 CBR320 ~ 615 Mb
Full Scans ~ 93 Mb | 04:15:10 | RAR 5% Recovery
Rock & Roll, Rockabilly, Pop | Audio Vaults / Universal Audio #AV201813

4CD set includes every track from Elvis' US EPs from 1955 to 1962, including "Baby Let's Play House" from the C & W Jukebox Promotion Kit, and the "Elvis Sails" press interviews.
***************

Track List CD1:

From COUNTRY & WESTERN JUKEBOX PROMOTION KIT (SPD-15), released December, 1955
01. Baby Let's Play House [2.15]
ELVIS PRESLEY (EPA-747), released March 23, 1956
02. Blue Suede Shoes [1.58]
03. Tutti Frutti [1.58]
04. I Got A Woman [2.23]
05. Just Because [2.32]
ELVIS PRESLEY (EPB-1254 ), released March 23, 1956
06. I'm Counting On You [2.22]
07. One Sided Love Affair [2.09]
08. Tryin' To Get To You [2.31]
09. I'm Gonna Sit Right Down And Cry (Over You) [1.58]
10. I'll Never Let You Go (Little Darlin') [2.22]
HEARTBREAK HOTEL (EPA-821), released April 20, 1956
11. Heartbreak Hotel [2.06]
12. I Was the One [2.29]
13. Money Honey [2.32]
14. I Forgot to Remember to Forget [2.28]
ELVIS PRESLEY (EPA-830), released June 8, 1956
15. Shake Rattle and Roll [2.29]
16. I Love You Because [2.41]
17. Blue Moon [2.38]
18. Lawdy Miss Clawdy [2.08]
THE REAL ELVIS (EPA-940), released August 17, 1956
19. Don't be Cruel [2.02]
20. I Want You, I Need You, I Love You [2.37]
21. Hound Dog [2.15]
22. My Baby Left Me [2.09]
ANYWAY YOU WANT ME (EPA-965), released September 21, 1956
23. Anyway You Want Me (That's How I Will Be) [2.13]
24. I'm Left, You're Right, She's Gone [2.36]
25. I Don't Care if the Sun Don't Shine [2.28]
26. Mystery Train [2.24]

Total Time: 01:01:05

Exact Audio Copy V1.3 from 2. September 2016

EAC extraction logfile from 6. November 2019, 20:12

Elvis Presley / U.S. EP Collection 1955-1962 [Disc 1]

Used drive : ATAPI iHAS122 C Adapter: 1 ID: 0

Read mode : Secure
Utilize accurate stream : Yes
Defeat audio cache : Yes
Make use of C2 pointers : No

Read offset correction : 6
Overread into Lead-In and Lead-Out : No
Fill up missing offset samples with silence : Yes
Delete leading and trailing silent blocks : No
Null samples used in CRC calculations : Yes
Used interface : Native Win32 interface for Win NT & 2000

Used output format : Internal WAV Routines
Sample format : 44.100 Hz; 16 Bit; Stereo


TOC of the extracted CD

Track | Start | Length | Start sector | End sector
––––––––––––––––––––––––––––-
1 | 0:00.00 | 2:16.34 | 0 | 10233
2 | 2:16.34 | 1:59.03 | 10234 | 19161
3 | 4:15.37 | 1:57.33 | 19162 | 27969
4 | 6:12.70 | 2:23.51 | 27970 | 38745
5 | 8:36.46 | 2:32.56 | 38746 | 50201
6 | 11:09.27 | 2:22.69 | 50202 | 60920
7 | 13:32.21 | 2:09.65 | 60921 | 70660
8 | 15:42.11 | 2:32.05 | 70661 | 82065
9 | 18:14.16 | 1:59.08 | 82066 | 90998
10 | 20:13.24 | 2:22.54 | 90999 | 101702
11 | 22:36.03 | 2:07.01 | 101703 | 111228
12 | 24:43.04 | 2:29.66 | 111229 | 122469
13 | 27:12.70 | 2:32.69 | 122470 | 133938
14 | 29:45.64 | 2:29.31 | 133939 | 145144
15 | 32:15.20 | 2:29.66 | 145145 | 156385
16 | 34:45.11 | 2:42.06 | 156386 | 168541
17 | 37:27.17 | 2:38.62 | 168542 | 180453
18 | 40:06.04 | 2:08.47 | 180454 | 190100
19 | 42:14.51 | 2:02.53 | 190101 | 199303
20 | 44:17.29 | 2:38.04 | 199304 | 211157
21 | 46:55.33 | 2:15.40 | 211158 | 221322
22 | 49:10.73 | 2:09.55 | 221323 | 231052
23 | 51:20.53 | 2:14.28 | 231053 | 241130
24 | 53:35.06 | 2:37.36 | 241131 | 252941
25 | 56:12.42 | 2:28.53 | 252942 | 264094
26 | 58:41.20 | 2:24.27 | 264095 | 274921


Range status and errors

Selected range

Filename C:\Users\44740\Desktop\Elvis Presley - U.S. EP Collection 1955-1962 [Disc 1].wav

Peak level 96.6 %
Extraction speed 3.1 X
Range quality 99.9 %
Test CRC DC3AC4FA
Copy CRC DC3AC4FA
Copy OK

No errors occurred


AccurateRip summary

Track 1 not present in database
Track 2 not present in database
Track 3 not present in database
Track 4 not present in database
Track 5 not present in database
Track 6 not present in database
Track 7 not present in database
Track 8 not present in database
Track 9 not present in database
Track 10 not present in database
Track 11 not present in database
Track 12 not present in database
Track 13 not present in database
Track 14 not present in database
Track 15 not present in database
Track 16 not present in database
Track 17 not present in database
Track 18 not present in database
Track 19 not present in database
Track 20 not present in database
Track 21 not present in database
Track 22 not present in database
Track 23 not present in database
Track 24 not present in database
Track 25 not present in database
Track 26 not present in database

None of the tracks are present in the AccurateRip database

End of status report

–– CUETools DB Plugin V2.1.6

[CTDB TOCID: CFQp2CKP1PSW7VyXeHKlFx.3ixw-] disk not present in database
Submit result: CFQp2CKP1PSW7VyXeHKlFx.3ixw- has been uploaded


==== Log checksum 85898750F7E48C2697AA413856EEA2690085D67DE0752E21B62EC958BE68D547 ====

Track List CD2:

ELVIS VOLUME ONE (EPA-992), relesed October 19, 1956
01. Rip it Up [1.53]
02. Love Me [2.42]
03. When My Blue Moon Turns to Gold Again [2.20]
04. Paralyzed [2.22]
LOVE ME TENDER (EPA-4006), released November 21, 1956
05. Love Me Tender [2.44]
06. Let Me [2.08]
07. Poor Boy [2.13]
08. We're Gonna Move [2.28]
ELVIS VOLUME TWO (EPA-993), released November 1956
09. So Glad You're Mine [2.19]
10. Old Shep [4.08]
11. Ready Teddy [1.54]
12. Anyplace is Paradise [2.24]
STRICTLY ELVIS (EPA-994), released January 25, 1957
13. Long Tall Sally [1.50]
14. First in Line [3.20]
15. How Do You Think I Feel [2.08]
16. How's the World Treating You [2.22]
PEACE IN THE VALLEY (EPA-4054), released April 1957
17. There'll be Peace in the Valley (For Me) [3.21]
18. It is no Secret (What God Can do) [3.55]
19. I Believe [2.04]
20. Take my Hand Precious Lord [3.17]
JUST FOR YOU (EPA-4041), released August 21, 1957
21. I Need You So [2.39]
22. Have I Told You Lately That I Love You [2.31]
24. Is It So Strange [2.28]
LOVING YOU VOLUME ONE (EPA 1-1515), rtleased July 19, 1957
25. Loving [2:14]
26. Party [1:27]
27. (Let Me Be Your) Teddy Bear [1:46]
28. True Love [2:07]

Total Time: 01:10:10

Exact Audio Copy V1.3 from 2. September 2016

EAC extraction logfile from 6. November 2019, 16:05

Elvis Presley / U.S. EP Collection 1955-1962 [Disc 2]

Used drive : ATAPI iHAS122 C Adapter: 1 ID: 0

Read mode : Secure
Utilize accurate stream : Yes
Defeat audio cache : Yes
Make use of C2 pointers : No

Read offset correction : 6
Overread into Lead-In and Lead-Out : No
Fill up missing offset samples with silence : Yes
Delete leading and trailing silent blocks : No
Null samples used in CRC calculations : Yes
Used interface : Native Win32 interface for Win NT & 2000

Used output format : Internal WAV Routines
Sample format : 44.100 Hz; 16 Bit; Stereo


TOC of the extracted CD

Track | Start | Length | Start sector | End sector
––––––––––––––––––––––––––––-
1 | 0:00.00 | 1:53.58 | 0 | 8532
2 | 1:53.58 | 2:42.55 | 8533 | 20737
3 | 4:36.38 | 2:20.48 | 20738 | 31285
4 | 6:57.11 | 2:22.38 | 31286 | 41973
5 | 9:19.49 | 2:45.36 | 41974 | 54384
6 | 12:05.10 | 2:08.41 | 54385 | 64025
7 | 14:13.51 | 2:13.62 | 64026 | 74062
8 | 16:27.38 | 2:29.12 | 74063 | 85249
9 | 18:56.50 | 2:19.51 | 85250 | 95725
10 | 21:16.26 | 4:09.34 | 95726 | 114434
11 | 25:25.60 | 1:55.37 | 114435 | 123096
12 | 27:21.22 | 2:25.25 | 123097 | 133996
13 | 29:46.47 | 1:51.31 | 133997 | 142352
14 | 31:38.03 | 3:20.38 | 142353 | 157390
15 | 34:58.41 | 2:09.34 | 157391 | 167099
16 | 37:08.00 | 2:22.67 | 167100 | 177816
17 | 39:30.67 | 3:21.67 | 177817 | 192958
18 | 42:52.59 | 3:56.34 | 192959 | 210692
19 | 46:49.18 | 2:04.55 | 210693 | 220047
20 | 48:53.73 | 3:17.53 | 220048 | 234875
21 | 52:11.51 | 2:40.18 | 234876 | 246893
22 | 54:51.69 | 2:31.49 | 246894 | 258267
23 | 57:23.43 | 2:39.72 | 258268 | 270264
24 | 60:03.40 | 2:29.17 | 270265 | 281456
25 | 62:32.57 | 2:14.49 | 281457 | 291555
26 | 64:47.31 | 1:28.14 | 291556 | 298169
27 | 66:15.45 | 1:47.19 | 298170 | 306213
28 | 68:02.64 | 2:07.22 | 306214 | 315760


Range status and errors

Selected range

Filename C:\Users\44740\Desktop\Elvis Presley - U.S. EP Collection 1955-1962 [Disc 2].wav

Peak level 96.6 %
Extraction speed 8.8 X
Range quality 100.0 %
Test CRC 8529679E
Copy CRC 8529679E
Copy OK

No errors occurred


AccurateRip summary

Track 1 not present in database
Track 2 not present in database
Track 3 not present in database
Track 4 not present in database
Track 5 not present in database
Track 6 not present in database
Track 7 not present in database
Track 8 not present in database
Track 9 not present in database
Track 10 not present in database
Track 11 not present in database
Track 12 not present in database
Track 13 not present in database
Track 14 not present in database
Track 15 not present in database
Track 16 not present in database
Track 17 not present in database
Track 18 not present in database
Track 19 not present in database
Track 20 not present in database
Track 21 not present in database
Track 22 not present in database
Track 23 not present in database
Track 24 not present in database
Track 25 not present in database
Track 26 not present in database
Track 27 not present in database
Track 28 not present in database

None of the tracks are present in the AccurateRip database

End of status report

–– CUETools DB Plugin V2.1.6

[CTDB TOCID: liTqKMaiIjcMiV3gBiGufBkbzE4-] disk not present in database
Submit result: liTqKMaiIjcMiV3gBiGufBkbzE4- has been uploaded


==== Log checksum 80DD17A1DBFF256339955F7D4C05EAF181EB2C0BC71284185E553D48806133CD ====

Track List CD3:

LOVING YOU VOLUME TWO (EPA 2-1515), released June 26, 1957
01. Lonesome Cowboy [3.01]
02. Hot Dog [1.11]
03. Mean Woman Blues [2.11]
04. Got A Lot o' Lovin' To Do [2.31]
JAILHOUSE ROCK (EPA-4114), released October 30, 1957
05. Jailhouse Rock [2.25]
06. Young And Beautiful [2.03]
07. I Want To Be Free [2.13]
08. Don't Leave Me Now (Version 2) [2.05]
09. (You're So Square) Baby I Don't Care [1.52]
ELVIS SINGS CHRISTMAS SONGS ( EPA-4108), released October 16, 1957
10. Santa Bring My Baby Back (To Me) [1.52]
11. Blue Christmas [2.07]
12. Santa Claus Is Back In Town [2.22]
13. I'll Be Home For Christmas [1.52]
KING CREOLE VOLUME ONE (EPA-4319), released July 1, 1958
14. King Creole [2.06]
15. New Orleans [1.58]
16. As Long As I Have You [1.48]
17. Lover Doll [2.09]
KING CREOLE VOLUME TWO (EPA-4321), released July 12, 1958
18. Trouble [2.16]
19. Young Dreams [2.21]
20. Crawfish [1.48]
21. Dixieland Rock [1.46]
CHRISTMAS WITH ELVIS (EPA-4340), released October 13, 1959
22. White Christmas [2.23]
23. Here Comes Santa Claus (Right Down Santa Claus Lane) [1.54]
24. Oh Little Town Of Bethlehem [2.35]
25. Silent Night [2.22]

Total Time: 00:53:34

Exact Audio Copy V1.3 from 2. September 2016

EAC extraction logfile from 6. November 2019, 20:53

Elvis Presley / U.S. EP Collection 1955-1962 [Disc 3]

Used drive : ATAPI iHAS122 C Adapter: 1 ID: 0

Read mode : Secure
Utilize accurate stream : Yes
Defeat audio cache : Yes
Make use of C2 pointers : No

Read offset correction : 6
Overread into Lead-In and Lead-Out : No
Fill up missing offset samples with silence : Yes
Delete leading and trailing silent blocks : No
Null samples used in CRC calculations : Yes
Used interface : Native Win32 interface for Win NT & 2000

Used output format : Internal WAV Routines
Sample format : 44.100 Hz; 16 Bit; Stereo


TOC of the extracted CD

Track | Start | Length | Start sector | End sector
––––––––––––––––––––––––––––-
1 | 0:00.00 | 3:01.63 | 0 | 13637
2 | 3:01.63 | 1:11.49 | 13638 | 19011
3 | 4:13.37 | 2:11.42 | 19012 | 28878
4 | 6:25.04 | 2:32.30 | 28879 | 40308
5 | 8:57.34 | 2:25.60 | 40309 | 51243
6 | 11:23.19 | 2:04.13 | 51244 | 60556
7 | 13:27.32 | 2:14.19 | 60557 | 70625
8 | 15:41.51 | 2:05.63 | 70626 | 80063
9 | 17:47.39 | 1:52.49 | 80064 | 88512
10 | 19:40.13 | 1:52.39 | 88513 | 96951
11 | 21:32.52 | 2:07.46 | 96952 | 106522
12 | 23:40.23 | 2:23.05 | 106523 | 117252
13 | 26:03.28 | 1:53.37 | 117253 | 125764
14 | 27:56.65 | 2:07.03 | 125765 | 135292
15 | 30:03.68 | 1:59.28 | 135293 | 144245
16 | 32:03.21 | 1:49.15 | 144246 | 152435
17 | 33:52.36 | 2:09.74 | 152436 | 162184
18 | 36:02.35 | 2:17.22 | 162185 | 172481
19 | 38:19.57 | 2:22.02 | 172482 | 183133
20 | 40:41.59 | 1:48.70 | 183134 | 191303
21 | 42:30.54 | 1:46.51 | 191304 | 199304
22 | 44:17.30 | 2:24.36 | 199305 | 210140
23 | 46:41.66 | 1:54.57 | 210141 | 218747
24 | 48:36.48 | 2:35.48 | 218748 | 230420
25 | 51:12.21 | 2:22.15 | 230421 | 241085


Range status and errors

Selected range

Filename C:\Users\44740\Desktop\Elvis Presley - U.S. EP Collection 1955-1962 [Disc 3].wav

Peak level 92.0 %
Extraction speed 8.2 X
Range quality 100.0 %
Test CRC 30FD396B
Copy CRC 30FD396B
Copy OK

No errors occurred


AccurateRip summary

Track 1 not present in database
Track 2 not present in database
Track 3 not present in database
Track 4 not present in database
Track 5 not present in database
Track 6 not present in database
Track 7 not present in database
Track 8 not present in database
Track 9 not present in database
Track 10 not present in database
Track 11 not present in database
Track 12 not present in database
Track 13 not present in database
Track 14 not present in database
Track 15 not present in database
Track 16 not present in database
Track 17 not present in database
Track 18 not present in database
Track 19 not present in database
Track 20 not present in database
Track 21 not present in database
Track 22 not present in database
Track 23 not present in database
Track 24 not present in database
Track 25 not present in database

None of the tracks are present in the AccurateRip database

End of status report

–– CUETools DB Plugin V2.1.6

[CTDB TOCID: 5oYeJHYh.GD6IZAAPq23hEbwq1A-] disk not present in database
Submit result: 5oYeJHYh.GD6IZAAPq23hEbwq1A- has been uploaded


==== Log checksum 64703845536F1B4B0323CE8150C00A055368A4CD7F4899D730E718C3656353FA ====

Track List CD4:

A TOUCH OF GOLD VOLUME ONE (EPA-5088), rtltased April 21, 1959
01. Hard Headed Woman [1:52]
02. Good Rockin' Tonight [2:11]
03. Don't [2:47]
04. I Beg You [1:51]
A TOUCH OF GOLD VOLUME TWO (EPA-5101), released September 2, 1959
05. Wear My Ring Around Your Neck [2:13]
06. Treat Me Nice [2:12]
07. One Night [2:30]
08. That's All Right Mama [1:55]
A TOUCH OF GOLD VOLUME THREE (EPA-5141), released February 23, 1960
09. Too Much [2:31]
10. All Shook Up [1:56]
11. Don't Ask Me Why [2:04]
12. Blue Moon Of Kentucky [2:02]
ELVIS BY REQUEST (LPC-128), released March 1961
13. Flaming Star [2:25]
14. Summer Kisses, Winter Tears [2:18]
15. Are You Lonesome Tonight [3:05]
16. It's Now Or Never [3:15]
FOLLOW THE DREAM (EPA-4368), released April 1962
17. Follow That Dream [1:37]
18. Angel [2:37]
19. What A Wonderful Life [2:25]
20. I'm Not The Marrying Kind [1:50]
KID GALAHAD (EPA-4371), released August 28, 1962
21. King Of The Whole Wide World [2:41]
22. This Is Living [1:43]
23. Riding The Rainbow [1:37]
24. Home Is Where The Heart Is [2:32]
25. I Got Lucky [2:10]
26. Whistling Tune [3:17]
ELVIS SAILS (EPA-4325), released November 18, 1958
27. Press Interview With Elvis Presley (Brooklyn Army Termina September 22nd 1958) [5:23]
28. Elvis Presley's Newsreel Interview [2:21]
29. Pat Hernon Interviews Elvis In The Library Of The U.S.S. Randall At Sailing [2:14]

Total Time: 01:10:21

Exact Audio Copy V1.3 from 2. September 2016

EAC extraction logfile from 7. November 2019, 11:51

Elvis Presley / U.S. EP Collection 1955-1962 [Disc 4]

Used drive : ATAPI iHAS122 C Adapter: 1 ID: 0

Read mode : Secure
Utilize accurate stream : Yes
Defeat audio cache : Yes
Make use of C2 pointers : No

Read offset correction : 6
Overread into Lead-In and Lead-Out : No
Fill up missing offset samples with silence : Yes
Delete leading and trailing silent blocks : No
Null samples used in CRC calculations : Yes
Used interface : Native Win32 interface for Win NT & 2000

Used output format : Internal WAV Routines
Sample format : 44.100 Hz; 16 Bit; Stereo


TOC of the extracted CD

Track | Start | Length | Start sector | End sector
––––––––––––––––––––––––––––-
1 | 0:00.00 | 1:53.43 | 0 | 8517
2 | 1:53.43 | 2:12.65 | 8518 | 18482
3 | 4:06.33 | 2:48.35 | 18483 | 31117
4 | 6:54.68 | 1:52.36 | 31118 | 39553
5 | 8:47.29 | 2:14.06 | 39554 | 49609
6 | 11:01.35 | 2:13.54 | 49610 | 59638
7 | 13:15.14 | 2:31.49 | 59639 | 71012
8 | 15:46.63 | 1:56.35 | 71013 | 79747
9 | 17:43.23 | 2:32.30 | 79748 | 91177
10 | 20:15.53 | 1:57.23 | 91178 | 99975
11 | 22:13.01 | 2:05.05 | 99976 | 109355
12 | 24:18.06 | 2:03.24 | 109356 | 118604
13 | 26:21.30 | 2:26.50 | 118605 | 129604
14 | 28:48.05 | 2:19.55 | 129605 | 140084
15 | 31:07.60 | 3:06.15 | 140085 | 154049
16 | 34:14.00 | 3:16.52 | 154050 | 168801
17 | 37:30.52 | 1:38.21 | 168802 | 176172
18 | 39:08.73 | 2:38.47 | 176173 | 188069
19 | 41:47.45 | 2:26.29 | 188070 | 199048
20 | 44:13.74 | 1:51.06 | 199049 | 207379
21 | 46:05.05 | 2:42.01 | 207380 | 219530
22 | 48:47.06 | 1:44.55 | 219531 | 227385
23 | 50:31.61 | 1:38.58 | 227386 | 234793
24 | 52:10.44 | 2:33.50 | 234794 | 246318
25 | 54:44.19 | 2:11.11 | 246319 | 256154
26 | 56:55.30 | 3:21.49 | 256155 | 271278
27 | 60:17.04 | 5:25.70 | 271279 | 295723
28 | 65:42.74 | 2:23.25 | 295724 | 306473
29 | 68:06.24 | 2:14.74 | 306474 | 316597


Range status and errors

Selected range

Filename C:\Users\44740\Desktop\Elvis Presley - U.S. EP Collection 1955-1962 [Disc 4].wav

Peak level 96.6 %
Extraction speed 3.3 X
Range quality 100.0 %
Test CRC F5D87EFC
Copy CRC F5D87EFC
Copy OK

No errors occurred


AccurateRip summary

Track 1 not present in database
Track 2 not present in database
Track 3 not present in database
Track 4 not present in database
Track 5 not present in database
Track 6 not present in database
Track 7 not present in database
Track 8 not present in database
Track 9 not present in database
Track 10 not present in database
Track 11 not present in database
Track 12 not present in database
Track 13 not present in database
Track 14 not present in database
Track 15 not present in database
Track 16 not present in database
Track 17 not present in database
Track 18 not present in database
Track 19 not present in database
Track 20 not present in database
Track 21 not present in database
Track 22 not present in database
Track 23 not present in database
Track 24 not present in database
Track 25 not present in database
Track 26 not present in database
Track 27 not present in database
Track 28 not present in database
Track 29 not present in database

None of the tracks are present in the AccurateRip database

End of status report

–– CUETools DB Plugin V2.1.6

[CTDB TOCID: 0wCAzVXndTS80u2nHHeAU8xzDjE-] disk not present in database
Submit result: 0wCAzVXndTS80u2nHHeAU8xzDjE- has been uploaded


==== Log checksum 6D8FAAA6BF59E27F95E69B19BD6215006F9F14A6C9303DE2BF4B54E7788FADBB ====

Elvis Presley - The Complete U.S. EP Collection 1955-1962 (2019) {4CD Box Set}


All thanks go to London

>>> Elvis Presley in my Blog <<<

DOWNLOAD: