Subcategories

Emanuela Galli, Ensemble Galilei, Paul Beier - Strozzi: Diporti di Euterpe (1999)

Posted By: tirexiss
Emanuela Galli, Ensemble Galilei, Paul Beier - Strozzi: Diporti di Euterpe (1999)

Emanuela Galli, Ensemble Galilei, Paul Beier - Strozzi: Diporti di Euterpe (1999)
EAC | FLAC (image+.cue, log) | Covers Included | 01:14:25 | 308 MB
Genre: Classical, Vocal | Label: Stradivarius | Catalog: STR 33487

Eleven imaginative and melodically striking vocal pieces from a collection published in 1660, towards the end of the relatively short life of one of the most famous female composers, Barbara Strozzi. Ranging in length from two minutes to 14 and with a variety of moods to match, they are performed with feeling (though not a lot of colour) by Emanuela Galli with jangling support from Ensemble Galilei’s three guitars, four theorbos and (only one) organ. The haunting Lagrime mie is alone worth the price of the disc.

Emanuela Galli, Ensemble Galilei, Paul Beier - Strozzi: Diporti di Euterpe (1999)

Track List:

01. Tradimento
02. Lagrime mie
03. Così non la voglio
04. Appresso ai molli argenti
05. Sete pur fastidioso
06. Fin che tù spiri
07. Non occorre
08. A pena il sol
09. Pensaci ben mio core
10. Mi fa rider
11. Sino alla morte

Performers:
Emanuela Galli (soprano)
Ensemble Galilei
Richard Savino, Franklin Lei, Fulvio Garlaschi - chitarre barocche
Paul Beier, Maurizio Martelli, Gabriele Palomba, Franco Pavan - tiorbe
Fabio Bonizzoni - organo
Paul Beier - direttore

Exact Audio Copy V1.0 beta 3 from 29. August 2011

EAC extraction logfile from 17. August 2017, 17:55

Maria Cristina Kiehr, Concerto Soave / Strozzi - Sacri Musicali Affetti

Used drive : hp DVD-RAM UJ8D1 Adapter: 0 ID: 0

Read mode : Secure
Utilize accurate stream : Yes
Defeat audio cache : Yes
Make use of C2 pointers : No

Read offset correction : 6
Overread into Lead-In and Lead-Out : No
Fill up missing offset samples with silence : Yes
Delete leading and trailing silent blocks : No
Null samples used in CRC calculations : Yes
Used interface : Native Win32 interface for Win NT & 2000

Used output format : User Defined Encoder
Selected bitrate : 768 kBit/s
Quality : High
Add ID3 tag : No
Command line compressor : C:\Program Files (x86)\Exact Audio Copy\FLAC\FLAC.EXE
Additional command line options : -8 -V -T "ARTIST=%artist%" -T "TITLE=%title%" -T "ALBUM=%albumtitle%" -T "DATE=%year%" -T "TRACKNUMBER=%tracknr%" -T "GENRE=%genre%" -T "PERFORMER=%albuminterpret%" -T "COMPOSER=%composer%" %haslyrics%–tag-from-file=LYRICS="%lyricsfile%"%haslyrics% -T "ALBUMARTIST=%albumartist%" -T "DISCNUMBER=%cdnumber%" -T "TOTALDISCS=%totalcds%" -T "TOTALTRACKS=%numtracks%" -T "COMMENT=%comment%" %source% -o %dest%


TOC of the extracted CD

Track | Start | Length | Start sector | End sector
––––––––––––––––––––––––––––-
1 | 0:00.33 | 4:27.00 | 33 | 20057
2 | 4:27.33 | 5:26.55 | 20058 | 44562
3 | 9:54.13 | 6:17.37 | 44563 | 72874
4 | 16:11.50 | 6:57.40 | 72875 | 104189
5 | 23:09.15 | 2:14.53 | 104190 | 114292
6 | 25:23.68 | 1:37.27 | 114293 | 121594
7 | 27:01.20 | 4:07.45 | 121595 | 140164
8 | 31:08.65 | 3:58.30 | 140165 | 158044
9 | 35:07.20 | 1:15.50 | 158045 | 163719
10 | 36:22.70 | 6:57.35 | 163720 | 195029
11 | 43:20.30 | 1:11.60 | 195030 | 200414
12 | 44:32.15 | 7:02.18 | 200415 | 232082
13 | 51:34.33 | 3:11.00 | 232083 | 246407
14 | 54:45.33 | 7:37.17 | 246408 | 280699
15 | 62:22.50 | 2:33.28 | 280700 | 292202
16 | 64:56.03 | 5:45.40 | 292203 | 318117


Range status and errors

Selected range

Filename C:\cunctator\Strozzi - Sacri Musicali Affetti - Kiehr, Concerto Soave.wav

Peak level 99.0 %
Extraction speed 2.4 X
Range quality 100.0 %
Test CRC 67466DDE
Copy CRC 67466DDE
Copy OK

No errors occurred


AccurateRip summary

Track 1 cannot be verified as accurate (confidence 2) [53D2FDA5], AccurateRip returned [9C8ABC7B] (AR v2)
Track 2 cannot be verified as accurate (confidence 2) [6FC09688], AccurateRip returned [5E4FD2DB] (AR v2)
Track 3 cannot be verified as accurate (confidence 2) [39E5D10D], AccurateRip returned [FB4F8AFD] (AR v2)
Track 4 cannot be verified as accurate (confidence 2) [A3E5C419], AccurateRip returned [25108B55] (AR v2)
Track 5 cannot be verified as accurate (confidence 2) [FE48C0A7], AccurateRip returned [D45426A2] (AR v2)
Track 6 cannot be verified as accurate (confidence 3) [21A8320D], AccurateRip returned [A82B6D72] (AR v2)
Track 7 cannot be verified as accurate (confidence 2) [A2D0877C], AccurateRip returned [6E8642BA] (AR v2)
Track 8 cannot be verified as accurate (confidence 2) [42B00A55], AccurateRip returned [4027E902] (AR v2)
Track 9 cannot be verified as accurate (confidence 3) [E4C96813], AccurateRip returned [FF59BFEF] (AR v2)
Track 10 cannot be verified as accurate (confidence 2) [7D5386DC], AccurateRip returned [E940E9CA] (AR v2)
Track 11 cannot be verified as accurate (confidence 3) [307FC06A], AccurateRip returned [F1C5F9CE] (AR v2)
Track 12 cannot be verified as accurate (confidence 2) [D4508D31], AccurateRip returned [98F2DE89] (AR v2)
Track 13 cannot be verified as accurate (confidence 3) [8C91F31C], AccurateRip returned [90369C03] (AR v2)
Track 14 cannot be verified as accurate (confidence 2) [5C7961E0], AccurateRip returned [64392A95] (AR v2)
Track 15 cannot be verified as accurate (confidence 3) [AE70A232], AccurateRip returned [D6B1FAA2] (AR v2)
Track 16 cannot be verified as accurate (confidence 2) [EBA810A2], AccurateRip returned [EC093652] (AR v2)

No tracks could be verified as accurate
You may have a different pressing from the one(s) in the database

End of status report

==== Log checksum BE6063818E32E7E710CFDEB60547D323ADA05C11FC2C3030F07F8D4A7E0A05B5 ====

Thanks to the Original ripper (unknown)!

Download: