Subcategories

Emerald Sun - Under The Curse Of Silence (2018)

Posted By: Andi_Deris
Emerald Sun - Under The Curse Of Silence (2018)

Emerald Sun - Under The Curse Of Silence (2018)
EAC Rip | FLAC: Image+Cue+Log | MP3 CBR 320 kbps | Scans
426 Mb | 135 Mb | 30 Mb | Time: 58:17
Fastball Music | FB18C2324
Power Metal

Following their last album "Metal Dome" from 2015, the Greek band Emerald Sun, founded in 1998, now present a fireworks of power metal in form of their forth album, looking for their equals. On "Under The Curse Of Silence" the band goes at it full steam ahead. Properly produced by current RAGE guitarist and studio expert Marcos Rodriguez, the eleven album tracks blast from the loudspeakers like there is no tomorrow.

Singer Stelios "Theo" Tsakiridis knows how to command the full range of a classic metal vocalist demonstrating his skills not only in up-tempo hits like "Kill Or Be Killed" or "Weakness And Shame", but also with slower tunes like the wonderful rock ballad "Journey Of Life" or the bonus track "La Fuerza Del Ser" sung in Spanish.

Emerald Sun - Under The Curse Of Silence (2018)




Track Listing

01. Kill Or Be Killed (04:32)
02. All As One (03:53)
03. Carry On (03:56)
04. Blast (04:48)
05. Weakness And Shame (04:15)
06. Journey Of Life (05:42)
07. Rebel Soul (05:13)
08. Land Of Light (05:29)
09. Slaves To Addiction (04:26)
10. Fame (Irene Cara cover) (04:33)
11. World On Fire (05:49)
12. La Fuerza De Ser (Spanish version of "Journey Of Life") (05:41)

Produced by Marcos Rodriguez

The Band

• Stelios “Theo” Tsakiridis - Vocals
• Johnnie Athanasiadi - Guitars
• Pavlos Georgiadis - Guitars
• Fotis “Sheriff” Toumanides - Bass
• Sefis Gioldasis - Keyboards
• Vasilis Stavrianidis - Drums

*****
• Marcos Rodriguez - Backing Vocals, Acoustic Guitar on ’Journey Of Life’
• Peavy Wagner - Lead Vocals on ’Blast’

Exact Audio Copy V1.3 from 2. September 2016

EAC extraction logfile from 13. April 2018, 20:30

Emerald Sun / Under The Curse Of Silence

Used drive : ATAPI iHAS122 W Adapter: 2 ID: 0

Read mode : Secure
Utilize accurate stream : Yes
Defeat audio cache : Yes
Make use of C2 pointers : No

Read offset correction : 48
Overread into Lead-In and Lead-Out : No
Fill up missing offset samples with silence : Yes
Delete leading and trailing silent blocks : No
Null samples used in CRC calculations : Yes
Used interface : Installed external ASPI interface

Used output format : User Defined Encoder
Selected bitrate : 1024 kBit/s
Quality : High
Add ID3 tag : No
Command line compressor : C:\Program Files\FLAC\flac.exe
Additional command line options : -V -8 -T "Date=%year%" -T "Genre=%genre%" -T"COMMENT=Ripped by Ilijan" -8 -V %source%


TOC of the extracted CD

Track | Start | Length | Start sector | End sector
––––––––––––––––––––––––––––-
1 | 0:00.00 | 4:31.60 | 0 | 20384
2 | 4:31.60 | 3:53.25 | 20385 | 37884
3 | 8:25.10 | 3:56.11 | 37885 | 55595
4 | 12:21.21 | 4:47.40 | 55596 | 77160
5 | 17:08.61 | 4:14.52 | 77161 | 96262
6 | 21:23.38 | 5:42.30 | 96263 | 121942
7 | 27:05.68 | 5:12.54 | 121943 | 145396
8 | 32:18.47 | 5:29.30 | 145397 | 170101
9 | 37:48.02 | 4:25.42 | 170102 | 190018
10 | 42:13.44 | 4:33.22 | 190019 | 210515
11 | 46:46.66 | 5:48.49 | 210516 | 236664
12 | 52:35.40 | 5:40.54 | 236665 | 262218


Range status and errors

Selected range

Filename D:\Emerald Sun - Under The Curse Of Silence.wav

Peak level 90.1 %
Extraction speed 4.0 X
Range quality 100.0 %
Test CRC D5711B69
Copy CRC D5711B69
Copy OK

No errors occurred


AccurateRip summary

Track 1 not present in database
Track 2 not present in database
Track 3 not present in database
Track 4 not present in database
Track 5 not present in database
Track 6 not present in database
Track 7 not present in database
Track 8 not present in database
Track 9 not present in database
Track 10 not present in database
Track 11 not present in database
Track 12 not present in database

None of the tracks are present in the AccurateRip database

End of status report

–– CUETools DB Plugin V2.1.6

[CTDB TOCID: FMmPVhAUhieyB3ECPb.J1haVfTw-] found
Submit result: FMmPVhAUhieyB3ECPb.J1haVfTw- has been confirmed
Track | CTDB Status
1 | (1/1) Accurately ripped
2 | (1/1) Accurately ripped
3 | (1/1) Accurately ripped
4 | (1/1) Accurately ripped
5 | (1/1) Accurately ripped
6 | (1/1) Accurately ripped
7 | (1/1) Accurately ripped
8 | (1/1) Accurately ripped
9 | (1/1) Accurately ripped
10 | (1/1) Accurately ripped
11 | (1/1) Accurately ripped
12 | (1/1) Accurately ripped


==== Log checksum 4F968648846D51158F8AAE297C83C3E7AF9F1F4EDD259785AE18F9F95DFC5E3B ====


Many thanks to the original uploader: Ilijan

SEE also:
Emerald Sun 2015 Metal Dome



Password: pass