Tags
Language
Tags

Emerson Lake & Palmer - Pictures At An Exhibition (1971) {1987, Reissue} Re-Up

Posted By:
Emerson Lake & Palmer - Pictures At An Exhibition (1971) {1987, Reissue} Re-Up

Emerson Lake & Palmer - Pictures At An Exhibition (1971) {1987, Reissue}
EAC Rip | FLAC (Img) + Cue + Log ~ 220 Mb | MP3 CBR320 ~ 92 Mb
Full Scans ~ 142 Mb | 00:38:01 | RAR 5% Recovery
Progressive Rock, Symphonic Rock, Art Rock | Manticore #258 172 | Germany

Pictures at an Exhibition is a live album by the English progressive rock band Emerson, Lake & Palmer, released in November 1971 on Island Records. It is a recording of the band's arrangement of Pictures at an Exhibition by Modest Mussorgsky, performed at Newcastle City Hall on 26 March 1971. Emerson wished to arrange the piece after seeing an orchestral performance of it several years before. He bought a copy of the score, and pitched the idea to Lake and Palmer, who agreed to adapt it. Pictures at an Exhibition went to number 2 on the UK Albums Chart and number 10 on the US Billboard 200.

One of the seminal documents of the progressive rock era, a record that made its way into the collections of millions of high-school kids who never heard of Modest Mussorgsky and knew nothing of Russia's Nationalist "Five." It does some violence to Mussorgsky, but Pictures at an Exhibition is also the most energetic and well-realized live release in Emerson, Lake & Palmer's catalog, and it makes a fairly compelling case for adapting classical pieces in this way. At the time, it introduced "classical rock" to millions of listeners, including the classical community, most of whose members regarded this record as something akin to an armed assault. The early-'70s live sound is a little crude by today's standards, but the tightness of the playing (Carl Palmer is especially good) makes up for any sonic inadequacies. Keith Emerson is the dominant musical personality here, but Greg Lake and Palmer get the spotlight enough to prevent it from being a pure keyboard showcase.

~ Bruce Eder, All Music

***************

Emerson Lake & Palmer - Pictures At An Exhibition (1971) {1987, Reissue} Re-Up

Emerson Lake & Palmer - Pictures At An Exhibition (1971) {1987, Reissue} Re-Up

Track List:

01. Promenade [0:02:06.18]
02. The Gnome [0:04:09.12]
03. Promenade [0:00:18.33]
04. The Sage [0:01:04.62]
05. The Old Castle [0:04:41.63]
06. Blues Variation [0:06:50.67]
07. Promenade [0:01:22.38]
08. The Hut Of Baba Yaga [0:01:13.27]
09. The Curse Of Baba Yaga [0:04:09.55]
10. The Hut Of Baba Yaga [0:01:06.55]
11. The Great Gates Of Kiev / Nutrocker [0:10:57.58]

Exact Audio Copy V1.3 from 2. September 2016

EAC extraction logfile from 17. September 2017, 15:39

Emerson, Lake & Palmer / Pictures At An Exhibition

Used drive : SONY BD RW BDX-S600U Adapter: 1 ID: 1

Read mode : Secure
Utilize accurate stream : Yes
Defeat audio cache : Yes
Make use of C2 pointers : No

Read offset correction : 48
Overread into Lead-In and Lead-Out : No
Fill up missing offset samples with silence : Yes
Delete leading and trailing silent blocks : No
Null samples used in CRC calculations : Yes
Used interface : Native Win32 interface for Win NT & 2000

Used output format : User Defined Encoder
Selected bitrate : 768 kBit/s
Quality : High
Add ID3 tag : No
Command line compressor : C:\Program Files (x86)\Exact Audio Copy\FLAC\FLAC.EXE
Additional command line options : -V -8 -T "Date=%year%" -T "Genre=%genre%" %source%


TOC of the extracted CD

Track | Start | Length | Start sector | End sector
––––––––––––––––––––––––––––-
1 | 0:00.00 | 2:06.18 | 0 | 9467
2 | 2:06.18 | 4:09.12 | 9468 | 28154
3 | 6:15.30 | 0:18.33 | 28155 | 29537
4 | 6:33.63 | 1:04.62 | 29538 | 34399
5 | 7:38.50 | 4:41.63 | 34400 | 55537
6 | 12:20.38 | 6:50.67 | 55538 | 86354
7 | 19:11.30 | 1:22.38 | 86355 | 92542
8 | 20:33.68 | 1:13.27 | 92543 | 98044
9 | 21:47.20 | 4:09.55 | 98045 | 116774
10 | 25:57.00 | 1:06.55 | 116775 | 121779
11 | 27:03.55 | 10:57.58 | 121780 | 171112


Range status and errors

Selected range

Filename I:\Локальный диск\Emerson Lake & Palmer Discography\Studio\1971. Emerson Lake & Palmer - Pictures At An Exhibition\1971. Emerson Lake & Palmer - Pictures At An Exhibition (Manticore,258 172,Germany)\Emerson, Lake & Palmer - Pictures At An Exhi

Peak level 97.5 %
Extraction speed 13.2 X
Range quality 99.9 %
Test CRC C36B9888
Copy CRC C36B9888
Copy OK

No errors occurred


AccurateRip summary

Track 1 accurately ripped (confidence 20) [6F510ED0] (AR v2)
Track 2 accurately ripped (confidence 20) [C0C37DD8] (AR v2)
Track 3 accurately ripped (confidence 20) [755E0DDA] (AR v2)
Track 4 accurately ripped (confidence 20) [F18CC51B] (AR v2)
Track 5 accurately ripped (confidence 20) [938294F2] (AR v2)
Track 6 accurately ripped (confidence 20) [621EB172] (AR v2)
Track 7 accurately ripped (confidence 20) [6E6FF057] (AR v2)
Track 8 accurately ripped (confidence 20) [3B664517] (AR v2)
Track 9 accurately ripped (confidence 20) [55DF8483] (AR v2)
Track 10 accurately ripped (confidence 20) [15C07B08] (AR v2)
Track 11 accurately ripped (confidence 20) [7D8ACA33] (AR v2)

All tracks accurately ripped

End of status report

–– CUETools DB Plugin V2.1.6

[CTDB TOCID: 5nMFKsgTjOdszB_wJ_wrzfl.RVY-] found
Submit result: 5nMFKsgTjOdszB_wJ_wrzfl.RVY- has been confirmed
Track | CTDB Status
1 | (24/24) Accurately ripped
2 | (24/24) Accurately ripped
3 | (24/24) Accurately ripped
4 | (24/24) Accurately ripped
5 | (24/24) Accurately ripped
6 | (24/24) Accurately ripped
7 | (24/24) Accurately ripped
8 | (24/24) Accurately ripped
9 | (24/24) Accurately ripped
10 | (24/24) Accurately ripped
11 | (23/24) Accurately ripped


==== Log checksum 549A69236B896B3F059AE6D6C902FB89F82938C52CFE09B80DFE7AD97078F758 ====

foobar2000 1.2.6 / Dynamic Range Meter 1.1.1
log date: 2017-09-20 00:20:09

––––––––––––––––––––––––––––––––––––––––
Analyzed: Emerson, Lake & Palmer / Pictures At An Exhibition
––––––––––––––––––––––––––––––––––––––––

DR Peak RMS Duration Track
––––––––––––––––––––––––––––––––––––––––
DR12 -2.79 dB -20.58 dB 2:06 01-Promenade
DR13 -0.79 dB -17.74 dB 4:09 02-The Gnome
DR7 -26.11 dB -42.99 dB 0:18 03-Promenade
DR13 -18.26 dB -37.64 dB 1:05 04-The Sage
DR18 -6.36 dB -32.02 dB 4:42 05-The Old Castle
DR13 -0.21 dB -16.20 dB 6:51 06-Blues Variation
DR12 -1.93 dB -16.52 dB 1:23 07-Promenade
DR13 -1.05 dB -16.93 dB 1:13 08-The Hut Of Baba Yaga
DR13 -1.35 dB -17.12 dB 4:10 09-The Curse Of Baba Yaga
DR12 -2.30 dB -16.84 dB 1:07 10-The Hut Of Baba Yaga
DR14 -1.16 dB -19.32 dB 10:58 11-The Great Gates Of Kiev / Nutrocker
––––––––––––––––––––––––––––––––––––––––

Number of tracks: 11
Official DR value: DR13

Samplerate: 44100 Hz
Channels: 2
Bits per sample: 16
Bitrate: 768 kbps
Codec: FLAC
================================================================================

[CUETools log; Date: 20.09.2017 0:20:14; Version: 2.1.5]
[CTDB TOCID: 5nMFKsgTjOdszB_wJ_wrzfl.RVY-] found.
Track | CTDB Status
1 | (25/25) Accurately ripped
2 | (25/25) Accurately ripped
3 | (25/25) Accurately ripped
4 | (25/25) Accurately ripped
5 | (25/25) Accurately ripped
6 | (25/25) Accurately ripped
7 | (25/25) Accurately ripped
8 | (25/25) Accurately ripped
9 | (25/25) Accurately ripped
10 | (25/25) Accurately ripped
11 | (24/25) Accurately ripped
[AccurateRip ID: 000cdfbe-0072aa4e-8a08e90b] found.
Track [ CRC | V2 ] Status
01 [4ff613c1|6f510ed0] (21+20/41) Accurately ripped
02 [62c4c7ce|c0c37dd8] (22+20/42) Accurately ripped
03 [e1e73663|755e0dda] (22+20/42) Accurately ripped
04 [22dbe781|f18cc51b] (22+20/42) Accurately ripped
05 [fb8e3682|938294f2] (22+20/42) Accurately ripped
06 [5adc9a3a|621eb172] (22+20/42) Accurately ripped
07 [71e41cea|6e6ff057] (22+20/42) Accurately ripped
08 [d3976170|3b664517] (21+20/41) Accurately ripped
09 [5840cea3|55df8483] (21+20/41) Accurately ripped
10 [fcf08b89|15c07b08] (21+20/41) Accurately ripped
11 [ab519703|7d8aca33] (21+20/41) Accurately ripped

Track Peak [ CRC32 ] [W/O NULL] [ LOG ]
– 97,5 [C36B9888] [54D58D2C] CRC32
01 72,5 [C15CAF13] [EB721B36]
02 91,2 [F3469967] [029B7F50]
03 4,9 [B74039C2] [E9B47F7D]
04 12,2 [170B32E2] [88793187]
05 48,1 [D1997321] [1E278F54]
06 97,5 [E3A78CA1] [A921F18D]
07 80,1 [28BDA5D3] [887DEC82]
08 88,6 [703A0B17] [2757E14C]
09 85,6 [9F414054] [48E890A1]
10 76,7 [56C2943E] [936A0192]
11 87,5 [A2C6BA84] [6E71F93C]

Emerson Lake & Palmer - Pictures At An Exhibition (1971) {1987, Reissue} Re-Up


All thanks go to alonzo

>>> Emerson, Lake & Palmer in my Blog <<<

DOWNLOAD: