Subcategories

Emerson, Lake & Palmer - Works Volume 1 (1977) [Victor, VICP-78027~8, Japan]

Posted By: v3122
Emerson, Lake & Palmer - Works Volume 1 (1977) [Victor, VICP-78027~8, Japan]

Emerson, Lake & Palmer - Works Volume 1 (1977)
EAC | Flac(Image) + Cue + Log & MP3 CBR 320Kbps
2014 | Victor, VICP-78027~8 | ~ 699 or 251 Mb | Scans(png) -> 359 Mb
2CD | Progressive Rock

Though no one talked about it at the time of its release, this album reflected a growing split within the group. Originally, the trio's members, tired of sublimating their musical identities within the context of ELP, each intended to do a solo album of his own. Reason prevailed, however, probably aided by the group's awareness that the combined sales of the solo albums issued by the five members of Yes the previous year were a fraction of the sales of Yes' most recent records. The result was this double LP; essentially three solo sides and one group side, it is the most complex and demanding of the group's albums. Keith Emerson's "Piano Concerto" is on the level of a good music-student piece, without much original language. Where Emerson, in conjunction with his conductor and co-orchestrator, John Mayer, succeeds admirably is in writing beautiful virtuoso passages for the piano. Greg Lake's romantic songs mark the final flowering of his work in this vein – and perhaps its going to seed, since "C'est la Vie," the featured single, says little that "Still…You Turn Me On," from their previous album, didn't say better and shorter. Carl Palmer's side is the most accessible of the three solo sides for casual rock listeners, rocking hard on the classical adaptations and featuring Joe Walsh on lead guitar for one song. The group's two tracks, "Fanfare for the Common Man" and "Pirates," cover a lot of old ground, albeit in ornate and stylish fashion. Having used Copland's "Hoedown" as a concert showstopper for four years, the trio takes "Fanfare" to new heights of indulgence, and it actually works, up to a point – like CCR's extended version of "Heard It Through the Grapevine," this is just a little too much of a good thing.

by Bruce Eder, AMG
Emerson, Lake & Palmer - Works Volume 1 (1977):

Emerson, Lake & Palmer - Works Volume 1 (1977) [Victor, VICP-78027~8, Japan]

Tracklist CD1:

01. Piano Concerto No. 1 / Keith Emerson 18:28
- First Movement: Allegro Giojoso
- Second Movement: Andante Molto Cantabile
- Third Movement: Toccata Con Fuoco
02. Lend Your Love To Me Tonight / Greg Lake 04:05
03. C'est La Vie / Greg Lake 04:18
04. Hallowed Be Thy Name / Greg Lake 04:37
05. Nobody Loves You Like I Do / Greg Lake 04:00
06. Closer To Believing / Greg Lake 05:35

Exact Audio Copy V1.0 beta 4 from 7. December 2014

EAC extraction logfile from 8. February 2015, 10:40

Emerson Lake & Palmer / Works Volume 1 PT-SHM 1

Used drive : PLEXTOR BD-R PX-B950SA Adapter: 1 ID: 1

Read mode : Secure
Utilize accurate stream : Yes
Defeat audio cache : Yes
Make use of C2 pointers : No

Read offset correction : 6
Overread into Lead-In and Lead-Out : No
Fill up missing offset samples with silence : Yes
Delete leading and trailing silent blocks : No
Null samples used in CRC calculations : Yes
Used interface : Native Win32 interface for Win NT & 2000

Used output format : Internal WAV Routines
Sample format : 44.100 Hz; 16 Bit; Stereo


TOC of the extracted CD

Track | Start | Length | Start sector | End sector
––––––––––––––––––––––––––––-
1 | 0:00.00 | 18:28.37 | 0 | 83136
2 | 18:28.37 | 4:05.00 | 83137 | 101511
3 | 22:33.37 | 4:18.38 | 101512 | 120899
4 | 26:52.00 | 4:37.37 | 120900 | 141711
5 | 31:29.37 | 4:00.38 | 141712 | 159749
6 | 35:30.00 | 5:35.40 | 159750 | 184914


Range status and errors

Selected range

Filename C:\Users\Meijin\Desktop\ALLexxess\Emerson Lake & Palmer\1977 Works Volume 1 (2 x 7'' Mini LP PT-SHM K2HD Victor Japan 2014)\CD1\Emerson Lake & Palmer - Works Volume 1 PT-SHM 1.wav

Peak level 100.0 %
Extraction speed 6.6 X
Range quality 100.0 %
Test CRC 799FD497
Copy CRC 799FD497
Copy OK

No errors occurred


AccurateRip summary

Track 1 not present in database
Track 2 not present in database
Track 3 not present in database
Track 4 not present in database
Track 5 not present in database
Track 6 not present in database

None of the tracks are present in the AccurateRip database

End of status report

–– CUETools DB Plugin V2.1.4

[CTDB TOCID: brT1dU0_FKuowpapoCH9FUg1cYA-] disk not present in database
Submit result: brT1dU0_FKuowpapoCH9FUg1cYA- has been uploaded


==== Log checksum BA10F9A3B739E1F10D94321F086428CA055EBA31768E200FDC487D9B6C5B2D4F ====

foobar2000 1.2.9 / Dynamic Range Meter 1.1.1
log date: 2015-02-17 22:51:39

––––––––––––––––––––––––––––––––––––––––
Analyzed: Emerson Lake & Palmer / Works Volume 1 PT-SHM 1
––––––––––––––––––––––––––––––––––––––––

DR Peak RMS Duration Track
––––––––––––––––––––––––––––––––––––––––
DR7 0.00 dB -11.62 dB 18:28 01-Piano Concerto No. 1
DR8 0.00 dB -9.87 dB 4:05 02-Lend Your Love To Me Tonight
DR9 -0.10 dB -13.59 dB 4:19 03-C'est La Vie
DR8 0.00 dB -9.30 dB 4:37 04-Hallowed Be Thy Name
DR7 0.00 dB -9.16 dB 4:01 05-Nobody Loves You Like I Do
DR9 -0.08 dB -12.73 dB 5:36 06-Closer To Believing
––––––––––––––––––––––––––––––––––––––––

Number of tracks: 6
Official DR value: DR8

Samplerate: 44100 Hz
Channels: 2
Bits per sample: 16
Bitrate: 873 kbps
Codec: FLAC

[CUETools log; Date: 13.02.2015 17:53:59; Version: 2.1.4]
[CTDB TOCID: brT1dU0_FKuowpapoCH9FUg1cYA-] found.
Track | CTDB Status
1 | (1/1) Accurately ripped
2 | (1/1) Accurately ripped
3 | (1/1) Accurately ripped
4 | (1/1) Accurately ripped
5 | (1/1) Accurately ripped
6 | (1/1) Accurately ripped
[AccurateRip ID: 000c1576-003bc064-3a09a106] disk not present in database.

Track Peak [ CRC32 ] [W/O NULL] [ LOG ]
– 100,0 [799FD497] [A618B62C] CRC32
01 100,0 [0D100575] [DC79FD8D]
02 100,0 [FE2207A1] [7F5225F0]
03 98,8 [59613101] [4A31D706]
04 100,0 [8D9627A5] [9BD55D5D]
05 100,0 [347D7F47] [CE299809]
06 99,0 [3D64C531] [B2533AFE]

Emerson, Lake & Palmer - Works Volume 1 (1977) [Victor, VICP-78027~8, Japan]

Tracklist CD2:

01. The Enemy God Dances With The Black Spirits / Carl Palmer 03:21
02. LA Nights / Carl Palmer 05:44
03. New Orleans / Carl Palmer 02:48
04. Two Part Invention In D Minor / Carl Palmer 01:55
05. Food For Your Soul / Carl Palmer 04:02
06. Tank / Carl Palmer 05:09
07. Fanfare For The Common Man / Emerson, Lake & Palmer 09:44
08. Pirates / Emerson, Lake & Palmer 13:24

Bonus Tracks - Live Indiana 24th January 1978:
09. Tank / Emerson, Lake & Palmer 09:49
10. The Enemy God Dances With The Black Spirits / Emerson, Lake & Palmer 03:13
11. Nutrocker / Emerson, Lake & Palmer 04:20

Exact Audio Copy V1.0 beta 4 from 7. December 2014

EAC extraction logfile from 8. February 2015, 10:13

Emerson Lake & Palmer / Works Volume 1 PT-SHM 2

Used drive : PLEXTOR BD-R PX-B950SA Adapter: 1 ID: 1

Read mode : Secure
Utilize accurate stream : Yes
Defeat audio cache : Yes
Make use of C2 pointers : No

Read offset correction : 6
Overread into Lead-In and Lead-Out : No
Fill up missing offset samples with silence : Yes
Delete leading and trailing silent blocks : No
Null samples used in CRC calculations : Yes
Used interface : Native Win32 interface for Win NT & 2000

Used output format : Internal WAV Routines
Sample format : 44.100 Hz; 16 Bit; Stereo


TOC of the extracted CD

Track | Start | Length | Start sector | End sector
––––––––––––––––––––––––––––-
1 | 0:00.00 | 3:21.10 | 0 | 15084
2 | 3:21.10 | 5:44.62 | 15085 | 40946
3 | 9:05.72 | 2:48.40 | 40947 | 53586
4 | 11:54.37 | 1:55.38 | 53587 | 62249
5 | 13:50.00 | 4:02.00 | 62250 | 80399
6 | 17:52.00 | 5:09.37 | 80400 | 103611
7 | 23:01.37 | 9:44.38 | 103612 | 147449
8 | 32:46.00 | 13:24.07 | 147450 | 207756
9 | 46:10.07 | 9:49.15 | 207757 | 251946
10 | 55:59.22 | 3:13.45 | 251947 | 266466
11 | 59:12.67 | 4:20.20 | 266467 | 285986


Range status and errors

Selected range

Filename C:\Users\Meijin\Desktop\ALLexxess\Emerson Lake & Palmer\1977 Works Volume 1 (2 x 7'' Mini LP PT-SHM K2HD Victor Japan 2014)\CD2\Emerson Lake & Palmer - Works Volume 1 PT-SHM 2.wav

Peak level 100.0 %
Extraction speed 7.5 X
Range quality 100.0 %
Test CRC 3DC373F0
Copy CRC 3DC373F0
Copy OK

No errors occurred


AccurateRip summary

Track 1 not present in database
Track 2 not present in database
Track 3 not present in database
Track 4 not present in database
Track 5 not present in database
Track 6 not present in database
Track 7 not present in database
Track 8 not present in database
Track 9 not present in database
Track 10 not present in database
Track 11 not present in database

None of the tracks are present in the AccurateRip database

End of status report

–– CUETools DB Plugin V2.1.4

[CTDB TOCID: KZtLqs9TTxMdXu_UAVhQiJzr1EI-] disk not present in database
Submit result: KZtLqs9TTxMdXu_UAVhQiJzr1EI- has been uploaded


==== Log checksum 79502BB471FD9CAE4D9765F2E81E8DCCE36DFFC3F2B53801F8FEA5F4B2530410 ====

foobar2000 1.2.9 / Dynamic Range Meter 1.1.1
log date: 2015-02-17 22:52:49

––––––––––––––––––––––––––––––––––––––––
Analyzed: Emerson Lake & Palmer / Works Volume 1 PT-SHM 2
––––––––––––––––––––––––––––––––––––––––

DR Peak RMS Duration Track
––––––––––––––––––––––––––––––––––––––––
DR9 0.00 dB -10.42 dB 3:21 01-The Enemy God Dances With The Black Spirits
DR7 0.00 dB -8.32 dB 5:45 02-LA Nights
DR8 0.00 dB -10.04 dB 2:49 03-New Orleans
DR10 -0.17 dB -14.65 dB 1:56 04-Two Part Invention In D Minor
DR8 0.00 dB -9.23 dB 4:02 05-Food For Your Soul
DR6 0.00 dB -7.83 dB 5:09 06-Tank
DR7 0.00 dB -8.63 dB 9:45 07-Fanfare For The Common Man
DR7 0.00 dB -8.55 dB 13:24 08-Pirates
DR7 -1.10 dB -9.69 dB 9:49 09-Tank (Live) / Bonus Track
DR8 -1.06 dB -9.62 dB 3:14 10-The Enemy God Dances With The Black Spirits (Live) / Bonus Track
DR8 -1.10 dB -9.42 dB 4:20 11-Nutrocker (Live) / Bonus Track
––––––––––––––––––––––––––––––––––––––––

Number of tracks: 11
Official DR value: DR8

Samplerate: 44100 Hz
Channels: 2
Bits per sample: 16
Bitrate: 926 kbps
Codec: FLAC

[CUETools log; Date: 13.02.2015 17:54:54; Version: 2.1.4]
[CTDB TOCID: KZtLqs9TTxMdXu_UAVhQiJzr1EI-] found.
Track | CTDB Status
1 | (1/1) Accurately ripped
2 | (1/1) Accurately ripped
3 | (1/1) Accurately ripped
4 | (1/1) Accurately ripped
5 | (1/1) Accurately ripped
6 | (1/1) Accurately ripped
7 | (1/1) Accurately ripped
8 | (1/1) Accurately ripped
9 | (1/1) Accurately ripped
10 | (1/1) Accurately ripped
11 | (1/1) Accurately ripped
[AccurateRip ID: 00171fe1-00d2d92e-950ee50b] disk not present in database.

Track Peak [ CRC32 ] [W/O NULL] [ LOG ]
– 100,0 [3DC373F0] [7F31C31F] CRC32
01 100,0 [0E9F8684] [4B42C6B3]
02 100,0 [971380CB] [8C424E7F]
03 100,0 [AB9270F0] [705041A6]
04 98,0 [F98C6264] [97364D49]
05 100,0 [C279268A] [120E510E]
06 100,0 [35375EE7] [F41285F8]
07 100,0 [19D4ED75] [96B6B3ED]
08 100,0 [2FDF109E] [F2D2A1B9]
09 88,0 [2EFF0BA6] [DFBE6F2E]
10 88,5 [E9EBC941] [167BD56A]
11 88,0 [2821448C] [048C78DA]

Emerson, Lake & Palmer - Works Volume 1 (1977) [Victor, VICP-78027~8, Japan]

All thanks go to ALLexxess

Download Emerson, Lake & Palmer - Works Volume 1 (1977):