Tags
Language
Tags

Emerson, Lake & Palmer - Trilogy (1972) [MFSL, 1995]

Posted By: gribovar
Emerson, Lake & Palmer - Trilogy (1972) [MFSL, 1995]

Emerson, Lake & Palmer - Trilogy (1972) [MFSL, 1995]
EAC Rip | FLAC (image+.cue+log) - 262 MB | Covers - 31 MB
Genre: Progressive Rock | RAR 3% Rec. | Label: Mobile Fidelity Sound Lab (UDCD 621)

After the heavily distorted bass and doomsday church organ of Emerson, Lake & Palmer's debut album, the exhilarating prog rock of epic proportions on Tarkus, and the violent removal of the sacred aura of classical tunes on Pictures at an Exhibition, Trilogy, ELP's fourth album, features the trio settling down in more crowd-pleasing pastures. Actually, the group was gaining in maturity what they lost in raw energy. Every track on this album has been carefully thought, arranged, and performed to perfection, a process that also included some form of sterilization. Greg Lake's acoustic ballad "From the Beginning" put the group on the charts for a second time. The adaptation of Aaron Copland's "Hoedown" also yielded a crowd-pleaser. Prog rock fans had to satisfy themselves with the three-part "The Endless Enigma" and "Trilogy," both very strong but paced compositions. By 1972, Eddie Offord's recording and producing techniques had reached a peak. He provided a lush, comfy finish to the album that made it particularly suited for living-room listening and the FM airwaves.
Tracklist:
01. The Endless Enigma (Part One)
02. Fugue (1:57)
03. The Endless Enigma (Part Two)
04. From The Beginning
05. The Sheriff
06. Hoedown
07. Trilogy
08. Living Sin
09. Abaddon's Bolero

Total time: 42:25

Exact Audio Copy V1.0 beta 3 from 29. August 2011

EAC extraction logfile from 5. September 2012, 23:02

Emerson, Lake & Palmer / Trilogy

Used drive : TEAC CD-W552E Adapter: 1 ID: 0

Read mode : Secure
Utilize accurate stream : Yes
Defeat audio cache : Yes
Make use of C2 pointers : No

Read offset correction : 6
Overread into Lead-In and Lead-Out : No
Fill up missing offset samples with silence : Yes
Delete leading and trailing silent blocks : No
Null samples used in CRC calculations : Yes
Used interface : Installed external ASPI interface

Used output format : User Defined Encoder
Selected bitrate : 32 kBit/s
Quality : Low
Add ID3 tag : No
Command line compressor : C:\Program Files\Exact Audio Copy\FLAC\FLAC.EXE
Additional command line options : -8 -V -T "ARTIST=%artist%" -T "ALBUM=%albumtitle%" -T "DATE=%year%" -T "GENRE=%genre%" -T "COMMENT=EAC FLAC -8" %source%


TOC of the extracted CD

Track | Start | Length | Start sector | End sector
––––––––––––––––––––––––––––-
1 | 0:00.00 | 6:44.12 | 0 | 30311
2 | 6:44.12 | 1:54.45 | 30312 | 38906
3 | 8:38.57 | 2:03.25 | 38907 | 48156
4 | 10:42.07 | 4:16.25 | 48157 | 67381
5 | 14:58.32 | 3:22.70 | 67382 | 82601
6 | 18:21.27 | 3:46.08 | 82602 | 99559
7 | 22:07.35 | 8:54.42 | 99560 | 139651
8 | 31:02.02 | 3:13.48 | 139652 | 154174
9 | 34:15.50 | 8:09.50 | 154175 | 190899


Range status and errors

Selected range

Filename C:\Program Files\BitComet\Downloads\Emerson, Lake & Palmer - Trilogy (1972) {MFSL}\Emerson, Lake & Palmer - Trilogy.wav

Peak level 99.9 %
Extraction speed 6.2 X
Range quality 100.0 %
Test CRC 77C3EC7C
Copy CRC 77C3EC7C
Copy OK

No errors occurred


AccurateRip summary

Track 1 accurately ripped (confidence 4) [631BE9B4] (AR v2)
Track 2 accurately ripped (confidence 4) [5956E8DC] (AR v2)
Track 3 accurately ripped (confidence 4) [F2B4814F] (AR v2)
Track 4 accurately ripped (confidence 4) [836A7E93] (AR v2)
Track 5 accurately ripped (confidence 4) [5F86761E] (AR v2)
Track 6 accurately ripped (confidence 4) [CAD6A575] (AR v2)
Track 7 accurately ripped (confidence 4) [55022345] (AR v2)
Track 8 accurately ripped (confidence 4) [DDA9544D] (AR v2)
Track 9 accurately ripped (confidence 4) [C1716A13] (AR v2)

All tracks accurately ripped

End of status report

==== Log checksum C8BA909BCBDC3CE76F75C3D94D99DFDD715966B5550B3FD4B26DC4F5A1B1F886 ====

[CUETools log; Date: 07.03.2017 3:24:34; Version: 2.1.4]
[CTDB TOCID: hlVihyb61rzs6W5qh3iBaoos3IM-] found.
Track | CTDB Status
1 | (37/37) Accurately ripped
2 | (37/37) Accurately ripped
3 | (37/37) Accurately ripped
4 | (37/37) Accurately ripped
5 | (37/37) Accurately ripped
6 | (37/37) Accurately ripped
7 | (37/37) Accurately ripped
8 | (37/37) Accurately ripped
9 | (37/37) Accurately ripped
[AccurateRip ID: 000cfebf-006054f7-5f09f109] found.
Track [ CRC | V2 ] Status
01 [0da42d29|631be9b4] (23+29/69) Accurately ripped
02 [c2c17796|5956e8dc] (24+29/72) Accurately ripped
03 [a51a5b07|f2b4814f] (23+29/71) Accurately ripped
04 [4401723b|836a7e93] (23+29/71) Accurately ripped
05 [e1e6c89c|5f86761e] (23+29/71) Accurately ripped
06 [b5de5d89|cad6a575] (23+29/71) Accurately ripped
07 [ec670b2b|55022345] (23+29/70) Accurately ripped
08 [95f3c850|dda9544d] (23+29/70) Accurately ripped
09 [6205e29b|c1716a13] (23+29/71) Accurately ripped
Offsetted by -997:
01 [631c32bf] (06/69) Accurately ripped
02 [975cd7c5] (06/72) Accurately ripped
03 [ee4af490] (06/71) Accurately ripped
04 [0fc97ce4] (06/71) Accurately ripped
05 [3667d40b] (06/71) Accurately ripped
06 [06615764] (06/71) Accurately ripped
07 [8254d254] (05/70) Accurately ripped
08 [c2f7c8b2] (05/70) Accurately ripped
09 [0eb422ba] (06/71) Accurately ripped
Offsetted by -66:
01 [88d906c5] (00/69) No match (V2 was not tested)
02 [885a16b9] (00/72) No match (V2 was not tested)
03 [ad0202c0] (00/71) No match (V2 was not tested)
04 [c8615e65] (00/71) No match (V2 was not tested)
05 [c6a102e2] (00/71) No match (V2 was not tested)
06 [b5ce62c7] (00/71) No match (V2 was not tested)
07 [db9f9c55] (00/70) No match (V2 was not tested)
08 [38e67044] (00/70) No match (V2 was not tested)
09 [ae6ac6c1] (00/71) No match (V2 was not tested)
Offsetted by -12:
01 [5ee2f190] (00/69) No match (V2 was not tested)
02 [f8161f04] (02/72) Accurately ripped
03 [c542fc6a] (02/71) Accurately ripped
04 [e7b5cbb7] (02/71) Accurately ripped
05 [0b7d01c0] (02/71) Accurately ripped
06 [417e5e7d] (02/71) Accurately ripped
07 [2f2b82a7] (02/70) Accurately ripped
08 [8508a108] (02/70) Accurately ripped
09 [6fe9aeff] (02/71) Accurately ripped
Offsetted by -6:
01 [b98cabdc] (00/69) No match (V2 was not tested)
02 [dde03574] (00/72) No match (V2 was not tested)
03 [b7b9fc56] (00/71) No match (V2 was not tested)
04 [95db9ef9] (00/71) No match (V2 was not tested)
05 [f6b1e52e] (00/71) No match (V2 was not tested)
06 [fbae5e03] (00/71) No match (V2 was not tested)
07 [8dc946e9] (00/70) No match (V2 was not tested)
08 [8d7e34ac] (00/70) No match (V2 was not tested)
09 [68f7c8cd] (00/71) No match (V2 was not tested)

Track Peak [ CRC32 ] [W/O NULL] [ LOG ]
– 99,9 [77C3EC7C] [0C604F7D] CRC32
01 98,1 [98D1CEAF] [9F1E2F83]
02 55,0 [F0E7604E] [94CC4ED6]
03 89,5 [C4AD00EA] [CD5903D2]
04 80,7 [F5ACDFCE] [EC709F41]
05 91,3 [0F84416A] [A32E5A10]
06 98,8 [622B7E80] [1DA274A3]
07 92,3 [22CA3437] [B11964A6]
08 99,9 [03FB4B79] [E01801E6]
09 98,8 [9D9E9099] [1F54DF24]

Thanks to erro