Subcategories

Emmylou Harris - Spyboy (1998)

Posted By: v3122
Emmylou Harris - Spyboy (1998)

Emmylou Harris - Spyboy (1998)
EAC | Flac(Image) + Cue + Log & MP3 CBR 320Kbps
Eminent Records, EM-25001-2 | ~ 402 or 149 Mb | Scans Included
Country / Country Rock

This live project, which includes the talents of the always great Buddy Miller, is an interesting reflection of an American icon. Eclectic, it is reflective of Emmylou Harris' excursions into areas of music beyond the country and rock spheres she has already conquered. But it is the country arena that best showcases her ever-flowering ability with a song. "I Ain't Living Long Like This" and "Love Hurts" stand out boldly. "Tulsa Queen," a co-write with Rodney Crowell, is an amazing display of her vocal prowess, as is the a cappella "Calling My Children Home." "Boulder to Birmingham" is equally effective in its power and intensity, while Jesse Winchester's "My Songbird" seems to be custom-made for Harris. She delivers in triplicate on the traditional "Green Pastures." Still, even after all these years, there is a transcendent emotional depth and connection when Harris performs "Wheels," a song written by Chris Hillman and Harris' early mentor, Gram Parsons. Her relationship with Parsons is well documented, but it is best evidenced by her performances of the work he left behind, as this performance of "Wheels" proves. An original, she continues to conjure up interesting and diverse vocals, while giving her talented bandmembers the go-ahead to show off their skills as well. This live project is awe-inspiring, much like Emmylou Harris herself.

by Jana Pendragon, allmusic
Emmylou Harris - Spyboy (1998):

Emmylou Harris - Spyboy (1998)

Tracklist:

01. My Songbird (03:30)
02. Where Will I Be (04:21)
03. I Ain t Living Long Like This (04:20)
04. Love Hurts (02:55)
05. Green Pastures (03:05)
06. Deeper Well (07:16)
07. Prayer In Open D (04:02)
08. Calling My Children Home (03:02)
09. Tulsa Queen (04:30)
10. Wheels (03:04)
11. Born To Run (04:44)
12. Boulder To Birmingham (03:21)
13. All My Tears (05:07)
14. The Maker (08:40)

Converted to Image (CUETools 2.1.4)

EAC extraction logfile from 18. June 2009, 21:53 for CD
Emmylou Harris / Spyboy {U.S. Pressing}

Used drive : PLEXTOR CD-R PREMIUM2 Adapter: 1 ID: 0
Read mode : Secure with NO C2, accurate stream, disable cache
Read offset correction : 30
Overread into Lead-In and Lead-Out : Yes

Used output format : C:\Program\FLAC\flac.exe (User Defined Encoder)
128 kBit/s
Additional command line options : -8 -V -T "ARTIST=%a" -T "TITLE=%t" -T "ALBUM=%g" -T "DATE=%y" -T "TRACKNUMBER=%n" -T "TOTALTRACKS=%x" -T "GENRE=%m" -T "ALBUMARTIST=%v" -T "ALBUM ARTIST=%v" -T "COMMENT=EAC V0.95 beta 4, Secure Mode, Te

Other options :
Fill up missing offset samples with silence : Yes
Delete leading and trailing silent blocks : No
Installed external ASPI interface


Track 1
Filename E:\Emmylou Harris - Spyboy (1998) [FLAC] {U.S. Pressing}\01 - My Songbird.wav

Pre-gap length 0:00:02.00

Peak level 90.8 %
Track quality 100.0 %
Test CRC 59720EA0
Copy CRC 59720EA0
Copy OK

Track 2
Filename E:\Emmylou Harris - Spyboy (1998) [FLAC] {U.S. Pressing}\02 - Where Will I Be.wav

Peak level 97.7 %
Track quality 100.0 %
Test CRC BA632AA9
Copy CRC BA632AA9
Copy OK

Track 3
Filename E:\Emmylou Harris - Spyboy (1998) [FLAC] {U.S. Pressing}\03 - I Ain't Living Long Like This.wav

Peak level 97.7 %
Track quality 100.0 %
Test CRC 17F7AAFB
Copy CRC 17F7AAFB
Copy OK

Track 4
Filename E:\Emmylou Harris - Spyboy (1998) [FLAC] {U.S. Pressing}\04 - Love Hurts.wav

Peak level 71.5 %
Track quality 100.0 %
Test CRC B6B48F2B
Copy CRC B6B48F2B
Copy OK

Track 5
Filename E:\Emmylou Harris - Spyboy (1998) [FLAC] {U.S. Pressing}\05 - Green Pastures.wav

Peak level 97.7 %
Track quality 100.0 %
Test CRC 2915519E
Copy CRC 2915519E
Copy OK

Track 6
Filename E:\Emmylou Harris - Spyboy (1998) [FLAC] {U.S. Pressing}\06 - Deeper Well.wav

Peak level 97.7 %
Track quality 100.0 %
Test CRC 3F09B7C5
Copy CRC 3F09B7C5
Copy OK

Track 7
Filename E:\Emmylou Harris - Spyboy (1998) [FLAC] {U.S. Pressing}\07 - Prayer In Open D.wav

Peak level 73.9 %
Track quality 100.0 %
Test CRC 5E7C4D60
Copy CRC 5E7C4D60
Copy OK

Track 8
Filename E:\Emmylou Harris - Spyboy (1998) [FLAC] {U.S. Pressing}\08 - Calling My Children Home.wav

Peak level 92.9 %
Track quality 100.0 %
Test CRC 57456C79
Copy CRC 57456C79
Copy OK

Track 9
Filename E:\Emmylou Harris - Spyboy (1998) [FLAC] {U.S. Pressing}\09 - Tulsa Queen.wav

Peak level 97.7 %
Track quality 100.0 %
Test CRC 65E802D4
Copy CRC 65E802D4
Copy OK

Track 10
Filename E:\Emmylou Harris - Spyboy (1998) [FLAC] {U.S. Pressing}\10 - Wheels.wav

Peak level 97.7 %
Track quality 100.0 %
Test CRC 1296662A
Copy CRC 1296662A
Copy OK

Track 11
Filename E:\Emmylou Harris - Spyboy (1998) [FLAC] {U.S. Pressing}\11 - Born To Run.wav

Peak level 97.7 %
Track quality 100.0 %
Test CRC 47141FB1
Copy CRC 47141FB1
Copy OK

Track 12
Filename E:\Emmylou Harris - Spyboy (1998) [FLAC] {U.S. Pressing}\12 - Boulder To Birmingham.wav

Peak level 97.7 %
Track quality 99.9 %
Test CRC F246EFD3
Copy CRC F246EFD3
Copy OK

Track 13
Filename E:\Emmylou Harris - Spyboy (1998) [FLAC] {U.S. Pressing}\13 - All My Tears.wav

Peak level 97.7 %
Track quality 100.0 %
Test CRC 35D240E9
Copy CRC 35D240E9
Copy OK

Track 14
Filename E:\Emmylou Harris - Spyboy (1998) [FLAC] {U.S. Pressing}\14 - The Maker.wav

Peak level 97.7 %
Track quality 100.0 %
Test CRC 921AE59C
Copy CRC 921AE59C
Copy OK

No errors occured


End of status report

foobar2000 1.2.9 / Dynamic Range Meter 1.1.1
log date: 2017-05-03 15:28:40

––––––––––––––––––––––––––––––––––––––––
Analyzed: Emmylou Harris / Spyboy {U.S. Pressing}
––––––––––––––––––––––––––––––––––––––––

DR Peak RMS Duration Track
––––––––––––––––––––––––––––––––––––––––
DR11 -0.83 dB -15.04 dB 3:30 01-My Songbird
DR9 -0.20 dB -10.67 dB 4:21 02-Where Will I Be
DR8 -0.20 dB -9.89 dB 4:20 03-I Ain't Living Long Like This
DR12 -2.91 dB -17.84 dB 2:55 04-Love Hurts
DR9 -0.20 dB -11.41 dB 3:06 05-Green Pastures
DR7 -0.20 dB -8.84 dB 7:16 06-Deeper Well
DR11 -2.62 dB -17.61 dB 4:02 07-Prayer In Open D
DR11 -0.64 dB -15.26 dB 3:02 08-Calling My Children Home
DR10 -0.20 dB -12.24 dB 4:30 09-Tulsa Queen
DR10 -0.20 dB -11.78 dB 3:05 10-Wheels
DR9 -0.20 dB -10.73 dB 4:44 11-Born To Run
DR11 -0.20 dB -13.89 dB 3:22 12-Boulder To Birmingham
DR10 -0.20 dB -12.23 dB 5:07 13-All My Tears
DR8 -0.20 dB -11.36 dB 8:40 14-The Maker
––––––––––––––––––––––––––––––––––––––––

Number of tracks: 14
Official DR value: DR10

Samplerate: 44100 Hz
Channels: 2
Bits per sample: 16
Bitrate: 874 kbps
Codec: FLAC

[CUETools log; Date: 03.05.2017 15:28:29; Version: 2.1.4]
[CTDB TOCID: nf7MhPdKZJOCSVsxS_DbigFIgO8-] found.
Track | CTDB Status
1 | (56/58) Accurately ripped
2 | (57/58) Accurately ripped
3 | (57/58) Accurately ripped
4 | (57/58) Accurately ripped
5 | (56/58) Accurately ripped
6 | (57/58) Accurately ripped
7 | (57/58) Accurately ripped
8 | (57/58) Accurately ripped
9 | (57/58) Accurately ripped
10 | (56/58) Accurately ripped
11 | (57/58) Accurately ripped
12 | (57/58) Accurately ripped
13 | (56/58) Accurately ripped
14 | (53/58) Accurately ripped
[AccurateRip ID: 001d8863-013dac65-b70e890e] found.
Track [ CRC | V2 ] Status
01 [087e91a0|fe857f91] (058+037/132) Accurately ripped
02 [ab06c193|3fd6958a] (058+038/133) Accurately ripped
03 [d327a520|102a75a3] (058+038/134) Accurately ripped
04 [1ab73462|f79cee3d] (057+038/132) Accurately ripped
05 [44dd3382|57800a17] (057+038/132) Accurately ripped
06 [689d5ddb|48b03315] (057+038/132) Accurately ripped
07 [ca29d3b1|a6038d69] (057+038/132) Accurately ripped
08 [7bffb99f|a71c142a] (057+036/129) Accurately ripped
09 [d991f838|36e08a10] (056+038/130) Accurately ripped
10 [18909b9a|ab6bdc8f] (057+037/131) Accurately ripped
11 [f236acf6|5c9a7c87] (057+036/132) Accurately ripped
12 [2a9c2f4f|45508fa8] (058+036/131) Accurately ripped
13 [70fec36d|6683142e] (057+036/131) Accurately ripped
14 [1f478605|100a9cc7] (057+036/128) Accurately ripped
Offsetted by -856:
01 [d1d7df0b] (005/132) Accurately ripped
02 [bee24d4c] (005/133) Accurately ripped
03 [63ed92c7] (005/134) Accurately ripped
04 [5089f204] (005/132) Accurately ripped
05 [ea9662b1] (005/132) Accurately ripped
06 [95d8363a] (005/132) Accurately ripped
07 [c3436611] (005/132) Accurately ripped
08 [4cf00d8b] (004/129) Accurately ripped
09 [6bd4c9ad] (005/130) Accurately ripped
10 [065386ba] (005/131) Accurately ripped
11 [d34b538a] (005/132) Accurately ripped
12 [3fbcf615] (005/131) Accurately ripped
13 [fedc124a] (005/131) Accurately ripped
14 [402459ba] (004/128) Accurately ripped
Offsetted by -669:
01 [14dbc7d0] (015/132) Accurately ripped
02 [94ea0141] (015/133) Accurately ripped
03 [9e708088] (016/134) Accurately ripped
04 [d64b53f0] (015/132) Accurately ripped
05 [9dc0567f] (015/132) Accurately ripped
06 [74f9322b] (015/132) Accurately ripped
07 [c7660dc5] (015/132) Accurately ripped
08 [33e7ee9d] (015/129) Accurately ripped
09 [fa214ac1] (014/130) Accurately ripped
10 [4bbeb521] (015/131) Accurately ripped
11 [17f8830b] (017/132) Accurately ripped
12 [a3fd0b1a] (015/131) Accurately ripped
13 [9449d802] (016/131) Accurately ripped
14 [dcb9d989] (016/128) Accurately ripped

Track Peak [ CRC32 ] [W/O NULL] [ LOG ]
– 97,7 [C9E1F9C5] [2881FA32]
01 90,8 [59720EA0] [A082DDBF] CRC32
02 97,7 [BA632AA9] [02245A2B] CRC32
03 97,7 [17F7AAFB] [EDAAB315] CRC32
04 71,5 [B6B48F2B] [3044BDFB] CRC32
05 97,7 [2915519E] [9899F22D] CRC32
06 97,7 [3F09B7C5] [F0673233] CRC32
07 73,9 [5E7C4D60] [97A7FDF6] CRC32
08 92,9 [57456C79] [B2E66614] CRC32
09 97,7 [65E802D4] [28443A35] CRC32
10 97,7 [1296662A] [7BA06F2D] CRC32
11 97,7 [47141FB1] [61FE793C] CRC32
12 97,7 [F246EFD3] [3D767F98] CRC32
13 97,7 [35D240E9] [8778352A] CRC32
14 97,7 [921AE59C] [1660DCE6] CRC32

Emmylou Harris - Spyboy (1998)

All thanks go to the original releaser

Emmylou Harris in my Blog

Download Emmylou Harris - Spyboy (1998):