Tags
Language
Tags

Enam - 4 Studio Albums (2001-2006)

Posted By: gribovar
Enam - 4 Studio Albums (2001-2006)

Enam - 4 Studio Albums (2001-2006)
EAC Rip | FLAC (tracks+.cue+log) - 1,17 GB | MP3 CBR 320 kbps (LAME 3.93) - 487 MB | Covers - 703 MB
Genre: New Age, Celtic, Enigmatic | RAR 3% Rec. | Label: Oreade Music

A wide variety of songs, ranging from relaxing to more upbeat Celtic folk songs. Featuring multilayered vocals, strings piano, harp, cello, tin whistles, horns, percussion, harpsichord, flute, oboe, guirars, keyboards.
Enam was born in 1975. His mother inspired him musically at an early age with her singing in a choir and her playing the accordion, organ and guitar. Enam started experimenting with these instruments and the two sang harmonies together. After an orientation in various musical styles he happened upon African music and started playing djembe. An interest in ethnic as well as ethereal music grew. Enam started composing at the age of 21 after he purchased his first synth. More and more instrumental and vocal possibilities came about. His compositions contain combinations of pronounced sounds evoking a special atmosphere. A magical experience suitable for relaxation, meditation and other healing arts.

Enam - 4 Studio Albums (2001-2006)

Enam - m'Anchelii (2001)
EAC Rip | FLAC (tracks+.cue+log) - 279 MB | MP3 CBR 320 kbps (LAME 3.93) - 127 MB | Covers - 183 MB
Genre: New Age, Celtic, Enigmatic | RAR 3% Rec. | Label: Oreade Music (ORS 60682)

Tracklist:
01. m'Anchelii
02. Misereatori
03. Eribanda Reo d'Or
04. Socata del Siero
05. Elian
06. Yemba
07. Your Wings Touching the Source
08. Way Down the Hills, Searching in Emptiness
09. Yellow Shades Turning Blue
10. The Ground You Never Reached Beneath
11. Voices We Were
12. Longing for Ashira
13. Haugtiness You Gave Whenever I Denied the Gods
14. Thallia Sum Vinergo
15. Kyrie
16. La Nuit Des Elfes

Total time: 54:10

Exact Audio Copy V1.0 beta 3 from 29. August 2011

EAC extraction logfile from 29. March 2015, 8:35

Enam / m'Anchelii

Used drive : ASUS DRW-24F1ST a Adapter: 2 ID: 0

Read mode : Secure
Utilize accurate stream : Yes
Defeat audio cache : Yes
Make use of C2 pointers : No

Read offset correction : 6
Overread into Lead-In and Lead-Out : No
Fill up missing offset samples with silence : Yes
Delete leading and trailing silent blocks : No
Null samples used in CRC calculations : Yes
Used interface : Native Win32 interface for Win NT & 2000
Gap handling : Appended to previous track

Used output format : User Defined Encoder
Selected bitrate : 1024 kBit/s
Quality : High
Add ID3 tag : No
Command line compressor : C:\Program Files (x86)\Exact Audio Copy\Flac\flac.exe
Additional command line options : -8 -V -T "COMMENT=ripped by DrStandBy special for new-team.org" -T "ARTIST=%artist%" -T "TITLE=%title%" -T "ALBUM=%albumtitle%" -T "DATE=%year%" -T "TRACKNUMBER=%tracknr%" -T "GENRE=%genre%" %source%


TOC of the extracted CD

Track | Start | Length | Start sector | End sector
––––––––––––––––––––––––––––-
1 | 0:00.00 | 3:52.25 | 0 | 17424
2 | 3:52.25 | 4:30.12 | 17425 | 37686
3 | 8:22.37 | 3:55.05 | 37687 | 55316
4 | 12:17.42 | 4:51.05 | 55317 | 77146
5 | 17:08.47 | 3:12.35 | 77147 | 91581
6 | 20:21.07 | 3:12.05 | 91582 | 105986
7 | 23:33.12 | 3:52.10 | 105987 | 123396
8 | 27:25.22 | 3:15.73 | 123397 | 138094
9 | 30:41.20 | 3:36.50 | 138095 | 154344
10 | 34:17.70 | 3:39.45 | 154345 | 170814
11 | 37:57.40 | 1:09.20 | 170815 | 176009
12 | 39:06.60 | 2:31.60 | 176010 | 187394
13 | 41:38.45 | 3:36.40 | 187395 | 203634
14 | 45:15.10 | 1:29.45 | 203635 | 210354
15 | 46:44.55 | 2:53.27 | 210355 | 223356
16 | 49:38.07 | 4:31.65 | 223357 | 243746


Track 1

Filename I:\Enam\2001 - m'Anchelii (ORS 60682)\01. Enam - m'Anchelii.wav

Pre-gap length 0:00:02.00

Peak level 97.6 %
Extraction speed 1.7 X
Track quality 100.0 %
Test CRC A85DD645
Copy CRC A85DD645
Accurately ripped (confidence 1) [A4C63EA4] (AR v1)
Copy OK

Track 2

Filename I:\Enam\2001 - m'Anchelii (ORS 60682)\02. Enam - Misereatori.wav

Pre-gap length 0:00:02.03

Peak level 88.4 %
Extraction speed 2.0 X
Track quality 100.0 %
Test CRC A0813519
Copy CRC A0813519
Accurately ripped (confidence 1) [25115406] (AR v1)
Copy OK

Track 3

Filename I:\Enam\2001 - m'Anchelii (ORS 60682)\03. Enam - Eribanda Reo d'Or.wav

Pre-gap length 0:00:01.62

Peak level 100.0 %
Extraction speed 1.8 X
Track quality 99.9 %
Test CRC C2D67A31
Copy CRC C2D67A31
Accurately ripped (confidence 1) [67AFE37A] (AR v1)
Copy OK

Track 4

Filename I:\Enam\2001 - m'Anchelii (ORS 60682)\04. Enam - Socata del Siero.wav

Pre-gap length 0:00:01.65

Peak level 76.3 %
Extraction speed 2.4 X
Track quality 100.0 %
Test CRC 6870C924
Copy CRC 6870C924
Accurately ripped (confidence 1) [FB29F5E6] (AR v1)
Copy OK

Track 5

Filename I:\Enam\2001 - m'Anchelii (ORS 60682)\05. Enam - Elian.wav

Pre-gap length 0:00:01.01

Peak level 92.3 %
Extraction speed 2.4 X
Track quality 100.0 %
Test CRC F3F129B8
Copy CRC F3F129B8
Accurately ripped (confidence 1) [5BE1DA46] (AR v1)
Copy OK

Track 6

Filename I:\Enam\2001 - m'Anchelii (ORS 60682)\06. Enam - Yemba.wav

Pre-gap length 0:00:00.72

Peak level 80.6 %
Extraction speed 2.5 X
Track quality 100.0 %
Test CRC 1CE0B741
Copy CRC 1CE0B741
Accurately ripped (confidence 1) [89A451E5] (AR v1)
Copy OK

Track 7

Filename I:\Enam\2001 - m'Anchelii (ORS 60682)\07. Enam - Your Wings Touching the Source.wav

Pre-gap length 0:00:01.33

Peak level 87.1 %
Extraction speed 2.7 X
Track quality 100.0 %
Test CRC 356B9469
Copy CRC 356B9469
Accurately ripped (confidence 1) [A191E244] (AR v1)
Copy OK

Track 8

Filename I:\Enam\2001 - m'Anchelii (ORS 60682)\08. Enam - Way Down the Hills, Searching in Emptiness.wav

Pre-gap length 0:00:01.62

Peak level 71.5 %
Extraction speed 2.7 X
Track quality 100.0 %
Test CRC 95EC3A2A
Copy CRC 95EC3A2A
Accurately ripped (confidence 1) [26ABA4F7] (AR v1)
Copy OK

Track 9

Filename I:\Enam\2001 - m'Anchelii (ORS 60682)\09. Enam - Yellow Shades Turning Blue.wav

Pre-gap length 0:00:01.25

Peak level 73.8 %
Extraction speed 2.9 X
Track quality 100.0 %
Test CRC E473AB30
Copy CRC E473AB30
Accurately ripped (confidence 1) [D78AD4AC] (AR v1)
Copy OK

Track 10

Filename I:\Enam\2001 - m'Anchelii (ORS 60682)\10. Enam - The Ground You Never Reached Beneath.wav

Pre-gap length 0:00:01.25

Peak level 91.0 %
Extraction speed 3.0 X
Track quality 100.0 %
Test CRC F56E7E35
Copy CRC F56E7E35
Accurately ripped (confidence 1) [1508A602] (AR v1)
Copy OK

Track 11

Filename I:\Enam\2001 - m'Anchelii (ORS 60682)\11. Enam - Voices We Were.wav

Pre-gap length 0:00:01.66

Peak level 95.5 %
Extraction speed 2.2 X
Track quality 100.0 %
Test CRC D16C952D
Copy CRC D16C952D
Accurately ripped (confidence 1) [DF29BFC9] (AR v1)
Copy OK

Track 12

Filename I:\Enam\2001 - m'Anchelii (ORS 60682)\12. Enam - Longing for Ashira.wav

Pre-gap length 0:00:01.64

Peak level 73.3 %
Extraction speed 2.9 X
Track quality 100.0 %
Test CRC 282F2F45
Copy CRC 282F2F45
Accurately ripped (confidence 1) [5D267D90] (AR v1)
Copy OK

Track 13

Filename I:\Enam\2001 - m'Anchelii (ORS 60682)\13. Enam - Haugtiness You Gave Whenever I Denied the Gods.wav

Pre-gap length 0:00:01.65

Peak level 89.5 %
Extraction speed 3.2 X
Track quality 100.0 %
Test CRC DF9AD213
Copy CRC DF9AD213
Accurately ripped (confidence 1) [79A120AE] (AR v1)
Copy OK

Track 14

Filename I:\Enam\2001 - m'Anchelii (ORS 60682)\14. Enam - Thallia Sum Vinergo.wav

Pre-gap length 0:00:01.65

Peak level 94.9 %
Extraction speed 1.5 X
Track quality 99.8 %
Test CRC 0C72448D
Copy CRC 0C72448D
Accurately ripped (confidence 1) [57854344] (AR v1)
Copy OK

Track 15

Filename I:\Enam\2001 - m'Anchelii (ORS 60682)\15. Enam - Kyrie.wav

Pre-gap length 0:00:01.63

Peak level 82.9 %
Extraction speed 3.1 X
Track quality 100.0 %
Test CRC F57F1B64
Copy CRC F57F1B64
Accurately ripped (confidence 1) [1243B361] (AR v1)
Copy OK

Track 16

Filename I:\Enam\2001 - m'Anchelii (ORS 60682)\16. Enam - La Nuit Des Elfes.wav

Pre-gap length 0:00:01.62

Peak level 86.8 %
Extraction speed 3.5 X
Track quality 100.0 %
Test CRC D7F2617E
Copy CRC D7F2617E
Accurately ripped (confidence 1) [74645F7B] (AR v1)
Copy OK


All tracks accurately ripped

No errors occurred

End of status report

–– CUETools DB Plugin V2.1.4

[CTDB TOCID: aU_EFSA5_2dqc9N_ok6vbNd5Qvc-] found
Submit result: aU_EFSA5_2dqc9N_ok6vbNd5Qvc- has been confirmed
Track | CTDB Status
1 | (1/1) Accurately ripped
2 | (1/1) Accurately ripped
3 | (1/1) Accurately ripped
4 | (1/1) Accurately ripped
5 | (1/1) Accurately ripped
6 | (1/1) Accurately ripped
7 | (1/1) Accurately ripped
8 | (1/1) Accurately ripped
9 | (1/1) Accurately ripped
10 | (1/1) Accurately ripped
11 | (1/1) Accurately ripped
12 | (1/1) Accurately ripped
13 | (1/1) Accurately ripped
14 | (1/1) Accurately ripped
15 | (1/1) Accurately ripped
16 | (1/1) Accurately ripped


==== Log checksum 89A0A8077690C0F475CE1119EC72F7F8FEC587B59556154445498EC40D7EF758 ====

[CUETools log; Date: 14.04.2020 14:54:01; Version: 2.1.4]
[CTDB TOCID: aU_EFSA5_2dqc9N_ok6vbNd5Qvc-] found.
Track | CTDB Status
1 | (9/9) Accurately ripped
2 | (9/9) Accurately ripped
3 | (9/9) Accurately ripped
4 | (9/9) Accurately ripped
5 | (9/9) Accurately ripped
6 | (9/9) Accurately ripped
7 | (9/9) Accurately ripped
8 | (9/9) Accurately ripped
9 | (9/9) Accurately ripped
10 | (9/9) Accurately ripped
11 | (9/9) Accurately ripped
12 | (9/9) Accurately ripped
13 | (9/9) Accurately ripped
14 | (9/9) Accurately ripped
15 | (9/9) Accurately ripped
16 | (9/9) Accurately ripped
[AccurateRip ID: 0021d168-018c47d3-d00cb110] found.
Track [ CRC | V2 ] Status
01 [a4c63ea4|622be1cd] (0+3/3) Accurately ripped
02 [25115406|ca192009] (0+3/3) Accurately ripped
03 [67afe37a|858b8f06] (0+3/3) Accurately ripped
04 [fb29f5e6|570477cc] (0+3/3) Accurately ripped
05 [5be1da46|6b134a4c] (0+3/3) Accurately ripped
06 [89a451e5|eb94c2f3] (0+3/3) Accurately ripped
07 [a191e244|63cfda0e] (0+3/3) Accurately ripped
08 [26aba4f7|9c8809a0] (0+3/3) Accurately ripped
09 [d78ad4ac|0f9d7076] (0+3/3) Accurately ripped
10 [1508a602|f7853fa0] (0+3/3) Accurately ripped
11 [df29bfc9|492a64e3] (0+3/3) Accurately ripped
12 [5d267d90|1f8a0cfc] (0+3/3) Accurately ripped
13 [79a120ae|ee4baf0b] (0+3/3) Accurately ripped
14 [57854344|9ac07e86] (0+3/3) Accurately ripped
15 [1243b361|b78be5c4] (0+3/3) Accurately ripped
16 [74645f7b|34833ef3] (0+3/3) Accurately ripped

Track Peak [ CRC32 ] [W/O NULL] [ LOG ]
– 100,0 [F54D1B9E] [DC5E48B9]
01 97,6 [A85DD645] [9762E129] CRC32
02 88,4 [A0813519] [CFBD3896] CRC32
03 100,0 [C2D67A31] [5B7388E4] CRC32
04 76,3 [6870C924] [492FA713] CRC32
05 92,3 [F3F129B8] [52BC4463] CRC32
06 80,6 [1CE0B741] [CC44E631] CRC32
07 87,1 [356B9469] [F39B3246] CRC32
08 71,5 [95EC3A2A] [40EDEF5B] CRC32
09 73,8 [E473AB30] [A33FDE38] CRC32
10 91,0 [F56E7E35] [834EE5F7] CRC32
11 95,5 [D16C952D] [651EEFDB] CRC32
12 73,3 [282F2F45] [B668BA65] CRC32
13 89,5 [DF9AD213] [844ED973] CRC32
14 94,9 [0C72448D] [FB6CE3B9] CRC32
15 82,9 [F57F1B64] [533807E0] CRC32
16 86,8 [D7F2617E] [0ED1D631] CRC32

Enam - 4 Studio Albums (2001-2006)

Enam - Purple and Gold (2003)
EAC Rip | FLAC (tracks+.cue+log) - 316 MB | MP3 CBR 320 kbps (LAME 3.93) - 122 MB | Covers - 184 MB
Genre: New Age, Celtic, Enigmatic | RAR 3% Rec. | Label: Oreade Music (OMM 61892)

Tracklist:
01. Shields
02. Purple and Gold
03. Arinya
04. Wings of the Warrior
05. First Human Feeling
06. Dha 'Mara
07. The Wherryman
08. Ishmael
09. Sights of Men
10. Nishra's Dance
11. The Way She Moved
12. Leaving For The Heat
13. Indenite Flow
14. I Lost You at Last

Total time: 51:44

Exact Audio Copy V1.0 beta 3 from 29. August 2011

EAC extraction logfile from 28. March 2015, 23:56

Enam / Purple and Gold

Used drive : ASUS DRW-24F1ST a Adapter: 2 ID: 0

Read mode : Secure
Utilize accurate stream : Yes
Defeat audio cache : Yes
Make use of C2 pointers : No

Read offset correction : 6
Overread into Lead-In and Lead-Out : No
Fill up missing offset samples with silence : Yes
Delete leading and trailing silent blocks : No
Null samples used in CRC calculations : Yes
Used interface : Native Win32 interface for Win NT & 2000
Gap handling : Appended to previous track

Used output format : User Defined Encoder
Selected bitrate : 1024 kBit/s
Quality : High
Add ID3 tag : No
Command line compressor : C:\Program Files (x86)\Exact Audio Copy\Flac\flac.exe
Additional command line options : -8 -V -T "COMMENT=ripped by DrStandBy special for new-team.org" -T "ARTIST=%artist%" -T "TITLE=%title%" -T "ALBUM=%albumtitle%" -T "DATE=%year%" -T "TRACKNUMBER=%tracknr%" -T "GENRE=%genre%" %source%


TOC of the extracted CD

Track | Start | Length | Start sector | End sector
––––––––––––––––––––––––––––-
1 | 0:00.00 | 4:20.47 | 0 | 19546
2 | 4:20.47 | 3:57.58 | 19547 | 37379
3 | 8:18.30 | 4:37.40 | 37380 | 58194
4 | 12:55.70 | 2:27.52 | 58195 | 69271
5 | 15:23.47 | 3:55.65 | 69272 | 86961
6 | 19:19.37 | 3:31.63 | 86962 | 102849
7 | 22:51.25 | 2:39.10 | 102850 | 114784
8 | 25:30.35 | 4:10.62 | 114785 | 133596
9 | 29:41.22 | 4:18.08 | 133597 | 152954
10 | 33:59.30 | 3:19.12 | 152955 | 167891
11 | 37:18.42 | 3:44.15 | 167892 | 184706
12 | 41:02.57 | 2:41.28 | 184707 | 196809
13 | 43:44.10 | 2:26.05 | 196810 | 207764
14 | 46:10.15 | 5:33.27 | 207765 | 232766


Track 1

Filename I:\Enam\2003 - Purple and Gold (OMM 61892)\01. Enam - Shields.wav

Pre-gap length 0:00:02.00

Peak level 100.0 %
Extraction speed 1.6 X
Track quality 99.9 %
Test CRC FDFC0CD7
Copy CRC FDFC0CD7
Accurately ripped (confidence 2) [BEFC8226] (AR v1)
Copy OK

Track 2

Filename I:\Enam\2003 - Purple and Gold (OMM 61892)\02. Enam - Purple and Gold.wav

Pre-gap length 0:00:02.72

Peak level 100.0 %
Extraction speed 2.0 X
Track quality 100.0 %
Test CRC 65982E20
Copy CRC 65982E20
Accurately ripped (confidence 2) [185DE9D1] (AR v1)
Copy OK

Track 3

Filename I:\Enam\2003 - Purple and Gold (OMM 61892)\03. Enam - Arinya.wav

Pre-gap length 0:00:02.73

Peak level 100.0 %
Extraction speed 1.9 X
Track quality 99.9 %
Test CRC FC9C3012
Copy CRC FC9C3012
Accurately ripped (confidence 2) [49CEFB44] (AR v1)
Copy OK

Track 4

Filename I:\Enam\2003 - Purple and Gold (OMM 61892)\04. Enam - Wings of the Warrior.wav

Pre-gap length 0:00:02.73

Peak level 100.0 %
Extraction speed 1.6 X
Track quality 99.9 %
Test CRC 60FC902F
Copy CRC 60FC902F
Accurately ripped (confidence 2) [6CDE83A1] (AR v1)
Copy OK

Track 5

Filename I:\Enam\2003 - Purple and Gold (OMM 61892)\05. Enam - First Human Feeling.wav

Peak level 96.5 %
Extraction speed 2.4 X
Track quality 100.0 %
Test CRC 197DA869
Copy CRC 197DA869
Accurately ripped (confidence 2) [CEC903D3] (AR v1)
Copy OK

Track 6

Filename I:\Enam\2003 - Purple and Gold (OMM 61892)\06. Enam - Dha 'Mara.wav

Pre-gap length 0:00:02.72

Peak level 99.4 %
Extraction speed 2.0 X
Track quality 99.9 %
Test CRC 818C67C0
Copy CRC 818C67C0
Accurately ripped (confidence 2) [6EC47C77] (AR v1)
Copy OK

Track 7

Filename I:\Enam\2003 - Purple and Gold (OMM 61892)\07. Enam - The Wherryman.wav

Pre-gap length 0:00:02.73

Peak level 99.9 %
Extraction speed 2.5 X
Track quality 100.0 %
Test CRC 54EA6260
Copy CRC 54EA6260
Accurately ripped (confidence 2) [67890374] (AR v1)
Copy OK

Track 8

Filename I:\Enam\2003 - Purple and Gold (OMM 61892)\08. Enam - Ishmael.wav

Pre-gap length 0:00:02.73

Peak level 99.1 %
Extraction speed 2.8 X
Track quality 100.0 %
Test CRC D772B566
Copy CRC D772B566
Accurately ripped (confidence 2) [5D221068] (AR v1)
Copy OK

Track 9

Filename I:\Enam\2003 - Purple and Gold (OMM 61892)\09. Enam - Sights of Men.wav

Pre-gap length 0:00:02.72

Peak level 100.0 %
Extraction speed 2.9 X
Track quality 100.0 %
Test CRC E636ACDD
Copy CRC E636ACDD
Accurately ripped (confidence 2) [7C078882] (AR v1)
Copy OK

Track 10

Filename I:\Enam\2003 - Purple and Gold (OMM 61892)\10. Enam - Nishra's Dance.wav

Pre-gap length 0:00:02.73

Peak level 100.0 %
Extraction speed 2.9 X
Track quality 100.0 %
Test CRC 43A32E1A
Copy CRC 43A32E1A
Accurately ripped (confidence 2) [1E169748] (AR v1)
Copy OK

Track 11

Filename I:\Enam\2003 - Purple and Gold (OMM 61892)\11. Enam - The Way She Moved.wav

Pre-gap length 0:00:02.72

Peak level 99.3 %
Extraction speed 3.1 X
Track quality 100.0 %
Test CRC 7EA196B4
Copy CRC 7EA196B4
Accurately ripped (confidence 2) [ECBD471B] (AR v1)
Copy OK

Track 12

Filename I:\Enam\2003 - Purple and Gold (OMM 61892)\12. Enam - Leaving For The Heat.wav

Pre-gap length 0:00:02.72

Peak level 99.6 %
Extraction speed 2.9 X
Track quality 100.0 %
Test CRC C33283D3
Copy CRC C33283D3
Accurately ripped (confidence 2) [65603746] (AR v1)
Copy OK

Track 13

Filename I:\Enam\2003 - Purple and Gold (OMM 61892)\13. Enam - Indenite Flow.wav

Pre-gap length 0:00:02.73

Peak level 98.9 %
Extraction speed 2.0 X
Track quality 99.9 %
Test CRC 216F62A1
Copy CRC 216F62A1
Accurately ripped (confidence 2) [EA9D5A40] (AR v1)
Copy OK

Track 14

Filename I:\Enam\2003 - Purple and Gold (OMM 61892)\14. Enam - I Lost You at Last.wav

Pre-gap length 0:00:02.73

Peak level 99.6 %
Extraction speed 3.5 X
Track quality 100.0 %
Test CRC 8F20B0E7
Copy CRC 8F20B0E7
Accurately ripped (confidence 1) [D2F5E37D] (AR v1)
Copy OK


All tracks accurately ripped

No errors occurred

End of status report

–– CUETools DB Plugin V2.1.4

[CTDB TOCID: 9.bzAwRktuDylv.kVo0LzQkzAN8-] disk not present in database
Submit result: 9.bzAwRktuDylv.kVo0LzQkzAN8- has been uploaded


==== Log checksum 3B27433143F59C79683D3183DDC232622F5B3D4316E30D5A5E5647994DC59BF3 ====

[CUETools log; Date: 14.04.2020 14:54:58; Version: 2.1.4]
[CTDB TOCID: 9.bzAwRktuDylv.kVo0LzQkzAN8-] found.
Track | CTDB Status
1 | (1/1) Accurately ripped
2 | (1/1) Accurately ripped
3 | (1/1) Accurately ripped
4 | (1/1) Accurately ripped
5 | (1/1) Accurately ripped
6 | (1/1) Accurately ripped
7 | (1/1) Accurately ripped
8 | (1/1) Accurately ripped
9 | (1/1) Accurately ripped
10 | (1/1) Accurately ripped
11 | (1/1) Accurately ripped
12 | (1/1) Accurately ripped
13 | (1/1) Accurately ripped
14 | (1/1) Accurately ripped
[AccurateRip ID: 001af06c-011c7d75-ac0c1f0e] found.
Track [ CRC | V2 ] Status
01 [befc8226|60410932] (2+0/2) Accurately ripped
02 [185de9d1|e431078e] (2+0/2) Accurately ripped
03 [49cefb44|3b1fb1f3] (2+0/2) Accurately ripped
04 [6cde83a1|5d73533f] (2+0/2) Accurately ripped
05 [cec903d3|9ee158ab] (2+0/2) Accurately ripped
06 [6ec47c77|19193ba9] (2+0/2) Accurately ripped
07 [67890374|e38271f0] (2+0/2) Accurately ripped
08 [5d221068|ceff52db] (2+0/2) Accurately ripped
09 [7c078882|0bad983d] (2+0/2) Accurately ripped
10 [1e169748|45377afe] (2+0/2) Accurately ripped
11 [ecbd471b|04da3860] (2+0/2) Accurately ripped
12 [65603746|a8251d50] (2+0/2) Accurately ripped
13 [ea9d5a40|54e63c4c] (2+0/2) Accurately ripped
14 [d2f5e37d|cc803b55] (1+1/3) Accurately ripped

Track Peak [ CRC32 ] [W/O NULL] [ LOG ]
– 100,0 [92B09278] [E98E3A38]
01 100,0 [FDFC0CD7] [242384B0] CRC32
02 100,0 [65982E20] [1EC196F7] CRC32
03 100,0 [FC9C3012] [60062971] CRC32
04 100,0 [60FC902F] [EE172723] CRC32
05 96,5 [197DA869] [CE575856] CRC32
06 99,4 [818C67C0] [2AE9F73A] CRC32
07 99,9 [54EA6260] [75075DA2] CRC32
08 99,1 [D772B566] [A4C2E9FD] CRC32
09 100,0 [E636ACDD] [9D02B59F] CRC32
10 100,0 [43A32E1A] [FD4E8992] CRC32
11 99,3 [7EA196B4] [D9064C37] CRC32
12 99,6 [C33283D3] [B31CCAAF] CRC32
13 98,9 [216F62A1] [2A775F53] CRC32
14 99,6 [8F20B0E7] [E91E7B27] CRC32

Enam - 4 Studio Albums (2001-2006)

Enam - Secret Worlds (2004)
EAC Rip | FLAC (tracks+.cue+log) - 309 MB | MP3 CBR 320 kbps (LAME 3.93) - 122 MB | Covers - 184 MB
Genre: New Age, Celtic, Enigmatic | RAR 3% Rec. | Label: Oreade Music (ORM 62642)

Tracklist:
01. I'm Calito
02. Her eyes are Homes
03. La Carisso Le de
04. To go Beyond
05. Fairytale
06. River
07. For a long time to go
08. I'll be gone
09. Ri Camtara
10. The Secret Place
11. Remy
12. Dance from Calito
13. A Candle in Darkness
14. Where is the Answer
15. Winterchild

Total time: 51:50

Exact Audio Copy V1.0 beta 3 from 29. August 2011

EAC extraction logfile from 28. March 2015, 22:51

Enam / Secret Worlds

Used drive : ASUS DRW-24F1ST a Adapter: 2 ID: 0

Read mode : Secure
Utilize accurate stream : Yes
Defeat audio cache : Yes
Make use of C2 pointers : No

Read offset correction : 6
Overread into Lead-In and Lead-Out : No
Fill up missing offset samples with silence : Yes
Delete leading and trailing silent blocks : No
Null samples used in CRC calculations : Yes
Used interface : Native Win32 interface for Win NT & 2000
Gap handling : Appended to previous track

Used output format : User Defined Encoder
Selected bitrate : 1024 kBit/s
Quality : High
Add ID3 tag : No
Command line compressor : C:\Program Files (x86)\Exact Audio Copy\Flac\flac.exe
Additional command line options : -8 -V -T "COMMENT=ripped by DrStandBy special for new-team.org" -T "ARTIST=%artist%" -T "TITLE=%title%" -T "ALBUM=%albumtitle%" -T "DATE=%year%" -T "TRACKNUMBER=%tracknr%" -T "GENRE=%genre%" %source%


TOC of the extracted CD

Track | Start | Length | Start sector | End sector
––––––––––––––––––––––––––––-
1 | 0:00.00 | 3:26.52 | 0 | 15501
2 | 3:26.52 | 4:42.45 | 15502 | 36696
3 | 8:09.22 | 2:46.50 | 36697 | 49196
4 | 10:55.72 | 4:10.20 | 49197 | 67966
5 | 15:06.17 | 2:24.33 | 67967 | 78799
6 | 17:30.50 | 4:35.30 | 78800 | 99454
7 | 22:06.05 | 3:13.32 | 99455 | 113961
8 | 25:19.37 | 3:47.28 | 113962 | 131014
9 | 29:06.65 | 2:45.55 | 131015 | 143444
10 | 31:52.45 | 1:59.30 | 143445 | 152399
11 | 33:52.00 | 2:41.67 | 152400 | 164541
12 | 36:33.67 | 4:14.65 | 164542 | 183656
13 | 40:48.57 | 2:41.25 | 183657 | 195756
14 | 43:30.07 | 4:01.40 | 195757 | 213871
15 | 47:31.47 | 4:17.70 | 213872 | 233216


Track 1

Filename I:\Enam\2005 - Secret Worlds (ORM 62642)\01. Enam - I'm Calito.wav

Pre-gap length 0:00:02.00

Peak level 99.9 %
Extraction speed 1.7 X
Track quality 100.0 %
Test CRC BCA1A3F8
Copy CRC BCA1A3F8
Accurately ripped (confidence 2) [7889AF98] (AR v1)
Copy OK

Track 2

Filename I:\Enam\2005 - Secret Worlds (ORM 62642)\02. Enam - Her eyes are Homes.wav

Pre-gap length 0:00:04.07

Peak level 92.4 %
Extraction speed 2.0 X
Track quality 100.0 %
Test CRC 136DE842
Copy CRC 136DE842
Accurately ripped (confidence 2) [DDB90CFE] (AR v1)
Copy OK

Track 3

Filename I:\Enam\2005 - Secret Worlds (ORM 62642)\03. Enam - La Carisso Le de.wav

Pre-gap length 0:00:04.20

Peak level 99.9 %
Extraction speed 1.6 X
Track quality 99.9 %
Test CRC BD0DC9ED
Copy CRC BD0DC9ED
Accurately ripped (confidence 2) [329DC88E] (AR v1)
Copy OK

Track 4

Filename I:\Enam\2005 - Secret Worlds (ORM 62642)\04. Enam - To go Beyond.wav

Pre-gap length 0:00:03.57

Peak level 92.4 %
Extraction speed 2.3 X
Track quality 100.0 %
Test CRC D788D861
Copy CRC D788D861
Accurately ripped (confidence 2) [5E913016] (AR v1)
Copy OK

Track 5

Filename I:\Enam\2005 - Secret Worlds (ORM 62642)\05. Enam - Fairytale.wav

Pre-gap length 0:00:03.10

Peak level 97.9 %
Extraction speed 1.7 X
Track quality 99.9 %
Test CRC F5A1941A
Copy CRC F5A1941A
Accurately ripped (confidence 2) [10E2356F] (AR v1)
Copy OK

Track 6

Filename I:\Enam\2005 - Secret Worlds (ORM 62642)\06. Enam - River.wav

Pre-gap length 0:00:03.50

Peak level 97.9 %
Extraction speed 2.6 X
Track quality 100.0 %
Test CRC 514CE84F
Copy CRC 514CE84F
Accurately ripped (confidence 2) [7B7BF350] (AR v1)
Copy OK

Track 7

Filename I:\Enam\2005 - Secret Worlds (ORM 62642)\07. Enam - For a long time to go.wav

Pre-gap length 0:00:03.08

Peak level 92.4 %
Extraction speed 2.5 X
Track quality 100.0 %
Test CRC C20C2327
Copy CRC C20C2327
Accurately ripped (confidence 2) [342DC017] (AR v1)
Copy OK

Track 8

Filename I:\Enam\2005 - Secret Worlds (ORM 62642)\08. Enam - I`ll be gone.wav

Pre-gap length 0:00:04.20

Peak level 97.9 %
Extraction speed 2.2 X
Track quality 99.9 %
Test CRC 728E03A2
Copy CRC 728E03A2
Accurately ripped (confidence 2) [E43880CA] (AR v1)
Copy OK

Track 9

Filename I:\Enam\2005 - Secret Worlds (ORM 62642)\09. Enam - Ri Camtara.wav

Pre-gap length 0:00:03.30

Peak level 97.9 %
Extraction speed 2.7 X
Track quality 100.0 %
Test CRC 816F74D4
Copy CRC 816F74D4
Accurately ripped (confidence 2) [A0BD9F5D] (AR v1)
Copy OK

Track 10

Filename I:\Enam\2005 - Secret Worlds (ORM 62642)\10. Enam - The Secret Place.wav

Pre-gap length 0:00:03.68

Peak level 87.3 %
Extraction speed 2.6 X
Track quality 100.0 %
Test CRC B69F1E71
Copy CRC B69F1E71
Accurately ripped (confidence 2) [345176AB] (AR v1)
Copy OK

Track 11

Filename I:\Enam\2005 - Secret Worlds (ORM 62642)\11. Enam - Remy.wav

Pre-gap length 0:00:02.13

Peak level 97.9 %
Extraction speed 2.8 X
Track quality 100.0 %
Test CRC 2556F3D8
Copy CRC 2556F3D8
Accurately ripped (confidence 2) [B2C53EA4] (AR v1)
Copy OK

Track 12

Filename I:\Enam\2005 - Secret Worlds (ORM 62642)\12. Enam - Dance from Calito.wav

Pre-gap length 0:00:04.17

Peak level 97.9 %
Extraction speed 3.1 X
Track quality 100.0 %
Test CRC 317577A7
Copy CRC 317577A7
Accurately ripped (confidence 2) [50E7E45C] (AR v1)
Copy OK

Track 13

Filename I:\Enam\2005 - Secret Worlds (ORM 62642)\13. Enam - A Candle in Darkness.wav

Pre-gap length 0:00:03.52

Peak level 92.4 %
Extraction speed 2.1 X
Track quality 99.9 %
Test CRC 3FA5DD07
Copy CRC 3FA5DD07
Accurately ripped (confidence 2) [D3C6A302] (AR v1)
Copy OK

Track 14

Filename I:\Enam\2005 - Secret Worlds (ORM 62642)\14. Enam - Where is the Answer.wav

Pre-gap length 0:00:03.27

Peak level 97.9 %
Extraction speed 3.3 X
Track quality 100.0 %
Test CRC BD87AC45
Copy CRC BD87AC45
Accurately ripped (confidence 2) [9582F130] (AR v1)
Copy OK

Track 15

Filename I:\Enam\2005 - Secret Worlds (ORM 62642)\15. Enam - Winterchild.wav

Pre-gap length 0:00:03.30

Peak level 99.9 %
Extraction speed 3.4 X
Track quality 100.0 %
Test CRC 4571951A
Copy CRC 4571951A
Accurately ripped (confidence 2) [5DB07D33] (AR v1)
Copy OK


All tracks accurately ripped

No errors occurred

End of status report

–– CUETools DB Plugin V2.1.4

[CTDB TOCID: Lq_giyPUwcsDKqt.L6URW1bRQ6o-] disk not present in database
Submit result: Lq_giyPUwcsDKqt.L6URW1bRQ6o- has been uploaded


==== Log checksum AB6FC27AF70A8881CD694A2EE7B0EAB34DBFF9C21FEEEC023D83455A6AEDA85A ====

[CUETools log; Date: 14.04.2020 14:56:07; Version: 2.1.4]
[CTDB TOCID: Lq_giyPUwcsDKqt.L6URW1bRQ6o-] found.
Track | CTDB Status
1 | (1/1) Accurately ripped
2 | (1/1) Accurately ripped
3 | (1/1) Accurately ripped
4 | (1/1) Accurately ripped
5 | (1/1) Accurately ripped
6 | (1/1) Accurately ripped
7 | (1/1) Accurately ripped
8 | (1/1) Accurately ripped
9 | (1/1) Accurately ripped
10 | (1/1) Accurately ripped
11 | (1/1) Accurately ripped
12 | (1/1) Accurately ripped
13 | (1/1) Accurately ripped
14 | (1/1) Accurately ripped
15 | (1/1) Accurately ripped
[AccurateRip ID: 001cadbd-0141d114-c10c250f] found.
Track [ CRC | V2 ] Status
01 [7889af98|c44409c0] (2+0/2) Accurately ripped
02 [ddb90cfe|faf535d8] (2+0/2) Accurately ripped
03 [329dc88e|d41e25c4] (2+0/2) Accurately ripped
04 [5e913016|5e045db1] (2+0/2) Accurately ripped
05 [10e2356f|aeb54d3c] (2+0/2) Accurately ripped
06 [7b7bf350|6bcce0a5] (2+0/2) Accurately ripped
07 [342dc017|af6f1678] (2+0/2) Accurately ripped
08 [e43880ca|9aa24663] (2+0/2) Accurately ripped
09 [a0bd9f5d|ae9002a3] (2+0/2) Accurately ripped
10 [345176ab|30ba3cab] (2+0/2) Accurately ripped
11 [b2c53ea4|d8d2b323] (2+0/2) Accurately ripped
12 [50e7e45c|feb07a76] (2+0/2) Accurately ripped
13 [d3c6a302|e8fe7ae6] (2+0/2) Accurately ripped
14 [9582f130|8b1a8da2] (2+0/2) Accurately ripped
15 [5db07d33|07d5d9b5] (2+0/2) Accurately ripped

Track Peak [ CRC32 ] [W/O NULL] [ LOG ]
– 99,9 [DA89820A] [E9385192]
01 99,9 [BCA1A3F8] [801185F3] CRC32
02 92,4 [136DE842] [3DBF4EE1] CRC32
03 99,9 [BD0DC9ED] [A6B0222D] CRC32
04 92,4 [D788D861] [291A5F9C] CRC32
05 97,9 [F5A1941A] [E684B7E7] CRC32
06 97,9 [514CE84F] [37433143] CRC32
07 92,4 [C20C2327] [ABDE3678] CRC32
08 97,9 [728E03A2] [B9189967] CRC32
09 97,9 [816F74D4] [0CF402B7] CRC32
10 87,3 [B69F1E71] [7C8A2A3D] CRC32
11 97,9 [2556F3D8] [4B53FEA7] CRC32
12 97,9 [317577A7] [72DF1E9D] CRC32
13 92,4 [3FA5DD07] [1B3ADE95] CRC32
14 97,9 [BD87AC45] [1FEAF20D] CRC32
15 99,9 [4571951A] [E835FACC] CRC32

Enam - 4 Studio Albums (2001-2006)

Enam - Luna Magistra (2006)
EAC Rip | FLAC (tracks+.cue+log) - 273 MB | MP3 CBR 320 kbps (LAME 3.93) - 116 MB | Covers - 152 MB
Genre: New Age, Celtic, Enigmatic | RAR 3% Rec. | Label: Oreade Music (ORM 62962)

Tracklist:
01. White as the Sun
02. Luna Magistra
03. World of Solemn Light
04. The Spirit that Remembers
05. Hope
06. Farewell to Lorien
07. The Old Stoic
08. The Fall of Lascamor
09. Lacoura Massorio
10. Dreaming all the While
11. The Minstrel
12. The Hidden Ghost
13. Silent Air
14. Shades of Twilight
15. Night Wind

Total time: 49:34

Exact Audio Copy V1.0 beta 3 from 29. August 2011

EAC extraction logfile from 28. March 2015, 21:23

Enam / Luna Magistra

Used drive : ASUS DRW-24F1ST a Adapter: 2 ID: 0

Read mode : Secure
Utilize accurate stream : Yes
Defeat audio cache : Yes
Make use of C2 pointers : No

Read offset correction : 6
Overread into Lead-In and Lead-Out : No
Fill up missing offset samples with silence : Yes
Delete leading and trailing silent blocks : No
Null samples used in CRC calculations : Yes
Used interface : Native Win32 interface for Win NT & 2000
Gap handling : Appended to previous track

Used output format : User Defined Encoder
Selected bitrate : 1024 kBit/s
Quality : High
Add ID3 tag : No
Command line compressor : C:\Program Files (x86)\Exact Audio Copy\Flac\flac.exe
Additional command line options : -8 -V -T "COMMENT=ripped by DrStandBy special for new-team.org" -T "ARTIST=%artist%" -T "TITLE=%title%" -T "ALBUM=%albumtitle%" -T "DATE=%year%" -T "TRACKNUMBER=%tracknr%" -T "GENRE=%genre%" %source%


TOC of the extracted CD

Track | Start | Length | Start sector | End sector
––––––––––––––––––––––––––––-
1 | 0:00.00 | 3:40.27 | 0 | 16526
2 | 3:40.27 | 3:41.05 | 16527 | 33106
3 | 7:21.32 | 3:08.64 | 33107 | 47270
4 | 10:30.21 | 3:46.56 | 47271 | 64276
5 | 14:17.02 | 3:51.29 | 64277 | 81630
6 | 18:08.31 | 2:58.31 | 81631 | 95011
7 | 21:06.62 | 4:16.61 | 95012 | 114272
8 | 25:23.48 | 2:33.64 | 114273 | 125811
9 | 27:57.37 | 3:14.37 | 125812 | 140398
10 | 31:11.74 | 3:39.16 | 140399 | 156839
11 | 34:51.15 | 2:41.15 | 156840 | 168929
12 | 37:32.30 | 2:52.53 | 168930 | 181882
13 | 40:25.08 | 3:20.62 | 181883 | 196944
14 | 43:45.70 | 4:05.18 | 196945 | 215337
15 | 47:51.13 | 1:42.50 | 215338 | 223037


Track 1

Filename I:\Enam\2007 - Luna Magistra (ORM 62962)\01. Enam - White as the Sun.wav

Pre-gap length 0:00:02.00

Peak level 73.3 %
Extraction speed 1.7 X
Track quality 100.0 %
Test CRC DABBC0ED
Copy CRC DABBC0ED
Accurately ripped (confidence 2) [672FF80B] (AR v2)
Copy OK

Track 2

Filename I:\Enam\2007 - Luna Magistra (ORM 62962)\02. Enam - Luna Magistra.wav

Pre-gap length 0:00:02.00

Peak level 70.9 %
Extraction speed 1.6 X
Track quality 99.9 %
Test CRC E884A5F5
Copy CRC E884A5F5
Accurately ripped (confidence 2) [9540240A] (AR v2)
Copy OK

Track 3

Filename I:\Enam\2007 - Luna Magistra (ORM 62962)\03. Enam - World of Solemn Light.wav

Pre-gap length 0:00:02.00

Peak level 74.8 %
Extraction speed 2.0 X
Track quality 100.0 %
Test CRC 2BEB7F52
Copy CRC 2BEB7F52
Accurately ripped (confidence 2) [FE6DB7E3] (AR v2)
Copy OK

Track 4

Filename I:\Enam\2007 - Luna Magistra (ORM 62962)\04. Enam - The Spirit that Remembers.wav

Pre-gap length 0:00:02.00

Peak level 76.3 %
Extraction speed 1.9 X
Track quality 99.9 %
Test CRC 707A9521
Copy CRC 707A9521
Accurately ripped (confidence 2) [B2F1D63C] (AR v2)
Copy OK

Track 5

Filename I:\Enam\2007 - Luna Magistra (ORM 62962)\05. Enam - Hope.wav

Pre-gap length 0:00:02.00

Peak level 63.2 %
Extraction speed 2.0 X
Track quality 99.9 %
Test CRC DFDFA046
Copy CRC DFDFA046
Accurately ripped (confidence 2) [C2A6108A] (AR v2)
Copy OK

Track 6

Filename I:\Enam\2007 - Luna Magistra (ORM 62962)\06. Enam - Farewell to Lorien.wav

Pre-gap length 0:00:02.00

Peak level 72.4 %
Extraction speed 2.4 X
Track quality 100.0 %
Test CRC ABBD884B
Copy CRC ABBD884B
Accurately ripped (confidence 2) [4FD64D93] (AR v2)
Copy OK

Track 7

Filename I:\Enam\2007 - Luna Magistra (ORM 62962)\07. Enam - The Old Stoic.wav

Pre-gap length 0:00:02.00

Peak level 67.2 %
Extraction speed 2.6 X
Track quality 100.0 %
Test CRC D713B27B
Copy CRC D713B27B
Accurately ripped (confidence 2) [19C93EB9] (AR v2)
Copy OK

Track 8

Filename I:\Enam\2007 - Luna Magistra (ORM 62962)\08. Enam - The Fall of Lascamor.wav

Pre-gap length 0:00:02.00

Peak level 74.7 %
Extraction speed 2.5 X
Track quality 100.0 %
Test CRC 580838F4
Copy CRC 580838F4
Accurately ripped (confidence 2) [846B4CA2] (AR v2)
Copy OK

Track 9

Filename I:\Enam\2007 - Luna Magistra (ORM 62962)\09. Enam - Lacoura Massorio.wav

Pre-gap length 0:00:02.00

Peak level 65.9 %
Extraction speed 2.7 X
Track quality 100.0 %
Test CRC 9ED02B1F
Copy CRC 9ED02B1F
Accurately ripped (confidence 2) [739525C8] (AR v2)
Copy OK

Track 10

Filename I:\Enam\2007 - Luna Magistra (ORM 62962)\10. Enam - Dreaming all the While.wav

Pre-gap length 0:00:02.00

Peak level 60.9 %
Extraction speed 2.9 X
Track quality 100.0 %
Test CRC 873E452E
Copy CRC 873E452E
Accurately ripped (confidence 2) [AFE3A005] (AR v2)
Copy OK

Track 11

Filename I:\Enam\2007 - Luna Magistra (ORM 62962)\11. Enam - The Minstrel.wav

Pre-gap length 0:00:02.00

Peak level 78.0 %
Extraction speed 2.8 X
Track quality 100.0 %
Test CRC 7694E14A
Copy CRC 7694E14A
Accurately ripped (confidence 2) [0A3BE030] (AR v2)
Copy OK

Track 12

Filename I:\Enam\2007 - Luna Magistra (ORM 62962)\12. Enam - The Hidden Ghost.wav

Pre-gap length 0:00:02.00

Peak level 79.0 %
Extraction speed 3.0 X
Track quality 100.0 %
Test CRC C87687FF
Copy CRC C87687FF
Accurately ripped (confidence 2) [42095E63] (AR v2)
Copy OK

Track 13

Filename I:\Enam\2007 - Luna Magistra (ORM 62962)\13. Enam - Silent Air.wav

Pre-gap length 0:00:02.00

Peak level 68.2 %
Extraction speed 2.3 X
Track quality 99.9 %
Test CRC 7918F9F6
Copy CRC 7918F9F6
Accurately ripped (confidence 1) [48E69010] (AR v2)
Copy OK

Track 14

Filename I:\Enam\2007 - Luna Magistra (ORM 62962)\14. Enam - Shades of Twilight.wav

Pre-gap length 0:00:02.00

Peak level 69.3 %
Extraction speed 3.3 X
Track quality 100.0 %
Test CRC 1F6439B9
Copy CRC 1F6439B9
Accurately ripped (confidence 2) [8F7D595E] (AR v2)
Copy OK

Track 15

Filename I:\Enam\2007 - Luna Magistra (ORM 62962)\15. Enam - Night Wind.wav

Pre-gap length 0:00:02.00

Peak level 67.9 %
Extraction speed 2.8 X
Track quality 100.0 %
Test CRC 6356A864
Copy CRC 6356A864
Accurately ripped (confidence 2) [83F87FBE] (AR v2)
Copy OK


All tracks accurately ripped

No errors occurred

End of status report

–– CUETools DB Plugin V2.1.4

[CTDB TOCID: 9sVY82cHOOMdGqKNIQV7R5EAdao-] found
Submit result: 9sVY82cHOOMdGqKNIQV7R5EAdao- has been uploaded
Track | CTDB Status
1 | (1/1) Accurately ripped
2 | (1/1) Accurately ripped
3 | (1/1) Accurately ripped
4 | (1/1) Accurately ripped
5 | (1/1) Accurately ripped
6 | (1/1) Accurately ripped
7 | (1/1) Accurately ripped
8 | (1/1) Accurately ripped
9 | (1/1) Accurately ripped
10 | (1/1) Accurately ripped
11 | (1/1) Accurately ripped
12 | (1/1) Accurately ripped
13 | (1/1) Differs in 18 samples @00:25:56,00:29:38,02:23:10
14 | (1/1) Accurately ripped
15 | (1/1) Accurately ripped
If you are sure that your rip contains errors, you can use CUETools to repair it.


==== Log checksum C99D505C6181CE4908CF7C6A823E89A0F67CCE2241A798B4C47002CF8CC303F3 ====

[CUETools log; Date: 14.04.2020 14:57:18; Version: 2.1.4]
[CTDB TOCID: 9sVY82cHOOMdGqKNIQV7R5EAdao-] found.
Track | CTDB Status
1 | (3/3) Accurately ripped
2 | (3/3) Accurately ripped
3 | (3/3) Accurately ripped
4 | (3/3) Accurately ripped
5 | (3/3) Accurately ripped
6 | (3/3) Accurately ripped
7 | (3/3) Accurately ripped
8 | (3/3) Accurately ripped
9 | (3/3) Accurately ripped
10 | (3/3) Accurately ripped
11 | (3/3) Accurately ripped
12 | (3/3) Accurately ripped
13 | (2/3) Accurately ripped
14 | (3/3) Accurately ripped
15 | (3/3) Accurately ripped
[AccurateRip ID: 001c66a3-013f3a98-d50b9d0f] found.
Track [ CRC | V2 ] Status
01 [d8c71bae|672ff80b] (0+3/3) Accurately ripped
02 [17e1df62|9540240a] (0+3/3) Accurately ripped
03 [799c2d97|fe6db7e3] (0+3/3) Accurately ripped
04 [1e83e04c|b2f1d63c] (0+3/3) Accurately ripped
05 [8dacb508|c2a6108a] (0+3/3) Accurately ripped
06 [e99a6575|4fd64d93] (0+3/3) Accurately ripped
07 [5ccb5ff9|19c93eb9] (0+3/3) Accurately ripped
08 [8423e85a|846b4ca2] (0+3/3) Accurately ripped
09 [baf6da7b|739525c8] (0+3/3) Accurately ripped
10 [78093111|afe3a005] (0+3/3) Accurately ripped
11 [11c27867|0a3be030] (0+3/3) Accurately ripped
12 [ac609cb0|42095e63] (0+3/3) Accurately ripped
13 [927d6859|48e69010] (0+2/2) Accurately ripped
14 [1cfc0ca4|8f7d595e] (0+3/3) Accurately ripped
15 [6d534760|83f87fbe] (0+3/3) Accurately ripped

Track Peak [ CRC32 ] [W/O NULL] [ LOG ]
– 79,0 [3CA16B6B] [FD1A3279]
01 73,3 [DABBC0ED] [5D3E6948] CRC32
02 70,9 [E884A5F5] [A836B0B6] CRC32
03 74,8 [2BEB7F52] [318FB4BA] CRC32
04 76,3 [707A9521] [698821A7] CRC32
05 63,2 [DFDFA046] [83D5328E] CRC32
06 72,4 [ABBD884B] [7E961503] CRC32
07 67,2 [D713B27B] [4B0D605A] CRC32
08 74,7 [580838F4] [5D4552C8] CRC32
09 65,9 [9ED02B1F] [CBB3151A] CRC32
10 60,9 [873E452E] [E65B474A] CRC32
11 78,0 [7694E14A] [CA69B2B6] CRC32
12 79,0 [C87687FF] [65BA84E1] CRC32
13 68,2 [7918F9F6] [4C8160F9] CRC32
14 69,3 [1F6439B9] [2BDCC55A] CRC32
15 67,9 [6356A864] [353271F0] CRC32

Thanks to DrStandBy