Subcategories

Enchantment - Sunshine: The Enchantment Anthology (1975-1984) [2CD] (2017)

Posted By: BlondStyle
Enchantment - Sunshine: The Enchantment Anthology (1975-1984) [2CD] (2017)

Enchantment - Sunshine: The Enchantment Anthology (1975-1984) [2CD] (2017)
R&B, Soul/Funk, Electronic, Disco | EAC Rip | FLAC, Tracks+CUE+LOG+Partial Scans (JPG) | 02:38:17 | 1,08 Gb
Label: Big Break Records (UK) | Cat.# CDBBRD0371 | Released: 2017-07-28
Enchantment - Sunshine: The Enchantment Anthology (1975-1984) [2CD] (2017)

Enchantment remain one of the most played R&B groups from the 1970’s on the R&B quiet storm format radio in the United States. "Sunshine: The Enchantment Anthology (1975-1984)" is the first ever 2CD collection of the group and includes all of their chart singles. Enchantment were formed in 1967 at Pershing High School in Detroit and secured their first recording contract two years later by winning first place in a talent contest sponsored by Detroit’s WCHB radio station. In 1970 Enchantment joined the renowned talent agency Artists International and developed their song and stage craft through the early seventies performing throughout the Detroit area. This period culminated in the group recording the soundtrack for the movie Deliver Us From Evil. A single from the soundtrack, ‘Call On Me’, was released on Polydor in 1975. The following year Enchantment released their eponymous debut LP on Roadshow Records which kick started a great run of success and the release of further albums over the following few years which spawned the singles ‘Gloria’ (R&B #5) and ‘Sunshine’ (R&B #3), ‘It’s You That I Need’ topped the R&B chart in 1978 and ‘If You’re Ready (Here It Comes)’ gained them a further disco audience and peaked at R&B #14. After more hits on Roadshow like ‘Where Do We Go From Here’ (R&B # 29), the group signed with Columbia Records in 1982 and issued two albums with a more progressive electronic R&B feel, enjoying further R&B chart singles with ‘I Know Your Hot Spot’ and ‘Don’t Fight The Feeling’. Big Break Records proudly presents "Sunshine: The Enchantment Anthology (1975-1984)", the first ever Anthology issued on the group. Newly remastered and presented in a super-jewel case, complete with liner notes, the collection is a must for all Philly Soul, Funk and Disco fans.
~Cherry Red Records

Enchantment - Sunshine: The Enchantment Anthology (1975-1984) [2CD] (2017)

Enchantment - Sunshine: The Enchantment Anthology (1975-1984) [2CD] (2017)




Release of this 2CD-Set: 2017, July, 28 [CDs Big Break Records (UK), Cat.# CDBBRD0371 / UPC: 5013929067134]
℗ 1976, 1977, 1979 & 1980 Roadshow.
Licensed courtesy of Altra Moda Music B.V.
Disc 1, track 1: ℗ 1975 Universal Records, a Division of UMG Recordings, Inc.
Licensed courtesy of Universal Music Enterprises.
Disc 2, tracks 6-15 ℗ 1982, 1983 Columbia Records, a division of Sony Music Entertainment.
Licensed courtesy of Sony Music Entertainment UK Limited.
This compilation © 2017 Big Break Records.
Marketed and distributed by Cherry Red Records
Made in EC/MCPS


Credits:

Compilation Producer, Sequenced By – Wayne A. Dickson
Liner Notes [December 2016], Research – Malcolm McKenzie


Tracklist:

Disc 1

01. Call On Me (From ‘Deliver Us From Evil’) (03:29)
02. Come On And Ride (04:24)
03. Hold On (06:29)
04. Gloria (05:38)
05. Sunshine (04:53)
06. Dance To The Music (04:04)
07. Thank You Girl For Loving Me (03:56)
08. It’S You That I Need (06:02)
09. If You’Re Ready (Here It Comes) (04:45)
10. Trying To Get Over (With You) (05:55)
11. Angel In My Life (03:47)
12. Silly Love Song (04:57)
13. Anyway You Want It (03:19)
14. Where Do We Go From Here (04:23)
15. Oasis Of Love (03:47)
16. Forever More (05:17)
17. Magnetic Feel (04:38)

Disc 2

01. Settin' It Out (06:47)
02. Moment Of Weakness (03:47)
03. I Can't Be the One (03:09)
04. I Believe In You (05:08)
05. You And Me (05:05)
06. I Know Your Hot Spot (07:11)
07. Only You (06:31)
08. I Can't Forget You (06:25)
09. Enchanted Lady (05:23)
10. Toe Jammin' (05:46)
11. Here's Your Chance (05:47)
12. Don't Fight The Feeling (04:44)
13. Love Struck (05:00)
14. I'm Dreaming (04:14)
15. Somebody's Loving You (03:36)

Exact Audio Copy V1.3 from 2. September 2016

EAC extraction logfile from 20. September 2018, 10:46

Enchantment / Sunshine: The Enchantment Anthology 1975-1984

Used drive : PLEXTOR PX-891SAF Adapter: 1 ID: 0

Read mode : Secure
Utilize accurate stream : Yes
Defeat audio cache : Yes
Make use of C2 pointers : No

Read offset correction : 6
Overread into Lead-In and Lead-Out : No
Fill up missing offset samples with silence : Yes
Delete leading and trailing silent blocks : No
Null samples used in CRC calculations : Yes
Used interface : Native Win32 interface for Win NT & 2000
Gap handling : Appended to previous track

Used output format : User Defined Encoder
Selected bitrate : 1024 kBit/s
Quality : High
Add ID3 tag : No
Command line compressor : C:\Program Files (x86)\Exact Audio Copy\Flac\flac.exe
Additional command line options : -8 -V -T "ARTIST=%artist%" -T "TITLE=%title%" -T "ALBUM=%albumtitle%" -T "DATE=%year%" -T "TRACKNUMBER=%tracknr%" -T "GENRE=%genre%" -T "PERFORMER=%albuminterpret%" -T "COMPOSER=%composer%" %haslyrics%–tag-from-file=LYRICS="%lyricsfile%"%haslyrics% -T "ALBUMARTIST=%albumartist%" -T "DISCNUMBER=%cdnumber%" -T "TOTALDISCS=%totalcds%" -T "TOTALTRACKS=%numtracks%" -T "COMMENT=%comment%" %source% -o %dest%


TOC of the extracted CD

Track | Start | Length | Start sector | End sector
––––––––––––––––––––––––––––-
1 | 0:00.00 | 3:29.22 | 0 | 15696
2 | 3:29.22 | 4:24.12 | 15697 | 35508
3 | 7:53.34 | 6:28.57 | 35509 | 64665
4 | 14:22.16 | 5:38.34 | 64666 | 90049
5 | 20:00.50 | 4:52.67 | 90050 | 112016
6 | 24:53.42 | 4:03.60 | 112017 | 130301
7 | 28:57.27 | 3:55.67 | 130302 | 147993
8 | 32:53.19 | 6:02.04 | 147994 | 175147
9 | 38:55.23 | 4:45.14 | 175148 | 196536
10 | 43:40.37 | 5:55.20 | 196537 | 223181
11 | 49:35.57 | 3:47.00 | 223182 | 240206
12 | 53:22.57 | 4:57.11 | 240207 | 262492
13 | 58:19.68 | 3:18.55 | 262493 | 277397
14 | 61:38.48 | 4:22.62 | 277398 | 297109
15 | 66:01.35 | 3:46.60 | 297110 | 314119
16 | 69:48.20 | 5:16.54 | 314120 | 337873
17 | 75:04.74 | 4:38.22 | 337874 | 358745


Track 1

Filename D:\Rotterdam 2018 II\Enchantment - Sunshine (The Enchantment Anthology)\cd 1\01. Enchantment - Call On Me (From ‘Deliver Us From Evil’).wav

Pre-gap length 0:00:02.00

Peak level 95.5 %
Extraction speed 5.6 X
Track quality 100.0 %
Test CRC 22BB5F83
Copy CRC 22BB5F83
Accurately ripped (confidence 2) [9FF6E922] (AR v2)
Copy OK

Track 2

Filename D:\Rotterdam 2018 II\Enchantment - Sunshine (The Enchantment Anthology)\cd 1\02. Enchantment - Come On And Ride.wav

Pre-gap length 0:00:01.98

Peak level 94.7 %
Extraction speed 6.3 X
Track quality 100.0 %
Test CRC 3BB88030
Copy CRC 3BB88030
Accurately ripped (confidence 2) [F0CFEF84] (AR v2)
Copy OK

Track 3

Filename D:\Rotterdam 2018 II\Enchantment - Sunshine (The Enchantment Anthology)\cd 1\03. Enchantment - Hold On.wav

Pre-gap length 0:00:01.98

Peak level 95.5 %
Extraction speed 6.3 X
Track quality 99.9 %
Test CRC 71848044
Copy CRC 71848044
Accurately ripped (confidence 2) [330B29FA] (AR v2)
Copy OK

Track 4

Filename D:\Rotterdam 2018 II\Enchantment - Sunshine (The Enchantment Anthology)\cd 1\04. Enchantment - Gloria.wav

Pre-gap length 0:00:01.98

Peak level 93.2 %
Extraction speed 7.7 X
Track quality 100.0 %
Test CRC 6659F00C
Copy CRC 6659F00C
Accurately ripped (confidence 2) [17499900] (AR v2)
Copy OK

Track 5

Filename D:\Rotterdam 2018 II\Enchantment - Sunshine (The Enchantment Anthology)\cd 1\05. Enchantment - Sunshine.wav

Pre-gap length 0:00:01.98

Peak level 95.5 %
Extraction speed 7.9 X
Track quality 100.0 %
Test CRC 4045FAC5
Copy CRC 4045FAC5
Accurately ripped (confidence 2) [4EC4C734] (AR v2)
Copy OK

Track 6

Filename D:\Rotterdam 2018 II\Enchantment - Sunshine (The Enchantment Anthology)\cd 1\06. Enchantment - Dance To The Music.wav

Pre-gap length 0:00:01.98

Peak level 95.5 %
Extraction speed 8.2 X
Track quality 100.0 %
Test CRC F589FD7A
Copy CRC F589FD7A
Accurately ripped (confidence 2) [CC80310B] (AR v2)
Copy OK

Track 7

Filename D:\Rotterdam 2018 II\Enchantment - Sunshine (The Enchantment Anthology)\cd 1\07. Enchantment - Thank You Girl For Loving Me.wav

Pre-gap length 0:00:01.98

Peak level 92.4 %
Extraction speed 8.5 X
Track quality 100.0 %
Test CRC 2412D91F
Copy CRC 2412D91F
Accurately ripped (confidence 2) [7464997E] (AR v2)
Copy OK

Track 8

Filename D:\Rotterdam 2018 II\Enchantment - Sunshine (The Enchantment Anthology)\cd 1\08. Enchantment - It’S You That I Need.wav

Pre-gap length 0:00:01.98

Peak level 95.5 %
Extraction speed 9.3 X
Track quality 100.0 %
Test CRC D1DCA240
Copy CRC D1DCA240
Accurately ripped (confidence 2) [3B0ABABF] (AR v2)
Copy OK

Track 9

Filename D:\Rotterdam 2018 II\Enchantment - Sunshine (The Enchantment Anthology)\cd 1\09. Enchantment - If You’Re Ready (Here It Comes).wav

Pre-gap length 0:00:01.97

Peak level 95.5 %
Extraction speed 8.1 X
Track quality 99.9 %
Test CRC F2A2DDBD
Copy CRC F2A2DDBD
Accurately ripped (confidence 2) [C53C45CD] (AR v2)
Copy OK

Track 10

Filename D:\Rotterdam 2018 II\Enchantment - Sunshine (The Enchantment Anthology)\cd 1\10. Enchantment - Trying To Get Over (With You).wav

Pre-gap length 0:00:01.98

Peak level 95.5 %
Extraction speed 9.9 X
Track quality 100.0 %
Test CRC 0448FB63
Copy CRC 0448FB63
Accurately ripped (confidence 2) [BE4913ED] (AR v2)
Copy OK

Track 11

Filename D:\Rotterdam 2018 II\Enchantment - Sunshine (The Enchantment Anthology)\cd 1\11. Enchantment - Angel In My Life.wav

Pre-gap length 0:00:01.98

Peak level 95.5 %
Extraction speed 10.1 X
Track quality 100.0 %
Test CRC D749ECC3
Copy CRC D749ECC3
Accurately ripped (confidence 2) [AB63F350] (AR v2)
Copy OK

Track 12

Filename D:\Rotterdam 2018 II\Enchantment - Sunshine (The Enchantment Anthology)\cd 1\12. Enchantment - Silly Love Song.wav

Pre-gap length 0:00:02.00

Peak level 95.4 %
Extraction speed 9.0 X
Track quality 99.9 %
Test CRC 6F3C696C
Copy CRC 6F3C696C
Accurately ripped (confidence 2) [1D746A39] (AR v2)
Copy OK

Track 13

Filename D:\Rotterdam 2018 II\Enchantment - Sunshine (The Enchantment Anthology)\cd 1\13. Enchantment - Anyway You Want It.wav

Pre-gap length 0:00:01.98

Peak level 95.5 %
Extraction speed 10.4 X
Track quality 100.0 %
Test CRC 3874C14F
Copy CRC 3874C14F
Accurately ripped (confidence 2) [13EBD7B1] (AR v2)
Copy OK

Track 14

Filename D:\Rotterdam 2018 II\Enchantment - Sunshine (The Enchantment Anthology)\cd 1\14. Enchantment - Where Do We Go From Here.wav

Pre-gap length 0:00:01.98

Peak level 95.5 %
Extraction speed 11.0 X
Track quality 100.0 %
Test CRC 136CC901
Copy CRC 136CC901
Accurately ripped (confidence 2) [ADEA1554] (AR v2)
Copy OK

Track 15

Filename D:\Rotterdam 2018 II\Enchantment - Sunshine (The Enchantment Anthology)\cd 1\15. Enchantment - Oasis Of Love.wav

Pre-gap length 0:00:02.00

Peak level 95.5 %
Extraction speed 11.0 X
Track quality 100.0 %
Test CRC E28C6315
Copy CRC E28C6315
Accurately ripped (confidence 2) [28BF4FD9] (AR v2)
Copy OK

Track 16

Filename D:\Rotterdam 2018 II\Enchantment - Sunshine (The Enchantment Anthology)\cd 1\16. Enchantment - Forever More.wav

Pre-gap length 0:00:01.98

Peak level 95.5 %
Extraction speed 9.8 X
Track quality 99.9 %
Test CRC F7324CE9
Copy CRC F7324CE9
Accurately ripped (confidence 2) [1433A359] (AR v2)
Copy OK

Track 17

Filename D:\Rotterdam 2018 II\Enchantment - Sunshine (The Enchantment Anthology)\cd 1\17. Enchantment - Magnetic Feel.wav

Pre-gap length 0:00:02.00

Peak level 95.5 %
Extraction speed 11.5 X
Track quality 100.0 %
Test CRC 975ADF92
Copy CRC 975ADF92
Accurately ripped (confidence 2) [36B8238A] (AR v2)
Copy OK


All tracks accurately ripped

No errors occurred

End of status report

–– CUETools DB Plugin V2.1.6

[CTDB TOCID: IjfzG3Yf9lfjutEZMx1eiochDR8-] found
Submit result: IjfzG3Yf9lfjutEZMx1eiochDR8- has been confirmed
Track | CTDB Status
1 | (3/3) Accurately ripped
2 | (3/3) Accurately ripped
3 | (3/3) Accurately ripped
4 | (3/3) Accurately ripped
5 | (3/3) Accurately ripped
6 | (3/3) Accurately ripped
7 | (3/3) Accurately ripped
8 | (3/3) Accurately ripped
9 | (3/3) Accurately ripped
10 | (3/3) Accurately ripped
11 | (3/3) Accurately ripped
12 | (3/3) Accurately ripped
13 | (3/3) Accurately ripped
14 | (3/3) Accurately ripped
15 | (3/3) Accurately ripped
16 | (3/3) Accurately ripped
17 | (3/3) Accurately ripped


==== Log checksum 7CF4C522273E83C0CACA6A4BC16A84603966C7DB931FB5C369395CCF5BA2A732 ====

––––––––––––––––––––––––––––––––––––––––
Analyzed: Enchantment / Sunshine: The Enchantment Anthology 1975-1984
––––––––––––––––––––––––––––––––––––––––

DR Peak RMS Duration Track
––––––––––––––––––––––––––––––––––––––––
DR13 -0.40 dB -14.39 dB 3:29 01-Call On Me (From ‘Deliver Us From Evil’)
DR11 -0.46 dB -13.03 dB 4:24 02-Come On And Ride
DR11 -0.40 dB -13.06 dB 6:29 03-Hold On
DR11 -0.61 dB -13.65 dB 5:38 04-Gloria
DR11 -0.40 dB -13.71 dB 4:53 05-Sunshine
DR12 -0.40 dB -14.16 dB 4:04 06-Dance To The Music
DR11 -0.68 dB -13.14 dB 3:56 07-Thank You Girl For Loving Me
DR11 -0.40 dB -13.99 dB 6:02 08-It’S You That I Need
DR12 -0.40 dB -14.25 dB 4:45 09-If You’Re Ready (Here It Comes)
DR12 -0.40 dB -13.80 dB 5:55 10-Trying To Get Over (With You)
DR12 -0.40 dB -14.60 dB 3:47 11-Angel In My Life
DR11 -0.40 dB -14.04 dB 4:57 12-Silly Love Song
DR11 -0.40 dB -13.15 dB 3:19 13-Anyway You Want It
DR12 -0.40 dB -14.64 dB 4:23 14-Where Do We Go From Here
DR11 -0.40 dB -14.54 dB 3:47 15-Oasis Of Love
DR12 -0.40 dB -14.53 dB 5:17 16-Forever More
DR12 -0.40 dB -14.22 dB 4:38 17-Magnetic Feel
––––––––––––––––––––––––––––––––––––––––

Number of tracks: 17
Official DR value: DR12

Samplerate: 44100 Hz
Channels: 2
Bits per sample: 16
Bitrate: 955 kbps
Codec: FLAC
================================================================================

Exact Audio Copy V1.3 from 2. September 2016

EAC extraction logfile from 20. September 2018, 10:22

Enchantment / Sunshine: Enchantment Anthology 1975-1984 (Disc 2)

Used drive : PLEXTOR PX-891SAF Adapter: 1 ID: 0

Read mode : Secure
Utilize accurate stream : Yes
Defeat audio cache : Yes
Make use of C2 pointers : No

Read offset correction : 6
Overread into Lead-In and Lead-Out : No
Fill up missing offset samples with silence : Yes
Delete leading and trailing silent blocks : No
Null samples used in CRC calculations : Yes
Used interface : Native Win32 interface for Win NT & 2000
Gap handling : Appended to previous track

Used output format : User Defined Encoder
Selected bitrate : 1024 kBit/s
Quality : High
Add ID3 tag : No
Command line compressor : C:\Program Files (x86)\Exact Audio Copy\Flac\flac.exe
Additional command line options : -8 -V -T "ARTIST=%artist%" -T "TITLE=%title%" -T "ALBUM=%albumtitle%" -T "DATE=%year%" -T "TRACKNUMBER=%tracknr%" -T "GENRE=%genre%" -T "PERFORMER=%albuminterpret%" -T "COMPOSER=%composer%" %haslyrics%–tag-from-file=LYRICS="%lyricsfile%"%haslyrics% -T "ALBUMARTIST=%albumartist%" -T "DISCNUMBER=%cdnumber%" -T "TOTALDISCS=%totalcds%" -T "TOTALTRACKS=%numtracks%" -T "COMMENT=%comment%" %source% -o %dest%


TOC of the extracted CD

Track | Start | Length | Start sector | End sector
––––––––––––––––––––––––––––-
1 | 0:00.00 | 6:46.48 | 0 | 30497
2 | 6:46.48 | 3:47.25 | 30498 | 47547
3 | 10:33.73 | 3:09.22 | 47548 | 61744
4 | 13:43.20 | 5:07.73 | 61745 | 84842
5 | 18:51.18 | 5:04.45 | 84843 | 107687
6 | 23:55.63 | 7:10.65 | 107688 | 140002
7 | 31:06.53 | 6:31.08 | 140003 | 169335
8 | 37:37.61 | 6:25.33 | 169336 | 198243
9 | 44:03.19 | 5:23.24 | 198244 | 222492
10 | 49:26.43 | 5:46.28 | 222493 | 248470
11 | 55:12.71 | 5:47.36 | 248471 | 274531
12 | 61:00.32 | 4:43.40 | 274532 | 295796
13 | 65:43.72 | 5:00.03 | 295797 | 318299
14 | 70:44.00 | 4:13.44 | 318300 | 337318
15 | 74:57.44 | 3:36.23 | 337319 | 353541


Track 1

Filename D:\Rotterdam 2018 II\Enchantment - Sunshine (The Enchantment Anthology)\cd 1\01. Enchantment - Settin' It Out.wav

Pre-gap length 0:00:02.00

Peak level 95.5 %
Extraction speed 6.1 X
Track quality 100.0 %
Test CRC 7A0804BD
Copy CRC 7A0804BD
Accurately ripped (confidence 2) [F1DB6C08] (AR v2)
Copy OK

Track 2

Filename D:\Rotterdam 2018 II\Enchantment - Sunshine (The Enchantment Anthology)\cd 1\02. Enchantment - Moment of Weakness.wav

Pre-gap length 0:00:01.98

Peak level 94.1 %
Extraction speed 6.4 X
Track quality 100.0 %
Test CRC AC6C6CFF
Copy CRC AC6C6CFF
Accurately ripped (confidence 2) [A87BF3A8] (AR v2)
Copy OK

Track 3

Filename D:\Rotterdam 2018 II\Enchantment - Sunshine (The Enchantment Anthology)\cd 1\03. Enchantment - I Can't Be the One.wav

Pre-gap length 0:00:01.98

Peak level 89.9 %
Extraction speed 6.5 X
Track quality 100.0 %
Test CRC F28B5F92
Copy CRC F28B5F92
Accurately ripped (confidence 2) [1862E044] (AR v2)
Copy OK

Track 4

Filename D:\Rotterdam 2018 II\Enchantment - Sunshine (The Enchantment Anthology)\cd 1\04. Enchantment - I Believe in You.wav

Pre-gap length 0:00:01.98

Peak level 89.9 %
Extraction speed 7.5 X
Track quality 100.0 %
Test CRC 12B1F0F2
Copy CRC 12B1F0F2
Accurately ripped (confidence 2) [D7C8905F] (AR v2)
Copy OK

Track 5

Filename D:\Rotterdam 2018 II\Enchantment - Sunshine (The Enchantment Anthology)\cd 1\05. Enchantment - You and Me.wav

Pre-gap length 0:00:01.98

Peak level 93.8 %
Extraction speed 7.9 X
Track quality 100.0 %
Test CRC 47479514
Copy CRC 47479514
Accurately ripped (confidence 2) [82760630] (AR v2)
Copy OK

Track 6

Filename D:\Rotterdam 2018 II\Enchantment - Sunshine (The Enchantment Anthology)\cd 1\06. Enchantment - I Know Your Hot Spot.wav

Pre-gap length 0:00:01.98

Peak level 95.5 %
Extraction speed 8.7 X
Track quality 100.0 %
Test CRC 3B9184AC
Copy CRC 3B9184AC
Accurately ripped (confidence 2) [DF623184] (AR v2)
Copy OK

Track 7

Filename D:\Rotterdam 2018 II\Enchantment - Sunshine (The Enchantment Anthology)\cd 1\07. Enchantment - Only You.wav

Pre-gap length 0:00:01.98

Peak level 95.5 %
Extraction speed 8.1 X
Track quality 99.9 %
Test CRC 946A8F9C
Copy CRC 946A8F9C
Accurately ripped (confidence 2) [30660B58] (AR v2)
Copy OK

Track 8

Filename D:\Rotterdam 2018 II\Enchantment - Sunshine (The Enchantment Anthology)\cd 1\08. Enchantment - I Can't Forget You.wav

Pre-gap length 0:00:01.98

Peak level 94.0 %
Extraction speed 8.4 X
Track quality 99.9 %
Test CRC 647914B9
Copy CRC 647914B9
Accurately ripped (confidence 2) [3089C48A] (AR v2)
Copy OK

Track 9

Filename D:\Rotterdam 2018 II\Enchantment - Sunshine (The Enchantment Anthology)\cd 1\09. Enchantment - Enchanted Lady.wav

Pre-gap length 0:00:01.98

Peak level 85.5 %
Extraction speed 9.9 X
Track quality 100.0 %
Test CRC E07326EB
Copy CRC E07326EB
Accurately ripped (confidence 2) [BB72F90B] (AR v2)
Copy OK

Track 10

Filename D:\Rotterdam 2018 II\Enchantment - Sunshine (The Enchantment Anthology)\cd 1\10. Enchantment - Toe Jammin'.wav

Pre-gap length 0:00:01.98

Peak level 93.8 %
Extraction speed 10.3 X
Track quality 100.0 %
Test CRC F3E057E7
Copy CRC F3E057E7
Accurately ripped (confidence 2) [F23A736B] (AR v2)
Copy OK

Track 11

Filename D:\Rotterdam 2018 II\Enchantment - Sunshine (The Enchantment Anthology)\cd 1\11. Enchantment - Here's Your Chance.wav

Pre-gap length 0:00:01.98

Peak level 95.5 %
Extraction speed 10.7 X
Track quality 100.0 %
Test CRC 56CFEBBA
Copy CRC 56CFEBBA
Accurately ripped (confidence 2) [2AEEB1F5] (AR v2)
Copy OK

Track 12

Filename D:\Rotterdam 2018 II\Enchantment - Sunshine (The Enchantment Anthology)\cd 1\12. Enchantment - Don't Fight the Feeling.wav

Pre-gap length 0:00:01.98

Peak level 94.0 %
Extraction speed 9.0 X
Track quality 99.9 %
Test CRC 14AC95B4
Copy CRC 14AC95B4
Accurately ripped (confidence 2) [30FE18CC] (AR v2)
Copy OK

Track 13

Filename D:\Rotterdam 2018 II\Enchantment - Sunshine (The Enchantment Anthology)\cd 1\13. Enchantment - Love Struck.wav

Pre-gap length 0:00:02.00

Peak level 95.5 %
Extraction speed 11.2 X
Track quality 100.0 %
Test CRC 52144119
Copy CRC 52144119
Accurately ripped (confidence 2) [BD58790C] (AR v2)
Copy OK

Track 14

Filename D:\Rotterdam 2018 II\Enchantment - Sunshine (The Enchantment Anthology)\cd 1\14. Enchantment - I'm Dreaming.wav

Pre-gap length 0:00:01.98

Peak level 95.5 %
Extraction speed 11.1 X
Track quality 100.0 %
Test CRC 09046C7F
Copy CRC 09046C7F
Accurately ripped (confidence 2) [2BEF0B02] (AR v2)
Copy OK

Track 15

Filename D:\Rotterdam 2018 II\Enchantment - Sunshine (The Enchantment Anthology)\cd 1\15. Enchantment - Somebody's Loving You.wav

Pre-gap length 0:00:01.96

Peak level 95.5 %
Extraction speed 11.1 X
Track quality 100.0 %
Test CRC DB5622B1
Copy CRC DB5622B1
Accurately ripped (confidence 2) [D7FCD10A] (AR v2)
Copy OK


All tracks accurately ripped

No errors occurred

End of status report

–– CUETools DB Plugin V2.1.6

[CTDB TOCID: TJSvyiXScMtpojkWEXFYGO0uF6A-] found
Submit result: TJSvyiXScMtpojkWEXFYGO0uF6A- has been confirmed
Track | CTDB Status
1 | (3/3) Accurately ripped
2 | (3/3) Accurately ripped
3 | (3/3) Accurately ripped
4 | (3/3) Accurately ripped
5 | (3/3) Accurately ripped
6 | (3/3) Accurately ripped
7 | (3/3) Accurately ripped
8 | (3/3) Accurately ripped
9 | (3/3) Accurately ripped
10 | (3/3) Accurately ripped
11 | (3/3) Accurately ripped
12 | (3/3) Accurately ripped
13 | (3/3) Accurately ripped
14 | (3/3) Accurately ripped
15 | (3/3) Accurately ripped


==== Log checksum 75BFB57C8CF48855F75213733336D39B3082699911BBCD15D86DDCC620F58100 ====

––––––––––––––––––––––––––––––––––––––––
Analyzed: Enchantment / Sunshine: Enchantment Anthology 1975-1984 (Disc 2)
––––––––––––––––––––––––––––––––––––––––

DR Peak RMS Duration Track
––––––––––––––––––––––––––––––––––––––––
DR12 -0.40 dB -14.38 dB 6:47 01-Settin' It Out
DR11 -0.53 dB -14.39 dB 3:47 02-Moment of Weakness
DR12 -0.92 dB -13.95 dB 3:09 03-I Can't Be the One
DR11 -0.92 dB -14.25 dB 5:08 04-I Believe in You
DR11 -0.55 dB -13.99 dB 5:05 05-You and Me
DR12 -0.40 dB -14.27 dB 7:11 06-I Know Your Hot Spot
DR11 -0.40 dB -12.81 dB 6:31 07-Only You
DR11 -0.53 dB -13.98 dB 6:25 08-I Can't Forget You
DR11 -1.36 dB -14.11 dB 5:23 09-Enchanted Lady
DR11 -0.55 dB -13.00 dB 5:46 10-Toe Jammin'
DR11 -0.40 dB -12.97 dB 5:47 11-Here's Your Chance
DR12 -0.53 dB -14.47 dB 4:44 12-Don't Fight the Feeling
DR12 -0.40 dB -14.48 dB 5:00 13-Love Struck
DR12 -0.40 dB -14.54 dB 4:14 14-I'm Dreaming
DR12 -0.40 dB -14.01 dB 3:36 15-Somebody's Loving You
––––––––––––––––––––––––––––––––––––––––

Number of tracks: 15
Official DR value: DR12

Samplerate: 44100 Hz
Channels: 2
Bits per sample: 16
Bitrate: 952 kbps
Codec: FLAC
================================================================================

Thanks to original releaser

See also:
Enchantment - Enchanted Lady (1982) [2011, Remastered & Expanded Edition]

♫~Welcome To My Blog~♫

password: BlondStyle