Subcategories

Encore + Grande - Total Bliss (1987) [Reissue 1997]

Posted By: gribovar
Encore + Grande - Total Bliss (1987) [Reissue 1997]

Encore + Grande - Total Bliss (1987) [Reissue 1997]
EAC Rip | FLAC (image+.cue+log) - 252 MB | MP3 CBR 320 kbps (LAME 3.93) - 92 MB | Covers - 20 MB
Genre: Avant-Prog | RAR 3% Rec. | Label: Gazul Records (GA 8601.AR)

Drummer Guigou Guigou Chenevier, a musician who likes meeting people and surprises, originated this project. With his friend Guy Sapin at the guitars, two Dutch Han Buhrs (vocals) and Raymond Van Santen (saxophone, clarinet & keyboards) as well as guests (Tim Hodgkinson, Sophie Jausserand…), he explores a universe of weird songs in which his creativity, his inventive drumming, the voice that really reminds of Captain Beefheart and the spontaneous interventions of the musicians are a pleasure.

Tracklist:
01. Gimme Printemps
02. Dud Splurge Part Two
03. Polking Finger
04. Chinoiserie
05. Sous l’Étendard du Soleil
06. Total Bliss-o-Bill
07. Sister Into Rundfunk
08. Pauvre Comme Moi/Perversions In A Flat Perspective
09. Tune Is Mood
10. Damp Feet
11. Wriggling In Volcano Mud
12. Amorphous Overall
13. № 13

Total time: 39:09

Exact Audio Copy V0.99 prebeta 4 from 23. January 2008

Отчёт EAC об извлечении, выполненном 16. января 2012, 15:26

ENCORE + GRANDE / Total Bliss

Дисковод: TSSTcorpCD/DVDW SH-S183A Adapter: 4 ID: 1

Режим чтения : Достоверность
Использование точного потока : Да
Отключение кэша аудио : Да
Использование указателей C2 : Нет

Коррекция смещения при чтении : 6
Способность читать области Lead-in и Lead-out : Нет
Заполнение пропущенных сэмплов тишиной : Да
Удаление блоков с тишиной в начале и конце : Нет
При вычислениях CRC использовались нулевые сэмплы : Да
Интерфейс : Встроенный Win32-интерфейс для Win NT/2000

Выходной формат : Внутренние WAV-операции
Формат сэмплов : 44.100 Гц; 16 бит; стерео


TOC извлечённого CD

Трек | Старт | Длительность | Начальный сектор | Конечный сектор
––––––––––––––––––––––––––––––––––-
1 | 0:00.00 | 3:37.70 | 0 | 16344
2 | 3:37.70 | 2:32.69 | 16345 | 27813
3 | 6:10.64 | 6:05.50 | 27814 | 55238
4 | 12:16.39 | 1:56.07 | 55239 | 63945
5 | 14:12.46 | 4:34.48 | 63946 | 84543
6 | 18:47.19 | 2:37.57 | 84544 | 96375
7 | 21:25.01 | 2:18.49 | 96376 | 106774
8 | 23:43.50 | 2:43.07 | 106775 | 119006
9 | 26:26.57 | 2:53.56 | 119007 | 132037
10 | 29:20.38 | 1:57.14 | 132038 | 140826
11 | 31:17.52 | 3:06.66 | 140827 | 154842
12 | 34:24.43 | 2:39.39 | 154843 | 166806
13 | 37:04.07 | 2:05.23 | 166807 | 176204


Характеристики диапазона извлечения и сообщения об ошибках

Выбранный диапазон

Имя файла D:\TEMP\ENCORE + GRANDE - 1986 - Total Bliss.wav

Пиковый уровень 100.0 %
Качество диапазона 100.0 %
CRC теста AE7CB611
CRC копии AE7CB611
Копирование… OK

Ошибок не произошло


AccurateRip: сводка

Трек 1 нет в базе данных
Трек 2 нет в базе данных
Трек 3 нет в базе данных
Трек 4 нет в базе данных
Трек 5 нет в базе данных
Трек 6 нет в базе данных
Трек 7 нет в базе данных
Трек 8 нет в базе данных
Трек 9 нет в базе данных
Трек 10 нет в базе данных
Трек 11 нет в базе данных
Трек 12 нет в базе данных
Трек 13 нет в базе данных

Ни одного трека нет в базе AccurateRip

Конец отчёта

[CUETools log; Date: 10.05.2018 14:49:41; Version: 2.1.4]
[CTDB TOCID: ZxyGOoaiOMApwRgzf1sBI2ivY5Q-] found.
Track | CTDB Status
1 | (1/1) Accurately ripped
2 | (1/1) Accurately ripped
3 | (1/1) Accurately ripped
4 | (1/1) Accurately ripped
5 | (1/1) Accurately ripped
6 | (1/1) Accurately ripped
7 | (1/1) Accurately ripped
8 | (1/1) Accurately ripped
9 | (1/1) Accurately ripped
10 | (1/1) Accurately ripped
11 | (1/1) Accurately ripped
12 | (1/1) Accurately ripped
13 | (1/1) Accurately ripped
[AccurateRip ID: 0014755e-00c84d14-c1092d0d] found.
Track [ CRC | V2 ] Status
01 [2d3c38f4|e6d5a8e3] (1+0/1) Accurately ripped
02 [ffd56af1|6dface2c] (1+0/1) Accurately ripped
03 [9d3b44b9|219bae1d] (1+0/1) Accurately ripped
04 [1413c4ff|9ea4faa5] (1+0/1) Accurately ripped
05 [c091f4cb|c0ec14d5] (1+0/1) Accurately ripped
06 [02dc5a79|f5410bf2] (1+0/1) Accurately ripped
07 [0c8e6c33|265a5c59] (1+0/1) Accurately ripped
08 [28429773|56643775] (1+0/1) Accurately ripped
09 [564fdd55|2bdd1ad4] (1+0/1) Accurately ripped
10 [a210c2d9|b28de6db] (1+0/1) Accurately ripped
11 [62bd7d93|c66a090d] (1+0/1) Accurately ripped
12 [122f8e52|ac98f1ff] (1+0/1) Accurately ripped
13 [975290a7|ed69e650] (1+0/1) Accurately ripped

Track Peak [ CRC32 ] [W/O NULL] [ LOG ]
– 100,0 [AE7CB611] [4FEF1548] CRC32
01 100,0 [4F059071] [C4AC5766]
02 100,0 [EAF135F5] [D3183593]
03 100,0 [18242E6E] [8F605B5A]
04 100,0 [E1EEDAF8] [D4383D96]
05 100,0 [3E996C25] [975ED4CD]
06 100,0 [86BD10FC] [3290D32C]
07 100,0 [84CAD73C] [92DA3FDA]
08 100,0 [729EB52D] [1938A7FE]
09 100,0 [3DA9BD02] [1172941F]
10 100,0 [786D393C] [F7F1CCEF]
11 100,0 [8823F504] [8D4A890D]
12 100,0 [39BA24B0] [40F8F8D5]
13 100,0 [0820CD30] [03527213]

Thanks to spAceLover