Subcategories

Enigma - Love Sensuality Devotion: The Remix Collection (2001)

Posted By: popsakov
Enigma - Love Sensuality Devotion: The Remix Collection (2001)

Enigma - Love Sensuality Devotion: The Remix Collection (2001)
EAC Rip | FLAC (Img) + Cue + Log ~ 395 Mb | MP3 CBR320 ~ 140 Mb
Full Scans ~ 100 Mb | 00:57:57 | RAR 5% Recovery
Electronic / Trance / House / Downtempo / Ambient / New Age / Ethnic Fusion
Virgin #7243 8 11062 2 8

Love Sensuality Devotion: The Remix Collection is a 2001 remix album of remixed songs made by Enigma. All of the remixes on the album were taken from previously released singles. LSD: Love, Sensuality and Devotion gathers over a decade's worth of Enigma's definitive tracks, including the song that started it all, "Sadeness, Pt. 1." "Return to Innocence," "Beyond the Invisible," and "Cross of Changes" are all featured as well, and though the collection ranges from the rock-tinged "I'll Love You…I'll Kill You" to atmospheric, electronic fare like "Shadows in Silence," since it's all essentially Michael Crétu's vision, it flows surprisingly well. Since Enigma's sound has varied fairly drastically over the years, LSD: Love, Sensuality and Devotion is the perfect starting point for anyone curious about Crétu's music, and the only Enigma album that casual fans might need.

***************

Enigma - Love Sensuality Devotion: The Remix Collection (2001)

Track List:

01. Turn Around Northern Lights Club Mix <135 BPM> [10:29]
02. Age Of Loneliness Enigmatic Club Mix <128 BPM> [6:15]
03. Push The Limits ATB Remix <133 BPM> [7:51]
04. Gravity Of Love Judgement Day Club Mix <140 BPM> [5:59]
05. Return To Innocence 380 Midnight Mix <088 BPM> [5:42]
06. Sadeness (Part I) Violent U.S. Remix <095 BPM> [4:43]
07. Principles Of Lust Everlasting Lust Mix <095 BPM> [4:56]
08. Mea Culpa Fading Shades Mix <100 BPM> [6:05]
09. T.N.T. For The Brain Midnight Man Mix <112 BPM> [5:56]

Exact Audio Copy V1.0 beta 3 from 29. August 2011

EAC extraction logfile from 26. September 2019, 23:30

Enigma / 2001 - LoveSensualityDevotion The Remix Collection

Used drive : PIONEER BD-RW BDR-TD03 Adapter: 0 ID: 1

Read mode : Secure
Utilize accurate stream : Yes
Defeat audio cache : Yes
Make use of C2 pointers : No

Read offset correction : 667
Overread into Lead-In and Lead-Out : No
Fill up missing offset samples with silence : Yes
Delete leading and trailing silent blocks : No
Null samples used in CRC calculations : Yes
Used interface : Native Win32 interface for Win NT & 2000

Used output format : User Defined Encoder
Selected bitrate : 768 kBit/s
Quality : High
Add ID3 tag : No
Command line compressor : C:\Program Files (x86)\Exact Audio Copy\FLAC\FLAC.EXE
Additional command line options : -V -8 -T "Date=%year%" -T "Genre=%genre%" %source%


TOC of the extracted CD

Track | Start | Length | Start sector | End sector
––––––––––––––––––––––––––––-
1 | 0:00.32 | 10:28.58 | 32 | 47189
2 | 10:29.15 | 6:15.07 | 47190 | 75321
3 | 16:44.22 | 7:51.33 | 75322 | 110679
4 | 24:35.55 | 5:59.30 | 110680 | 137634
5 | 30:35.10 | 5:42.25 | 137635 | 163309
6 | 36:17.35 | 4:43.22 | 163310 | 184556
7 | 41:00.57 | 4:55.72 | 184557 | 206753
8 | 45:56.54 | 6:04.41 | 206754 | 234094
9 | 52:01.20 | 5:56.37 | 234095 | 260831


Range status and errors

Selected range

Filename C:\Users\Deris\Desktop\kpnemo.eu\Enigremi\Enigma - 2001 - LoveSensualityDevotion The Remix Collection.wav

Peak level 99.0 %
Extraction speed 4.9 X
Range quality 100.0 %
Test CRC E11597CB
Copy CRC E11597CB
Copy OK

No errors occurred


AccurateRip summary

Track 1 accurately ripped (confidence 3) [F161226C] (AR v2)
Track 2 accurately ripped (confidence 3) [251BC4B3] (AR v2)
Track 3 accurately ripped (confidence 3) [48EC00AE] (AR v2)
Track 4 accurately ripped (confidence 3) [7574F192] (AR v2)
Track 5 accurately ripped (confidence 3) [489173A6] (AR v2)
Track 6 accurately ripped (confidence 3) [ED365428] (AR v2)
Track 7 accurately ripped (confidence 3) [00D38236] (AR v2)
Track 8 accurately ripped (confidence 3) [0A39FBD1] (AR v2)
Track 9 accurately ripped (confidence 3) [83C7A3E8] (AR v2)

All tracks accurately ripped

End of status report

–– CUETools DB Plugin V2.1.3

[CTDB TOCID: J1zhcySGVPYnUVmBEL2Pd2b4L.M-] found
[303ec96c] (163/172) No match
[768ee6ec] (001/172) Accurately ripped
[7ec99c9e] (001/172) Accurately ripped
[6e80e118] (001/172) Accurately ripped
[6ea351a4] (001/172) Accurately ripped
[7636209e] (001/172) Accurately ripped
[d1758bd6] (001/172) Accurately ripped
[c5a4fbe5] (001/172) Accurately ripped
[28652afb] (001/172) Accurately ripped
[f1acfd52] (001/172) Accurately ripped


==== Log checksum 8EA747163089FC778B72C24CB6C1696BF472A8F32A8E25F4FBA326FB119B2E6F ====

foobar2000 1.4 / Dynamic Range Meter 1.1.1
log date: 2019-10-27 11:12:21

––––––––––––––––––––––––––––––––––––––––
Analyzed: Enigma / 2001 - LoveSensualityDevotion The Remix Collection
––––––––––––––––––––––––––––––––––––––––

DR Peak RMS Duration Track
––––––––––––––––––––––––––––––––––––––––
DR10 -0.08 dB -12.49 dB 10:29 01-Turn Around Northern Lights Club Mix <135 BPM>
DR9 -0.08 dB -11.22 dB 6:15 02-Age Of Loneliness Enigmatic Club Mix <128 BPM>
DR9 -0.08 dB -11.04 dB 7:51 03-Push The Limits ATB Remix <133 BPM>
DR9 -0.08 dB -11.07 dB 5:59 04-Gravity Of Love Judgement Day Club Mix <140 BPM>
DR7 -0.08 dB -8.27 dB 5:42 05-Return To Innocence 380 Midnight Mix <088 BPM>
DR9 -0.08 dB -10.54 dB 4:43 06-Sadeness (Part I) Violent U.S. Remix <095 BPM>
DR9 -0.08 dB -12.03 dB 4:56 07-Principles Of Lust Everlasting Lust Mix <095 BPM>
DR9 -0.08 dB -12.49 dB 6:05 08-Mea Culpa Fading Shades Mix <100 BPM>
DR10 -0.08 dB -12.15 dB 5:56 09-T.N.T. For The Brain Midnight Man Mix <112 BPM>
––––––––––––––––––––––––––––––––––––––––

Number of tracks: 9
Official DR value: DR9

Samplerate: 44100 Hz
Channels: 2
Bits per sample: 16
Bitrate: 905 kbps
Codec: FLAC
================================================================================

[CUETools log; Date: 27.10.2019 11:11:38; Version: 2.1.6]
Pregap length 00:00:32.
[CTDB TOCID: J1zhcySGVPYnUVmBEL2Pd2b4L.M-] found.
Track | CTDB Status
1 | (184/211) Accurately ripped
2 | (187/211) Accurately ripped
3 | (187/211) Accurately ripped
4 | (186/211) Accurately ripped
5 | (186/211) Accurately ripped
6 | (186/211) Accurately ripped
7 | (185/211) Accurately ripped
8 | (185/211) Accurately ripped
9 | (183/211) Accurately ripped
[AccurateRip ID: 0015ac77-0099fecf-790d9509] found.
Track [ CRC | V2 ] Status
01 [6b6af468|f161226c] (003+003/137) Accurately ripped
02 [06de1551|251bc4b3] (003+003/138) Accurately ripped
03 [61a23f8c|48ec00ae] (003+003/136) Accurately ripped
04 [bb07f844|7574f192] (003+003/137) Accurately ripped
05 [6fde5061|489173a6] (003+003/137) Accurately ripped
06 [e520993d|ed365428] (003+003/138) Accurately ripped
07 [c2116503|00d38236] (003+003/135) Accurately ripped
08 [6039bf31|0a39fbd1] (003+003/136) Accurately ripped
09 [27cf9b20|83c7a3e8] (003+003/135) Accurately ripped
Offsetted by -1328:
01 [4ea7f63a] (002/137) Accurately ripped
02 [5b4268ff] (002/138) Accurately ripped
03 [c1a85728] (002/136) Accurately ripped
04 [c16a532b] (002/137) Accurately ripped
05 [fd5035b7] (002/137) Accurately ripped
06 [2c29034d] (002/138) Accurately ripped
07 [48364c3e] (002/135) Accurately ripped
08 [419ebaa4] (002/136) Accurately ripped
09 [29829159] (002/135) Accurately ripped
Offsetted by -674:
01 [1321f0f7] (003/137) Accurately ripped
02 [1a1112d6] (003/138) Accurately ripped
03 [edc2a798] (003/136) Accurately ripped
04 [cc065495] (003/137) Accurately ripped
05 [03c1d193] (003/137) Accurately ripped
06 [dc87fc7b] (003/138) Accurately ripped
07 [a76b248a] (003/135) Accurately ripped
08 [46f8d779] (003/136) Accurately ripped
09 [637320c6] (002/135) Accurately ripped
Offsetted by -10:
01 [1c131e2a] (051/137) Accurately ripped
02 [97c9fd84] (050/138) Accurately ripped
03 [ab2002e2] (049/136) Accurately ripped
04 [648c0a29] (049/137) Accurately ripped
05 [25e8943d] (050/137) Accurately ripped
06 [94d8c444] (050/138) Accurately ripped
07 [f983a227] (048/135) Accurately ripped
08 [265fcd58] (048/136) Accurately ripped
09 [4911d8f4] (048/135) Accurately ripped
Offsetted by -100:
01 [96aa8c0f] (000/137) No match (V2 was not tested)
02 [025fd45d] (000/138) No match (V2 was not tested)
03 [2da57b82] (000/136) No match (V2 was not tested)
04 [2bc27b2a] (000/137) No match (V2 was not tested)
05 [14d60024] (000/137) No match (V2 was not tested)
06 [365f1f53] (000/138) No match (V2 was not tested)
07 [f9d802d5] (000/135) No match (V2 was not tested)
08 [4dc16c8b] (000/136) No match (V2 was not tested)
09 [793cf284] (000/135) No match (V2 was not tested)
Offsetted by -16:
01 [c01b143a] (000/137) No match (V2 was not tested)
02 [cc6fb6b1] (000/138) No match (V2 was not tested)
03 [5ef46ecc] (000/136) No match (V2 was not tested)
04 [aa81490b] (000/137) No match (V2 was not tested)
05 [322e24fa] (000/137) No match (V2 was not tested)
06 [404de026] (000/138) No match (V2 was not tested)
07 [10033179] (000/135) No match (V2 was not tested)
08 [6cbc0467] (000/136) No match (V2 was not tested)
09 [69ce55cd] (000/135) No match (V2 was not tested)

Track Peak [ CRC32 ] [W/O NULL] [ LOG ]
– 99,0 [E11597CB] [369DAF7E] CRC32
01 99,0 [AC4C5479] [5489D304]
02 99,0 [517F4813] [F7355A3A]
03 99,0 [B9207A51] [7CBF7586]
04 99,0 [948DC9A3] [D576F6B5]
05 99,0 [7F72D946] [E0CE8BFF]
06 99,0 [821950B9] [5534F4DE]
07 99,0 [54F0291B] [213AB205]
08 99,0 [1B17490E] [29A07FE1]
09 99,0 [707E9FD0] [ECB68CF0]

Enigma - Love Sensuality Devotion: The Remix Collection (2001)


All thanks go to Boris1

>>> "Enigma" in my Blog <<<

DOWNLOAD: