Subcategories

Enigma - MCMXC a.D. (1990) [Japan 1st Press, 1991]

Posted By: Andi_Deris
Enigma - MCMXC a.D. (1990) [Japan 1st Press, 1991]

Enigma - MCMXC a.D. (1990) [初版 / Japan 1st Press, 1991]
EAC Rip | FLAC: Image+Cue+Log | 259 Mb | MP3 CBR 320 kbps | 119 Mb | Scans | 56 Mb | Time: 40:21
Virgin Japan Ltd. | VJCP-28024
Electronic, Ambient Dance, New Age

MCMXC a.D. ("1990" in Roman numerals followed by an abbreviation of Anno Domini) is the first studio album of the German music project Enigma, headed by Romanian-German musician Michael Cretu, released on 10 December 1990 on Virgin Records in the UK.

Ambient dance existed before Enigma, but Enigma does it best. MCMXC a.D. combines both sexuality (in the form of hip-hop grooves, breathy female vocals, and musings on the Marquis de Sade) and spirituality (in the form of flowing strings, Gregorian chants and biblical quotations) to forge a new kind of music equally suitable for dancing or meditating. It's in many ways still the most popular album from the project.

Enigma - MCMXC a.D. (1990) [Japan 1st Press, 1991]




Track Listing

01. The Voice Of Enigma (02:22)
02. Principles Of Lust (11:44)
A: Sadeness
B: Find Love
C: Sadeness (Reprise)

03. Callas Went Away (04:28)
04. Mea Culpa (05:04)
05. The Voice & The Snake (01:40)
06. Knocking On Forbidden Doors (04:32)
07. Back To The Rivers Of Belief (10:32)
A: Way To Eternity
B: Hallelujah
C: The Rivers Of Belief


Produced by Enigma

Personnel

• Michael Cretu (credited as "Curly M.C.") - lead vocals
• Sandra Cretu - lead vocals
• Frank Peterson (credited as "F. Gregorian") - samples
• Louisa Stanley - voices

Exact Audio Copy V1.0 beta 3 from 29. August 2011

EAC extraction logfile from 22. April 2012, 16:26

Enigma / MCMXC a.D.

Used drive : PLEXTOR DVDR PX-716A Adapter: 0 ID: 0

Read mode : Secure
Utilize accurate stream : Yes
Defeat audio cache : Yes
Make use of C2 pointers : No

Read offset correction : 30
Overread into Lead-In and Lead-Out : Yes
Fill up missing offset samples with silence : Yes
Delete leading and trailing silent blocks : No
Null samples used in CRC calculations : Yes
Used interface : Native Win32 interface for Win NT & 2000

Used output format : User Defined Encoder
Selected bitrate : 1024 kBit/s
Quality : High
Add ID3 tag : No
Command line compressor : C:\Program Files (x86)\FLAC\flac.exe
Additional command line options : -8 -V -T "ARTIST=%artist%" -T "TITLE=%title%" -T "ALBUM=%albumtitle%" -T "DATE=%year%" -T "TRACKNUMBER=%tracknr%" -T "GENRE=%genre%" -T "COMMENT=EAC FLAC -8" %source%


TOC of the extracted CD

Track | Start | Length | Start sector | End sector
––––––––––––––––––––––––––––-
1 | 0:00.00 | 2:21.65 | 0 | 10639
2 | 2:21.65 | 11:43.70 | 10640 | 63434
3 | 14:05.60 | 4:27.65 | 63435 | 83524
4 | 18:33.50 | 5:03.32 | 83525 | 106281
5 | 23:37.07 | 1:39.73 | 106282 | 113779
6 | 25:17.05 | 4:31.35 | 113780 | 134139
7 | 29:48.40 | 10:32.22 | 134140 | 181561


Range status and errors

Selected range

Filename E:\flac\Enigma japan press\1990 - M C M X C a.D. (VJCP-28024)\Enigma - MCMXC a.D..wav

Peak level 95.1 %
Extraction speed 1.4 X
Range quality 100.0 %
Test CRC 56160F3E
Copy CRC 56160F3E
Copy OK

No errors occurred


AccurateRip summary

Track 1 accurately ripped (confidence 2) [3584CF34] (AR v1)
Track 2 accurately ripped (confidence 2) [99BA4BDD] (AR v1)
Track 3 accurately ripped (confidence 2) [0FB9B321] (AR v1)
Track 4 accurately ripped (confidence 2) [769D0CBC] (AR v1)
Track 5 accurately ripped (confidence 2) [A9786EFD] (AR v1)
Track 6 accurately ripped (confidence 2) [9EE7E628] (AR v1)
Track 7 accurately ripped (confidence 2) [23F5D511] (AR v1)

All tracks accurately ripped

End of status report

–– CUETools DB Plugin V2.1.3

[CTDB TOCID: D3niQQrO.AHSeJFO91crbmoy39g-] found, Submit result: D3niQQrO.AHSeJFO91crbmoy39g- has been confirmed
[a5f43257] (26/28) Accurately ripped
[1b8b87a1] (01/28) No match
[87790b89] (01/28) No match


==== Log checksum B3F59146975FECBF522E19E20C00DBFCB27F854F97F421D84FBC7010DB1FF7BA ====


Many thanks to the original uploader: Konstantin_slash

–––––––––
Nitroflare