Subcategories

Enrique Iglesias - Enrique (1999) {Japan 1st Press}

Posted By: popsakov
Enrique Iglesias - Enrique (1999) {Japan 1st Press}

Enrique Iglesias - Enrique (1999) {Japan 1st Press}
EAC Rip | FLAC (Img) + Cue + Log ~ 490 Mb | MP3 CBR320 ~ 148 Mb
Full Scans ~ 165 Mb | RAR 5% Recovery
Pop, Dance, Latin | Interscope Records / Universal Victor, Inc. #MVCT-24072

Enrique is the debut English album and fourth studio album by Enrique Iglesias recorded in English and released in November 1999. The album launched two No. 1 U.S Billboard hot 100 hits, "Bailamos" and then "Be with You". The album debuted at #33 on Billboard 200 albums chart and would go on to be certified Platinum in the United States. The album was a success in Canada too, where it became 5 times Platinum and in Spain 4 times Platinum. It achieved Platinum status in Germany, Italy, Norway and Poland and Gold in Denmark, Switzerland and 30 other countries. The album has sold over 7 million copies worldwide, becoming his second most successful albums to date, after the follow-up album Escape.

Enrique Iglesias' Interscope debut Enrique was designed to be a massive crossover success, breaking him to the pop audience that devoured Ricky Martin and "Livin' la Vida Loca." So, the Latin roots were pushed to the background and the record leaned heavily on mainstream dance-pop and adult contemporary ballads. Iglesias and Andres Restrepo served as executive producers, overseeing a number of producers whose work all sounds fairly cohesive. That may be because each specialized in a certain area: dancefloor numbers or slow-burners. It's all impeccably crafted and appealing, the way a big-budget record like this should be. Song wise, there are a couple of stretches that are a little rote but not unappealing, and for the most part, the tunes are endearing; as a matter of fact, the first breakthrough hit, "Bailamos," pales in comparison with much of the first half of the album, including "Rhythm Divine," "I Have Always Loved You," and "Oyeme." If Enrique doesn't pack a knock-out punch, it's because it wasn't structured that way. It was made to be a sturdy and satisfying mainstream crossover effort, and that's exactly what it is.

~ Stephen Thomas Erlewine, All Music

***************

Enrique Iglesias - Enrique (1999) {Japan 1st Press}

Track List:

01. Rhythm Divine [3:30]
02. Be With You [3:40]
03. I Have Always Loved You [4:24]
04. Sad Eyes [4:09]
05. I'm Your Man [4:43]
06. Oyeme [4:22]
07. Could I Have This Kiss Forever (Whitney Houston And Enrique Iglesias) [4:22]
08. You're My #1 [4:30]
09. Alabao [4:01]
10. Bailamos [3:34]
11. Ritmo Total (Rhythm Divine) [3:30]
12. Mas Es Amar (Sad Eyes) [4:16]
13. No Puedo Mas Sin Ti (I'm Your Man) [4:48]
14. Rhythm divine (Fernando Garibay Remix) [3:37]
15. Bailamos (Fernando Garibay Latin Remix) [3:49]

Exact Audio Copy V0.99 prebeta 5 from 4. May 2009

Отчёт EAC об извлечении, выполненном 11. октября 2010, 12:47

Enrique Iglesias / Enrique

Дисковод: ASUS DRW-1814BLT Adapter: 1 ID: 1

Режим чтения : Достоверность
Использование точного потока : Да
Отключение кэша аудио : Да
Использование указателей C2 : Нет

Коррекция смещения при чтении : 6
Способность читать области Lead-in и Lead-out : Нет
Заполнение пропущенных сэмплов тишиной : Да
Удаление блоков с тишиной в начале и конце : Нет
При вычислениях CRC использовались нулевые сэмплы : Да
Интерфейс : Установленный внешний ASPI-интерфейс

Выходной формат : Внутренние WAV-операции
Формат сэмплов : 44.100 Гц; 16 бит; стерео


TOC извлечённого CD

Трек | Старт | Длительность | Начальный сектор | Конечный сектор
––––––––––––––––––––––––––––––––––-
1 | 0:00.00 | 3:30.17 | 0 | 15766
2 | 3:30.17 | 3:40.00 | 15767 | 32266
3 | 7:10.17 | 4:23.60 | 32267 | 52051
4 | 11:34.02 | 4:09.13 | 52052 | 70739
5 | 15:43.15 | 4:43.20 | 70740 | 91984
6 | 20:26.35 | 4:22.27 | 91985 | 111661
7 | 24:48.62 | 4:22.10 | 111662 | 131321
8 | 29:10.72 | 4:29.50 | 131322 | 151546
9 | 33:40.47 | 4:00.65 | 151547 | 169611
10 | 37:41.37 | 3:33.70 | 169612 | 185656
11 | 41:15.32 | 3:29.60 | 185657 | 201391
12 | 44:45.17 | 4:15.68 | 201392 | 220584
13 | 49:01.10 | 4:48.12 | 220585 | 242196
14 | 53:49.22 | 3:36.45 | 242197 | 258441
15 | 57:25.67 | 3:48.53 | 258442 | 275594


Характеристики диапазона извлечения и сообщения об ошибках

Выбранный диапазон

Имя файла E:\!Music\!Lossless\Enrique Iglesias - Enrique\Enrique Iglesias - Enrique.wav

Пиковый уровень 99.3 %
Качество диапазона 100.0 %
CRC теста 961A58F2
CRC копии 961A58F2
Копирование… OK

Ошибок не произошло


AccurateRip: сводка

Трек 1 нет в базе данных
Трек 2 нет в базе данных
Трек 3 нет в базе данных
Трек 4 нет в базе данных
Трек 5 нет в базе данных
Трек 6 нет в базе данных
Трек 7 нет в базе данных
Трек 8 нет в базе данных
Трек 9 нет в базе данных
Трек 10 нет в базе данных
Трек 11 нет в базе данных
Трек 12 нет в базе данных
Трек 13 нет в базе данных
Трек 14 нет в базе данных
Трек 15 нет в базе данных

Ни одного трека нет в базе AccurateRip

Конец отчёта

[CUETools log; Date: 09.08.2019 14:29:31; Version: 2.1.6]
HDCD: peak extend: none, transient filter: some, gain: none
[CTDB TOCID: aX56Qze0FHhMYCYirUntjFFK_5Q-] found.
Track | CTDB Status
1 | (22/22) Accurately ripped
2 | (21/22) Accurately ripped
3 | (20/22) Accurately ripped
4 | (22/22) Accurately ripped
5 | (22/22) Accurately ripped
6 | (22/22) Accurately ripped
7 | (21/22) Accurately ripped
8 | (22/22) Accurately ripped
9 | (22/22) Accurately ripped
10 | (22/22) Accurately ripped
11 | (20/22) Accurately ripped
12 | (21/22) Accurately ripped
13 | (21/22) Accurately ripped
14 | (22/22) Accurately ripped
15 | (22/22) Accurately ripped
[AccurateRip ID: 0021bc06-017f92bb-cc0e5a0f] found.
Track [ CRC | V2 ] Status
01 [99aec322|213a2d90] (00+10/10) Accurately ripped
02 [e73ab6f1|6fbfcd5b] (00+10/10) Accurately ripped
03 [fa5cc0d5|d89c9f1c] (00+10/10) Accurately ripped
04 [aaa422ff|72097ada] (00+10/10) Accurately ripped
05 [851e7801|19c3d72e] (00+10/10) Accurately ripped
06 [6a2bedb5|367f2f8f] (00+10/10) Accurately ripped
07 [adda690f|9ef8f577] (00+10/10) Accurately ripped
08 [41041281|1252e3d8] (00+10/10) Accurately ripped
09 [d5357785|3b2a7246] (00+10/10) Accurately ripped
10 [99058249|086ae0f8] (00+10/10) Accurately ripped
11 [d916b9b3|1d7ce372] (00+09/09) Accurately ripped
12 [40ab5709|085cf937] (00+09/09) Accurately ripped
13 [adf2f90e|dd09459a] (00+09/09) Accurately ripped
14 [a4dff2fc|1d1dc3e4] (00+10/10) Accurately ripped
15 [9c5041de|2e101d29] (00+10/10) Accurately ripped

Track Peak [ CRC32 ] [W/O NULL] [ LOG ]
– 99,3 [961A58F2] [C642CBB6] CRC32
01 99,1 [1A9C18E4] [771BC2C7]
02 99,1 [C6DCB51F] [DE7A5D6A]
03 99,1 [22B23E10] [0F76ECFF]
04 99,3 [528C4FFF] [CCBB9665]
05 99,1 [330022EA] [03AD63B2]
06 99,2 [3A644B20] [61106A6F]
07 99,2 [C606DA64] [F568DBE3]
08 99,2 [6E8F6EC1] [B8E6512E]
09 99,1 [B79CCB11] [625F982C]
10 99,1 [2696D8C6] [F8D90DFE]
11 99,1 [9C53B229] [B37E1600]
12 99,2 [88F25AC6] [2AB2BF8C]
13 99,2 [382D8BFD] [A8233202]
14 99,1 [61F43EFF] [21AD9693]
15 99,1 [63649E5D] [29C5D246]

Enrique Iglesias - Enrique (1999) {Japan 1st Press}

All thanks go to Totetsu

>>> My Blog <<<

Download from icerbox.com: