Subcategories

Enrique Iglesias - Enrique Iglesias (1995)

Posted By: popsakov
Enrique Iglesias - Enrique Iglesias (1995)

Enrique Iglesias - Enrique Iglesias (1995)
EAC Rip | WV (Img) + Cue + Log ~ 287 Mb | MP3 CBR320 ~ 102 Mb
Full Scans (PNG, 400 dpi) ~ 140 Mb | RAR 5% Recovery
Latin Pop, Soft Rock, Pop Rock | FonoVisa #SPCD-0506

Enrique Iglesias made a big splash with his first album, released in late 1995. The son of Latin superstar Julio Iglesias, Enrique's debut is devoted to polished, romantic pop tunes and power ballads, all with a contemporary pop/rock feel that shies away from many common clichés of Latin pop. The album was a major commercial success in Latin America and earned a gold record in the United States; it also won the 1996 Grammy Award for Best Latin Pop Album.
~ Mark Deming, All Music

***************

Enrique Iglesias - Enrique Iglesias (1995)

Enrique Iglesias - Enrique Iglesias (1995)

Track List:

01. No Llores Por Mí [0:04:11.00]
02. Trapecista [0:04:27.00]
03. Por Amarte [0:04:04.00]
04. Si Tú Te Vas [0:04:04.02]
05. Si Juras Regresar [0:04:24.01]
06. Experiencia Religiosa [0:05:32.00]
07. Falta Tanto Amor [0:03:56.02]
08. Inalcanzable [0:03:35.00]
09. Muñeca Cruel [0:04:21.00]
10. Invéntame [0:03:49.33]

Exact Audio Copy V1.3 from 2. September 2016

EAC extraction logfile from 25. February 2017, 9:23

Enrique Iglesias / Enrique Iglesias

Used drive : HL-DT-STDVDRAM GH24NSC0 Adapter: 1 ID: 0

Read mode : Secure
Utilize accurate stream : Yes
Defeat audio cache : Yes
Make use of C2 pointers : No

Read offset correction : 6
Overread into Lead-In and Lead-Out : No
Fill up missing offset samples with silence : Yes
Delete leading and trailing silent blocks : No
Null samples used in CRC calculations : Yes
Used interface : Native Win32 interface for Win NT & 2000

Used output format : Internal WAV Routines
Sample format : 44.100 Hz; 16 Bit; Stereo


TOC of the extracted CD

Track | Start | Length | Start sector | End sector
––––––––––––––––––––––––––––-
1 | 0:00.00 | 4:11.00 | 0 | 18824
2 | 4:11.00 | 4:27.00 | 18825 | 38849
3 | 8:38.00 | 4:04.00 | 38850 | 57149
4 | 12:42.00 | 4:04.02 | 57150 | 75451
5 | 16:46.02 | 4:24.01 | 75452 | 95252
6 | 21:10.03 | 5:32.00 | 95253 | 120152
7 | 26:42.03 | 3:56.02 | 120153 | 137854
8 | 30:38.05 | 3:35.00 | 137855 | 153979
9 | 34:13.05 | 4:21.00 | 153980 | 173554
10 | 38:34.05 | 3:49.33 | 173555 | 190762


Range status and errors

Selected range

Filename C:\Music CD\Enrique Iglesias - Enrique Iglesias.wav

Peak level 94.4 %
Extraction speed 6.7 X
Range quality 100.0 %
Test CRC 61E822E1
Copy CRC 61E822E1
Copy OK

No errors occurred


AccurateRip summary

Track 1 accurately ripped (confidence 3) [06DB6798] (AR v2)
Track 2 accurately ripped (confidence 3) [546A6C57] (AR v2)
Track 3 accurately ripped (confidence 3) [7A8860C1] (AR v2)
Track 4 accurately ripped (confidence 3) [35624B54] (AR v2)
Track 5 accurately ripped (confidence 3) [F5407B11] (AR v2)
Track 6 accurately ripped (confidence 3) [19F762C5] (AR v2)
Track 7 accurately ripped (confidence 3) [6AECFB8A] (AR v2)
Track 8 accurately ripped (confidence 3) [2D938666] (AR v2)
Track 9 accurately ripped (confidence 3) [3DBFB4BB] (AR v2)
Track 10 accurately ripped (confidence 3) [2BE9C8AD] (AR v2)

All tracks accurately ripped

End of status report

–– CUETools DB Plugin V2.1.6

[CTDB TOCID: 4UXf2xrunc2ikywPV2EKFXnq_84-] found
Submit result: 4UXf2xrunc2ikywPV2EKFXnq_84- has been confirmed
Track | CTDB Status
1 | (9/9) Accurately ripped
2 | (9/9) Accurately ripped
3 | (9/9) Accurately ripped
4 | (9/9) Accurately ripped
5 | (9/9) Accurately ripped
6 | (9/9) Accurately ripped
7 | (9/9) Accurately ripped
8 | (9/9) Accurately ripped
9 | (9/9) Accurately ripped
10 | (9/9) Accurately ripped


==== Log checksum 75294C34AABF689238A0CD13A4A3CB6744E7F7173C5E9C0BBEDAB20B735E2521 ====

foobar2000 1.3.16 / Dynamic Range Meter 1.1.1
log date: 2017-10-28 13:48:35

––––––––––––––––––––––––––––––––––––––––
Analyzed: Enrique Iglesias / Enrique Iglesias
––––––––––––––––––––––––––––––––––––––––

DR Peak RMS Duration Track
––––––––––––––––––––––––––––––––––––––––
DR9 -0.60 dB -11.32 dB 4:11 01-No Llores Por Mi
DR10 -0.50 dB -13.69 dB 4:27 02-Trapecista
DR11 -0.50 dB -14.43 dB 4:04 03-Por Amarte
DR11 -0.68 dB -14.83 dB 4:04 04-Si Tu Te Vas
DR10 -0.50 dB -13.75 dB 4:24 05-Si Juras Regresar
DR10 -0.81 dB -13.91 dB 5:32 06-Experiencia Religiosa
DR10 -0.81 dB -14.17 dB 3:56 07-Falta Tanto Amor
DR10 -0.50 dB -14.45 dB 3:35 08-Inalcanzable
DR10 -0.50 dB -12.81 dB 4:21 09-Muneca Cruel
DR10 -0.55 dB -13.47 dB 3:49 10-Inventame
––––––––––––––––––––––––––––––––––––––––

Number of tracks: 10
Official DR value: DR10

Samplerate: 44100 Hz
Channels: 2
Bits per sample: 16
Bitrate: 894 kbps
Codec: WavPack
================================================================================

[CUETools log; Date: 28.10.2017 13:48:35; Version: 2.1.5]
[CTDB TOCID: 4UXf2xrunc2ikywPV2EKFXnq_84-] found.
Track | CTDB Status
1 | (15/15) Accurately ripped
2 | (15/15) Accurately ripped
3 | (15/15) Accurately ripped
4 | (15/15) Accurately ripped
5 | (15/15) Accurately ripped
6 | (15/15) Accurately ripped
7 | (15/15) Accurately ripped
8 | (15/15) Accurately ripped
9 | (14/15) Accurately ripped
10 | (15/15) Accurately ripped
[AccurateRip ID: 001033cc-0081a095-6909ef0a] found.
Track [ CRC | V2 ] Status
01 [231bb084|06db6798] (00+03/14) Accurately ripped
02 [9a630d6c|546a6c57] (00+03/14) Accurately ripped
03 [328bf33b|7a8860c1] (00+03/14) Accurately ripped
04 [e0a71227|35624b54] (00+03/14) Accurately ripped
05 [a7b8e685|f5407b11] (00+03/12) Accurately ripped
06 [3187b204|19f762c5] (00+03/12) Accurately ripped
07 [6ebfb875|6aecfb8a] (00+03/14) Accurately ripped
08 [1df4366f|2d938666] (00+03/14) Accurately ripped
09 [01b1c013|3dbfb4bb] (00+03/13) Accurately ripped
10 [0367549f|2be9c8ad] (00+03/14) Accurately ripped
Offsetted by -11:
01 [566d5758] (03/14) Accurately ripped
02 [5f4a22e4] (03/14) Accurately ripped
03 [d5b672d3] (03/14) Accurately ripped
04 [aad9cf2f] (03/14) Accurately ripped
05 [d8f1800b] (02/12) Accurately ripped
06 [a87663ac] (02/12) Accurately ripped
07 [91de566e] (03/14) Accurately ripped
08 [f2b749f0] (03/14) Accurately ripped
09 [788a1af9] (03/13) Accurately ripped
10 [525854cf] (03/14) Accurately ripped
Offsetted by 868:
01 [51938a14] (00/14) No match (V2 was not tested)
02 [ba6e40cc] (00/14) No match (V2 was not tested)
03 [2d15591b] (00/14) No match (V2 was not tested)
04 [8d6070c7] (00/14) No match (V2 was not tested)
05 [7bbb087d] (00/12) No match (V2 was not tested)
06 [ce803524] (00/12) No match (V2 was not tested)
07 [e14fc129] (00/14) No match (V2 was not tested)
08 [14bba7c3] (00/14) No match (V2 was not tested)
09 [eb5e758b] (00/13) No match (V2 was not tested)
10 [bb6ff38e] (00/14) No match (V2 was not tested)

Track Peak [ CRC32 ] [W/O NULL] [ LOG ]
– 94,4 [61E822E1] [D6A25107] CRC32
01 93,2 [41492761] [D871C494]
02 94,4 [7097556F] [027ED24C]
03 94,4 [E8C54A6D] [A44A2319]
04 92,5 [69436248] [C312DE95]
05 94,4 [A0A7FF11] [A294BFD6]
06 91,0 [A1D4452E] [79E81D3D]
07 91,0 [12CB67E9] [7D82E48E]
08 94,3 [B4B68807] [12DAA784]
09 94,4 [158CB8E9] [B3E8894E]
10 93,8 [4568FA6C] [F2E8B8EE]

Enrique Iglesias - Enrique Iglesias (1995)

All thanks go to edenika

>>> My Blog <<<

Download from icerbox.com: