Subcategories

Enrique Iglesias - Escape (2002)

Posted By: popsakov
Enrique Iglesias - Escape (2002)

Enrique Iglesias - Escape (2002)
EAC Rip | FLAC (Img) + Cue + Log ~ 463 Mb | MP3 CBR320 ~ 148 Mb
Full Scans ~ 108 Mb | 01:01:38 | RAR 5% Recovery
Pop, Latin, Dance-Pop | Interscope Records #493 534-2

Escape is the fifth studio album and second English-language album recorded by Spanish singer and songwriter Enrique Iglesias. It was released by Interscope Records on 30 October 2001. The album was designed in order to have a broader appeal to the masses worldwide, and Iglesias visual image was carefully crafted for this era, opting for a sexier and sultrier one. Escape proved to be even more successful than its predecessor, Enrique (1999), having sold 12 million copies worldwide. The album established Iglesias as the top selling Latin male artist in the world, dethroning Ricky Martin. The album earned him a Brit Award for Best Pop Act nomination in 2003.

If money is the great influence, then call Enrique Iglesias the most influential Latin music artist in the world, having sold a record-breaking number of albums over a stretch of several years. With Escape, his sophomore English-language release, he brings the whole Latin Invasion to a screeching halt, or "maybe" a gentle halt, making for an opportune screeching question: Have Latins traded in their musical roots for the American musical dream? When Latin-flavored music came flooding into the United States in the late '90s, it sounded a lot more, well, "Latin" than it sounds these days. Repetition and popularity certainly have something to do with it, and keep in mind that the likes of Ricky Martin, Christina Aguilera, and Jennifer Lopez have had the benefit of hits from American pop writer heavyweights like Diane Warren, Carl Sturken, and Evan Rogers. Here, however, is an album executive produced by and with every song written (with collaborators) by Iglesias. The musical result is not exactly consecrated to his native country of Spain, nor his Miami upbringing. Touring with musicians from the bands of Billy Joel, Elton John, and Bruce Springsteen might have shaken loose the rock soul inside of him. Escape is a pop/rock album through and through, and it is also reminiscent of classic pop albums of the 1980s – short (ten original songs), sweet, and wildly catchy. It is not without Spanish flavor, if only for Iglesias' pronunciations and three added Spanish-version tracks; it just has other priorities in mind. Though Iglesias' songs always turn up as remixes and at dance clubs, and though he could just as easily thicken the sound effects to overtake the basic melodies, he remains reserved in sound and lyric. On "One Night Stand," he makes reference to intimate belongings left behind by his "girlfriend." There is such a childlike vulnerability in his voice that listeners get the impression this scenario may not have ever happened to him.

While Escape is not excessively stylized, it is meticulously styled in the way great albums are, where surprises are hidden in every corner. The surprises here include hushed female vocals that glide into the choruses (most notably on "Don't Turn Off the Lights") and the rippling echoes and vocal distortions that begin on the title track and run like a theme throughout the rest of the album. There are also the natural gifts that he brings, his singing for one, which is both trembling and direct – he creates anticipation for the moments when he will break the latter syllables of a word into a lilting high note or an unyielding holler. No one will ever blame Iglesias for lack of emotion and, if his music inspires heart tugging, his voice – always in control even when it sounds on the verge of tears – is the culprit. He may milk it excessively on a drippy ballad like "Love to See You Cry," but it is perfect for the beautiful "Hero." Elsewhere, driven by guitar strumming and drum rattling, "Maybe" carries the essence of the whole album. The simplicity of the lyrics "Maybe you'll say that you want me, maybe you'll say that you won't" will not earn high points with art appraisers, but the day pop music demands intellect over emotion is the day love songs serve no purpose. Some people have questioned how "Hero," a song about longing for romantic love, was accepted as an anthem for the World Trade Center tragedy. Despite lyrics like "Would you tremble if I touch your lips," it makes sense. At the time of its release, in the wake of war and broken hearts, Iglesias' new album, and indeed the song "Hero," are a reminder that love, no matter how seemingly out of reach, is the conquering force. Maybe the Latin Invasion has ended. Maybe Latin musical roots are now growing in American listeners in the same way American rock has been ingrained into other cultures for years. And maybe that is why Escape is not just an English-language album by a Spanish artist, it is a universal album about love. Love is a greater influence than money and, as Iglesias sings, "In the end, our love mattered."

~ Peter Fawthrop, All Music

***************

Track List:

01. Escape [0:03:28.54]
02. Don't Turn Off The Lights [0:03:47.57]
03. Love To See You Cry [0:04:07.54]
04. Hero [0:04:24.32]
05. I Will Survive [0:03:43.16]
06. Love 4 Fun [0:03:14.73]
07. Maybe [0:03:15.03]
08. One Night Stand [0:04:11.07]
09. She Be The One [0:03:36.05]
10. If The World Crashes Down [0:04:45.54]
11. Escapar [0:03:28.64]
12. No Apagues La Luz [0:03:48.32]
13. Heroe [0:04:24.27]
14. Hero (MetroMix) [0:04:17.57]
15. Maybe (Mark Taylor Mix) [0:03:10.06]
16. To Love A Woman (Featuring Lionel Richie) [0:03:54.00]

Exact Audio Copy V1.1 from 23. June 2015

EAC extraction logfile from 15. March 2016, 8:53

Enrique Iglesias / Escape

Used drive : ATAPI iHAS124 D Adapter: 0 ID: 2

Read mode : Secure
Utilize accurate stream : Yes
Defeat audio cache : Yes
Make use of C2 pointers : No

Read offset correction : 6
Overread into Lead-In and Lead-Out : No
Fill up missing offset samples with silence : Yes
Delete leading and trailing silent blocks : No
Null samples used in CRC calculations : Yes
Used interface : Installed external ASPI interface

Used output format : User Defined Encoder
Selected bitrate : 1024 kBit/s
Quality : High
Add ID3 tag : Yes
Command line compressor : C:\Program Files (x86)\Exact Audio Copy\Flac\flac.exe
Additional command line options : -6 -V -T "ARTIST=%artist%" -T "TITLE=%title%" -T "ALBUM=%albumtitle%" -T "DATE=%year%" -T "TRACKNUMBER=%tracknr%" -T "GENRE=%genre%" -T "COMMENT=%comment%" -T "BAND=%albuminterpret%" -T "COMPOSER=%composer%" %haslyrics%–tag-from-file=LYRICS="%lyricsfile%"%haslyrics% -T "DISCNUMBER=%cdnumber%" -T "TOTALDISCS=%totalcds%" -T "TOTALTRACKS=%numtracks%" %hascover%–picture="%coverfile%"%hascover% %source% -o %dest%


TOC of the extracted CD

Track | Start | Length | Start sector | End sector
––––––––––––––––––––––––––––-
1 | 0:00.00 | 3:28.54 | 0 | 15653
2 | 3:28.54 | 3:47.57 | 15654 | 32735
3 | 7:16.36 | 4:07.54 | 32736 | 51314
4 | 11:24.15 | 4:24.32 | 51315 | 71146
5 | 15:48.47 | 3:43.16 | 71147 | 87887
6 | 19:31.63 | 3:14.73 | 87888 | 102510
7 | 22:46.61 | 3:15.03 | 102511 | 117138
8 | 26:01.64 | 4:11.07 | 117139 | 135970
9 | 30:12.71 | 3:36.05 | 135971 | 152175
10 | 33:49.01 | 4:45.54 | 152176 | 173604
11 | 38:34.55 | 3:28.64 | 173605 | 189268
12 | 42:03.44 | 3:48.32 | 189269 | 206400
13 | 45:52.01 | 4:24.27 | 206401 | 226227
14 | 50:16.28 | 4:17.57 | 226228 | 245559
15 | 54:34.10 | 3:10.06 | 245560 | 259815
16 | 57:44.16 | 3:54.00 | 259816 | 277365


Range status and errors

Selected range

Filename C:\mm\Enrique Iglesias\2002 - Escape [493 534-2]\Enrique Iglesias - Escape.wav

Peak level 99.4 %
Extraction speed 9.0 X
Range quality 100.0 %
Test CRC C2487B99
Copy CRC C2487B99
Copy OK

No errors occurred


AccurateRip summary

Track 1 accurately ripped (confidence 30) [3761306A] (AR v2)
Track 2 accurately ripped (confidence 30) [BE2B96F2] (AR v2)
Track 3 accurately ripped (confidence 30) [BB718ADC] (AR v2)
Track 4 accurately ripped (confidence 30) [0A4637E9] (AR v2)
Track 5 accurately ripped (confidence 31) [F2A91D66] (AR v2)
Track 6 accurately ripped (confidence 31) [389F8F9A] (AR v2)
Track 7 accurately ripped (confidence 30) [EB41CE9F] (AR v2)
Track 8 accurately ripped (confidence 30) [BD92AFA1] (AR v2)
Track 9 accurately ripped (confidence 29) [9D7B27A9] (AR v2)
Track 10 accurately ripped (confidence 30) [E714E4B9] (AR v2)
Track 11 accurately ripped (confidence 31) [3109A7C6] (AR v2)
Track 12 accurately ripped (confidence 31) [F1A27DCB] (AR v2)
Track 13 accurately ripped (confidence 29) [7EA307FD] (AR v2)
Track 14 accurately ripped (confidence 29) [BB19883E] (AR v2)
Track 15 accurately ripped (confidence 30) [D83F576A] (AR v2)
Track 16 accurately ripped (confidence 28) [8D0C3C4E] (AR v2)

All tracks accurately ripped

End of status report

[CUETools log; Date: 05.05.2020 17:01:47; Version: 2.1.6]
[CTDB TOCID: grgY.5wHjq1rJWk9gaGti79Kg0Q-] found.
Track | CTDB Status
1 | (79/80) Accurately ripped
2 | (79/80) Accurately ripped
3 | (79/80) Accurately ripped
4 | (79/80) Accurately ripped
5 | (79/80) Accurately ripped
6 | (79/80) Accurately ripped
7 | (79/80) Accurately ripped
8 | (79/80) Accurately ripped
9 | (79/80) Accurately ripped
10 | (79/80) Accurately ripped
11 | (78/80) Accurately ripped
12 | (77/80) Accurately ripped
13 | (78/80) Accurately ripped
14 | (77/80) Accurately ripped
15 | (78/80) Accurately ripped
16 | (77/80) Accurately ripped
[AccurateRip ID: 0023c74e-01ae5fc2-d40e7210] found.
Track [ CRC | V2 ] Status
01 [efa8a76a|3761306a] (24+39/73) Accurately ripped
02 [7d967f75|be2b96f2] (25+39/74) Accurately ripped
03 [2e57bba3|bb718adc] (25+39/74) Accurately ripped
04 [747cc0c2|0a4637e9] (26+39/75) Accurately ripped
05 [edeb04a8|f2a91d66] (26+40/76) Accurately ripped
06 [09aebaab|389f8f9a] (26+40/76) Accurately ripped
07 [29cd221e|eb41ce9f] (26+39/75) Accurately ripped
08 [6ffe13c1|bd92afa1] (26+39/75) Accurately ripped
09 [b7f300c9|9d7b27a9] (25+38/73) Accurately ripped
10 [c1943fe7|e714e4b9] (24+39/73) Accurately ripped
11 [fc6c77df|3109a7c6] (26+40/76) Accurately ripped
12 [a3adfff1|f1a27dcb] (26+40/76) Accurately ripped
13 [5c7c8a9a|7ea307fd] (25+38/73) Accurately ripped
14 [f0775e99|bb19883e] (26+38/74) Accurately ripped
15 [dc670b22|d83f576a] (24+39/72) Accurately ripped
16 [53e125cf|8d0c3c4e] (25+37/71) Accurately ripped
Offsetted by -682:
01 [4e60c188] (03/73) Accurately ripped
02 [4f7c04a9] (03/74) Accurately ripped
03 [6f040bd1] (03/74) Accurately ripped
04 [f3ac6b58] (03/75) Accurately ripped
05 [e293451a] (03/76) Accurately ripped
06 [8b55af57] (03/76) Accurately ripped
07 [49628c36] (03/75) Accurately ripped
08 [d3cde059] (03/75) Accurately ripped
09 [8c82d9e1] (03/73) Accurately ripped
10 [9a04f314] (03/73) Accurately ripped
11 [536d9662] (03/76) Accurately ripped
12 [cb3633b3] (03/76) Accurately ripped
13 [e7c49fb8] (03/73) Accurately ripped
14 [ce8df433] (03/74) Accurately ripped
15 [7e2d348a] (03/72) Accurately ripped
16 [0d1449f9] (03/71) Accurately ripped
Offsetted by -18:
01 [bc85910d] (00/73) No match (V2 was not tested)
02 [8cff7548] (00/74) No match (V2 was not tested)
03 [0050fabd] (00/74) No match (V2 was not tested)
04 [915e7af0] (00/75) No match (V2 was not tested)
05 [e49c20a2] (00/76) No match (V2 was not tested)
06 [8e234e08] (00/76) No match (V2 was not tested)
07 [9d3b7fed] (00/75) No match (V2 was not tested)
08 [fe435fb9] (00/75) No match (V2 was not tested)
09 [44b0fb41] (00/73) No match (V2 was not tested)
10 [dff4f8c1] (00/73) No match (V2 was not tested)
11 [82d35421] (00/76) No match (V2 was not tested)
12 [2b1ab27b] (00/76) No match (V2 was not tested)
13 [2059a870] (00/73) No match (V2 was not tested)
14 [09189f5b] (00/74) No match (V2 was not tested)
15 [5388cd2a] (00/72) No match (V2 was not tested)
16 [b15a9d61] (00/71) No match (V2 was not tested)

Track Peak [ CRC32 ] [W/O NULL] [ LOG ]
– 99,4 [C2487B99] [53895A80] CRC32
01 98,6 [0097AAD4] [B2AB8B10]
02 98,6 [7EB3A750] [EDFD65E7]
03 98,6 [FD307052] [1E3C6B0E]
04 98,6 [302718C0] [BEA3EE41]
05 98,6 [77A2E15F] [00AC0196]
06 98,6 [FD7FD281] [73140204]
07 98,6 [08FDBE21] [8C2F6FBE]
08 98,6 [42B36399] [BD915135]
09 98,6 [9CBC4766] [4D051B92]
10 98,6 [B07D5441] [9D71F734]
11 98,6 [2668C897] [E90DB389]
12 98,6 [C557AFE1] [63284B9C]
13 98,6 [C6E6E568] [E0AF0F49]
14 98,6 [CA1C053A] [5BFBA2E9]
15 90,2 [5D273F31] [A65AF300]
16 99,4 [A8AB3679] [D98361C8]

All thanks go to sergych

>>> Enrique Iglesias in my Blog <<<

DOWNLOAD: