Tags
Language
Tags

Enya - A Day Without Rain (2000) {Japan 1st Press}

Posted By: popsakov
Enya - A Day Without Rain (2000) {Japan 1st Press}

Enya - A Day Without Rain (2000) {Japan 1st Press}
EAC Rip | FLAC (Img) + Cue + Log ~ 220 Mb | MP3 CBR320 ~ 94 Mb
Full Scans ~ 159 Mb | 00:38:54 | RAR 5% Recovery
New Age | WEA Japan #WPCR-11000

A Day Without Rain is the fifth studio album by the Irish singer, songwriter and musician Enya, released on 20 November 2000 by WEA. In a musical departure from her previous albums, Enya incorporates a string section on the record. A Day Without Rain received mixed reviews from critics; some felt it too derivative of Enya's previous albums whilst others complimented the minimal use of overdubbing that her sound had become known for. It was a commercial success peaking at No. 6 in the United Kingdom and initially, No. 17 on the Billboard 200 in the United States. Following the 11 September 2001 attacks, sales of the album and its lead single, "Only Time", skyrocketed after it was used by several radio and television networks in their coverage and aftermath of the attacks. As a result, "Only Time" climbed to No. 10 on the Billboard Hot 100 singles chart and A Day Without Rain reached a new peak on the Billboard 200 at No. 2. It became the fifth highest selling album of 2001 in the United States, and the best selling new age album of all time with an estimated 16 million copies sold worldwide. It remains Enya's highest selling album of her career. To promote the album, Enya made several interviews and televised performances, including the 2001 World Music Awards. In 2002, the album won Enya her third Grammy Award for Best New Age Album.

Enya's first full-length album of new material in five years (and her fourth in 12 years) will have a familiar sound to the millions who have followed her career so far. As usual, the slow songs sound like "Silent Night" being performed in a cathedral, and the less slow songs are paced by rhythm patterns that would be called pizzicato passages if they were being played on real strings instead of string-like synthesizers. Over the music, Enya sings in her multi-tracked, ethereal voice, making Roma Ryan's lyrics, which are full of pastoral imagery and abstract romantic sentiments, seem even more insubstantial than they already are. In the press materials accompanying the release, Enya explains why it took her five years to come up with less than 34 and a half minutes of music that sounds like most of her earlier music by noting that she plays all the instruments and does all the singing herself without using samples. It might be more accurate to say that there is no need for her to release albums any more frequently than she does, since each one sells over a long period of time. And since her listeners are more concerned with the mood she sets than with musical content, the similarity to her other albums is a good thing. This is music that works almost entirely as a surface pleasure; strip it of its pretensions, and it's just contemporary easy listening music.

~ William Ruhlmann, All Music

***************

Track List:

01. A Day Without Rain [2:39]
02. Wild Child [3:48]
03. Only Time [3:39]
04. Tempus Vernum [2:25]
05. Deora Ar Mo Chroi [2:49]
06. Flora's Secret [4:08]
07. Fallen Embers [2:32]
08. Silver Inches [1:38]
09. Pilgrim [3:13]
10. One By One [3:55]
11. Isobella [4:31]
12. Lazy Days [3:43]

Exact Audio Copy V1.3 from 2. September 2016

EAC extraction logfile from 19. January 2019, 19:33

Enya / A Day Without Rain

Used drive : PLEXTOR DVDR PX-760A Adapter: 1 ID: 0

Read mode : Secure
Utilize accurate stream : Yes
Defeat audio cache : Yes
Make use of C2 pointers : No

Read offset correction : 30
Overread into Lead-In and Lead-Out : No
Fill up missing offset samples with silence : Yes
Delete leading and trailing silent blocks : No
Null samples used in CRC calculations : Yes
Used interface : Native Win32 interface for Win NT & 2000

Used output format : Internal WAV Routines
Sample format : 44.100 Hz; 16 Bit; Stereo


TOC of the extracted CD

Track | Start | Length | Start sector | End sector
––––––––––––––––––––––––––––-
1 | 0:00.00 | 2:38.05 | 0 | 11854
2 | 2:38.05 | 3:47.70 | 11855 | 28949
3 | 6:26.00 | 3:38.02 | 28950 | 45301
4 | 10:04.02 | 2:24.20 | 45302 | 56121
5 | 12:28.22 | 2:48.63 | 56122 | 68784
6 | 15:17.10 | 4:07.37 | 68785 | 87346
7 | 19:24.47 | 2:31.03 | 87347 | 98674
8 | 21:55.50 | 1:37.67 | 98675 | 106016
9 | 23:33.42 | 3:12.53 | 106017 | 120469
10 | 26:46.20 | 3:54.47 | 120470 | 138066
11 | 30:40.67 | 4:30.23 | 138067 | 158339
12 | 35:11.15 | 3:42.57 | 158340 | 175046


Range status and errors

Selected range

Filename F:\FLAC (bruk67)\Enya (FLAC)\2000 - A Day Without Rain (WEA WPCR-11000, Japan)\Enya - A Day Without Rain.wav

Peak level 100.0 %
Extraction speed 2.2 X
Range quality 99.9 %
Test CRC 48E609F2
Copy CRC 48E609F2
Copy OK

No errors occurred


AccurateRip summary

Track 1 accurately ripped (confidence 43) [3EF6455E] (AR v2)
Track 2 accurately ripped (confidence 43) [C219548A] (AR v2)
Track 3 accurately ripped (confidence 43) [A31C5AE4] (AR v2)
Track 4 accurately ripped (confidence 42) [EEFFD1F1] (AR v2)
Track 5 accurately ripped (confidence 42) [8532E2D9] (AR v2)
Track 6 accurately ripped (confidence 43) [E61681E3] (AR v2)
Track 7 accurately ripped (confidence 41) [309E5712] (AR v2)
Track 8 accurately ripped (confidence 41) [23F8638F] (AR v2)
Track 9 accurately ripped (confidence 41) [9D1B3A1E] (AR v2)
Track 10 accurately ripped (confidence 41) [BDF4FADE] (AR v2)
Track 11 accurately ripped (confidence 41) [7BC3D6F5] (AR v2)
Track 12 accurately ripped (confidence 41) [5CA34925] (AR v2)

All tracks accurately ripped

End of status report

–– CUETools DB Plugin V2.1.6

[CTDB TOCID: IO3UdmMDpCsxBKZJvE.4a0AhgRw-] found
Submit result: IO3UdmMDpCsxBKZJvE.4a0AhgRw- has been confirmed
Track | CTDB Status
1 | (285/294) Accurately ripped
2 | (281/294) Accurately ripped
3 | (283/294) Accurately ripped
4 | (287/294) Accurately ripped
5 | (282/294) Accurately ripped
6 | (283/294) Accurately ripped
7 | (283/294) Accurately ripped
8 | (283/294) Accurately ripped
9 | (282/294) Accurately ripped
10 | (281/294) Accurately ripped
11 | (281/294) Accurately ripped
12 | (289/294) Accurately ripped


==== Log checksum F205460D812D0A6C602804BCA977FD3B79A9ED001BF872B70DD89D0CCBAF51DB ====

[CUETools log; Date: 19.04.2021 19:57:40; Version: 2.1.6]
[CTDB TOCID: IO3UdmMDpCsxBKZJvE.4a0AhgRw-] found.
Track | CTDB Status
1 | (442/453) Accurately ripped
2 | (437/453) Accurately ripped
3 | (438/453) Accurately ripped
4 | (445/453) Accurately ripped
5 | (438/453) Accurately ripped
6 | (440/453) Accurately ripped
7 | (440/453) Accurately ripped
8 | (440/453) Accurately ripped
9 | (438/453) Accurately ripped
10 | (438/453) Accurately ripped
11 | (437/453) Accurately ripped
12 | (447/453) Accurately ripped
[AccurateRip ID: 0010b541-009c3cdf-91091d0c] found.
Track [ CRC | V2 ] Status
01 [11a154f3|3ef6455e] (018+052/141) Accurately ripped
02 [94e9b9c0|c219548a] (018+051/138) Accurately ripped
03 [8fd2e74e|a31c5ae4] (018+052/141) Accurately ripped
04 [3bd03293|eeffd1f1] (018+051/138) Accurately ripped
05 [f3f20df6|8532e2d9] (018+050/138) Accurately ripped
06 [ab96e108|e61681e3] (018+051/137) Accurately ripped
07 [e709e3c4|309e5712] (018+049/139) Accurately ripped
08 [e9e3b26c|23f8638f] (018+049/138) Accurately ripped
09 [bafb95d7|9d1b3a1e] (018+049/137) Accurately ripped
10 [66aae217|bdf4fade] (018+049/138) Accurately ripped
11 [4789525c|7bc3d6f5] (018+049/136) Accurately ripped
12 [896645ff|5ca34925] (018+050/138) Accurately ripped
Offsetted by 234:
01 [9e76b6c3] (010/141) Accurately ripped
02 [2365186c] (010/138) Accurately ripped
03 [6d782518] (009/141) Accurately ripped
04 [0746b6c2] (010/138) Accurately ripped
05 [31007fd1] (010/138) Accurately ripped
06 [8bb10058] (010/137) Accurately ripped
07 [3542b5c6] (010/139) Accurately ripped
08 [0bbcf2e0] (010/138) Accurately ripped
09 [ed3425bb] (010/137) Accurately ripped
10 [cd4a3527] (010/138) Accurately ripped
11 [55ab3418] (010/136) Accurately ripped
12 [7a1173b5] (010/138) Accurately ripped
Offsetted by 302:
01 [cbc409e3] (007/141) Accurately ripped
02 [a8b284e4] (007/138) Accurately ripped
03 [4fcb2c1c] (007/141) Accurately ripped
04 [4b61916a] (007/138) Accurately ripped
05 [1925a45d] (007/138) Accurately ripped
06 [19657278] (007/137) Accurately ripped
07 [49cdc07a] (007/139) Accurately ripped
08 [6227d7a8] (007/138) Accurately ripped
09 [d469c7e3] (007/137) Accurately ripped
10 [a2e818c7] (007/138) Accurately ripped
11 [c72d6430] (007/136) Accurately ripped
12 [529ab7b1] (007/138) Accurately ripped
Offsetted by -714:
01 [35f56c23] (000/141) No match (V2 was not tested)
02 [1d3cc6d4] (000/138) No match (V2 was not tested)
03 [476b1da4] (000/141) No match (V2 was not tested)
04 [83f684a8] (000/138) No match (V2 was not tested)
05 [b3e249b7] (000/138) No match (V2 was not tested)
06 [5bb032b8] (000/137) No match (V2 was not tested)
07 [8f55f362] (000/139) No match (V2 was not tested)
08 [de815038] (000/138) No match (V2 was not tested)
09 [bf486f33] (000/137) No match (V2 was not tested)
10 [a3b10c07] (000/138) No match (V2 was not tested)
11 [9fb25960] (000/136) No match (V2 was not tested)
12 [27c4fc29] (000/138) No match (V2 was not tested)
Offsetted by -692:
01 [17705253] (000/141) No match (V2 was not tested)
02 [93a8a628] (000/138) No match (V2 was not tested)
03 [091c90da] (000/141) No match (V2 was not tested)
04 [90a0794d] (000/138) No match (V2 was not tested)
05 [a794f408] (000/138) No match (V2 was not tested)
06 [72f21b68] (000/137) No match (V2 was not tested)
07 [ac91fe60] (000/139) No match (V2 was not tested)
08 [e3e021c4] (000/138) No match (V2 was not tested)
09 [4dd9c94f] (000/137) No match (V2 was not tested)
10 [7f6420f7] (000/138) No match (V2 was not tested)
11 [5b021da4] (000/136) No match (V2 was not tested)
12 [8469dd73] (000/138) No match (V2 was not tested)
Offsetted by -667:
01 [c636295b] (000/141) No match (V2 was not tested)
02 [bd233b36] (000/138) No match (V2 was not tested)
03 [36ac0823] (000/141) No match (V2 was not tested)
04 [b5cbc754] (000/138) No match (V2 was not tested)
05 [ead60622] (000/138) No match (V2 was not tested)
06 [761a1830] (000/137) No match (V2 was not tested)
07 [e51067f5] (000/139) No match (V2 was not tested)
08 [52b49b86] (000/138) No match (V2 was not tested)
09 [b5ad8129] (000/137) No match (V2 was not tested)
10 [3ede2d1f] (000/138) No match (V2 was not tested)
11 [f5ae36da] (000/136) No match (V2 was not tested)
12 [04f6aeea] (000/138) No match (V2 was not tested)
Offsetted by -69:
01 [9fe5b18b] (000/141) No match (V2 was not tested)
02 [7e97660a] (000/138) No match (V2 was not tested)
03 [dee08999] (000/141) No match (V2 was not tested)
04 [b719285c] (000/138) No match (V2 was not tested)
05 [73155d70] (000/138) No match (V2 was not tested)
06 [79eb12e0] (000/137) No match (V2 was not tested)
07 [74136433] (000/139) No match (V2 was not tested)
08 [70519592] (000/138) No match (V2 was not tested)
09 [360529c5] (000/137) No match (V2 was not tested)
10 [efcaac0f] (000/138) No match (V2 was not tested)
11 [363db09e] (000/136) No match (V2 was not tested)
12 [4f8fb1f4] (000/138) No match (V2 was not tested)

Track Peak [ CRC32 ] [W/O NULL] [ LOG ]
– 100,0 [48E609F2] [015D130A] CRC32
01 88,5 [8133E5DC] [CB75648C]
02 99,5 [295414B9] [8FB5F81C]
03 100,0 [E5CEE20C] [5F8896E8]
04 99,4 [45D86A0E] [794E2E4A]
05 78,1 [336B2867] [BADA6858]
06 99,5 [48B5AD9C] [0C71B78A]
07 78,4 [9E3CE8DC] [B26FA245]
08 99,4 [C404B06F] [4B519BBE]
09 97,7 [316F329B] [F2EBBCCA]
10 99,5 [BFA1BAD0] [BD11324C]
11 88,3 [51192163] [97E91180]
12 99,4 [8AFDD42F] [353097C3]

All thanks go to bruk67

>>> Enya in my Blog <<<

DOWNLOAD: