Subcategories

Enya - The Memory Of Trees (1995)

Posted By: popsakov
Enya - The Memory Of Trees (1995)

Enya - The Memory Of Trees (1995)
EAC Rip | FLAC (Img) + Cue + Log ~ 213 Mb | MP3 CBR320 ~ 106 Mb
Full Scans ~ 165 Mb | 00:43:51 | RAR 5% Recovery
New Age, Celtic, Ambient | Reprise Records #9 46106-2

The Memory of Trees is the fourth studio album by the Irish singer, songwriter, and musician Enya, released on 20 November 1995 by WEA. After travelling worldwide to promote her previous album Shepherd Moons (1991), and contributing to film soundtracks, Enya took a short break before she started writing and recording a new album in 1993 with her longtime recording partners, arranger and producer Nicky Ryan and his wife, lyricist Roma Ryan. The album is Enya's first to be recorded entirely in Ireland, and covers themes that include Irish and Druid mythology, the idea of one's home, journeys, religion, dreams and love. Enya continues to display her sound of multi-tracked vocals with keyboards and elements of Celtic and new age music, though Enya does not consider her music to be in the latter genre. She sings in English, Irish, Latin and Spanish.

The Memory of Trees received mostly positive reviews from music critics. It became a worldwide commercial success, reaching number five on the United Kingdom and number nine on the Billboard 200 in the United States. Enya supported the album with a promotional tour which included several interviews and televised performances. The Memory of Trees won Enya her second Grammy Award for Best New Age Album in 1997.

***************

Enya - The Memory Of Trees (1995)

Track List:

01. The Memory Of Trees [4:20]
02. Anywhere Is [4:00]
03. Pax Deorum [5:00]
04. Athair Ar Neamh [3:42]
05. From Where I Am [2:23]
06. China Roses [4:50]
07. Hope Has A Place [4:49]
08. Tea-House Moon [2:43]
09. Once You Had Gold [3:18]
10. La Sonadora [3:38]
11. On My Way Home [5:09]

Exact Audio Copy V1.0 beta 3 from 29. August 2011

EAC extraction logfile from 5. October 2019, 17:01

Enya / The Memory Of Trees

Used drive : PIONEER BD-RW BDR-TD03 Adapter: 0 ID: 1

Read mode : Secure
Utilize accurate stream : Yes
Defeat audio cache : Yes
Make use of C2 pointers : No

Read offset correction : 667
Overread into Lead-In and Lead-Out : No
Fill up missing offset samples with silence : Yes
Delete leading and trailing silent blocks : No
Null samples used in CRC calculations : Yes
Used interface : Native Win32 interface for Win NT & 2000

Used output format : User Defined Encoder
Selected bitrate : 768 kBit/s
Quality : High
Add ID3 tag : No
Command line compressor : C:\Program Files (x86)\Exact Audio Copy\FLAC\FLAC.EXE
Additional command line options : -V -8 -T "Date=%year%" -T "Genre=%genre%" %source%


TOC of the extracted CD

Track | Start | Length | Start sector | End sector
––––––––––––––––––––––––––––-
1 | 0:00.00 | 4:19.69 | 0 | 19493
2 | 4:19.69 | 3:59.38 | 19494 | 37456
3 | 8:19.32 | 4:59.48 | 37457 | 59929
4 | 13:19.05 | 3:42.07 | 59930 | 76586
5 | 17:01.12 | 2:22.65 | 76587 | 87301
6 | 19:24.02 | 4:49.60 | 87302 | 109036
7 | 24:13.62 | 4:48.48 | 109037 | 130684
8 | 29:02.35 | 2:43.32 | 130685 | 142941
9 | 31:45.67 | 3:18.25 | 142942 | 157816
10 | 35:04.17 | 3:38.17 | 157817 | 174183
11 | 38:42.34 | 5:09.00 | 174184 | 197358


Range status and errors

Selected range

Filename C:\Users\Deris\Desktop\Enya95\Enya - The Memory Of Trees.wav

Peak level 99.9 %
Extraction speed 4.3 X
Range quality 99.9 %
Test CRC AF308182
Copy CRC AF308182
Copy OK

No errors occurred


AccurateRip summary

Track 1 accurately ripped (confidence 200) [73F60B4E] (AR v2)
Track 2 accurately ripped (confidence 200) [B0763959] (AR v2)
Track 3 accurately ripped (confidence 200) [7FC3E70B] (AR v2)
Track 4 accurately ripped (confidence 200) [57119049] (AR v2)
Track 5 accurately ripped (confidence 200) [926AC3CD] (AR v2)
Track 6 accurately ripped (confidence 200) [6411B4BF] (AR v2)
Track 7 accurately ripped (confidence 200) [C3AF5F8B] (AR v2)
Track 8 accurately ripped (confidence 200) [45C4D974] (AR v2)
Track 9 accurately ripped (confidence 200) [326DFA91] (AR v2)
Track 10 accurately ripped (confidence 200) [A5D7584E] (AR v2)
Track 11 accurately ripped (confidence 200) [A9B18784] (AR v2)

All tracks accurately ripped

End of status report

–– CUETools DB Plugin V2.1.3

[CTDB TOCID: G9HRWBnupafs9W9ujk33GbF4sa0-] found, Submit result: G9HRWBnupafs9W9ujk33GbF4sa0- has been confirmed
[be1bd353] (996/1023) Accurately ripped
[871ad18d] (001/1023) No match
[0499492e] (005/1023) No match
[35f48fa4] (001/1023) No match
[9369de8c] (001/1023) No match
[c11069ef] (001/1023) No match
[db143454] (001/1023) No match
[6ef20a1d] (001/1023) No match
[e2a20074] (001/1023) No match
[5203347d] (001/1023) No match
[299ad85e] (001/1023) No match
[c311df37] (001/1023) No match
[e1c1da1f] (001/1023) No match
[dcb73617] (001/1023) No match
[a59175e8] (001/1023) No match
[002629ad] (001/1023) No match
[2d69cc18] (001/1023) No match
[30383a2c] (001/1023) No match
[a97f720e] (001/1023) No match
[1e35e796] (001/1023) No match
[236d6937] (001/1023) No match
[3306e97d] (001/1023) No match
[c0f58346] (001/1023) No match
[630ae656] (001/1023) No match


==== Log checksum 41050A582BE0C0FBF328F18F7FDE35303216960AFF76F6BA415C24045E51DE41 ====

foobar2000 1.4 / Dynamic Range Meter 1.1.1
log date: 2019-10-09 10:39:53

––––––––––––––––––––––––––––––––––––––––
Analyzed: Enya / The Memory Of Trees
––––––––––––––––––––––––––––––––––––––––

DR Peak RMS Duration Track
––––––––––––––––––––––––––––––––––––––––
DR12 -0.06 dB -15.95 dB 4:20 01-The Memory Of Trees
DR12 0.00 dB -14.70 dB 4:00 02-Anywhere Is
DR13 -0.13 dB -17.05 dB 5:00 03-Pax Deorum
DR11 -3.57 dB -18.07 dB 3:42 04-Athair Ar Neamh
DR12 -12.69 dB -29.96 dB 2:23 05-From Where I Am
DR11 -0.09 dB -15.33 dB 4:50 06-China Roses
DR11 -0.17 dB -15.91 dB 4:49 07-Hope Has A Place
DR11 -2.96 dB -16.60 dB 2:43 08-Tea-House Moon
DR11 -5.05 dB -19.79 dB 3:18 09-Once You Had Gold
DR11 -0.61 dB -16.18 dB 3:38 10-La Sonadora
DR12 0.00 dB -15.17 dB 5:09 11-On My Way Home
––––––––––––––––––––––––––––––––––––––––

Number of tracks: 11
Official DR value: DR11

Samplerate: 44100 Hz
Channels: 2
Bits per sample: 16
Bitrate: 644 kbps
Codec: FLAC
================================================================================

[CUETools log; Date: 09.10.2019 10:38:31; Version: 2.1.6]
[CTDB TOCID: G9HRWBnupafs9W9ujk33GbF4sa0-] found.
Track | CTDB Status
1 | (1010/1024) Accurately ripped
2 | (1013/1024) Accurately ripped
3 | (1013/1024) Accurately ripped
4 | (1010/1024) Accurately ripped
5 | (1011/1024) Accurately ripped
6 | (1010/1024) Accurately ripped
7 | (1011/1024) Accurately ripped
8 | (1011/1024) Accurately ripped
9 | (1009/1024) Accurately ripped
10 | (1011/1024) Accurately ripped
11 | (1006/1024) Accurately ripped
[AccurateRip ID: 0012335a-009c7cba-720a470b] found.
Track [ CRC | V2 ] Status
01 [ee765413|73f60b4e] (200+200/404) Accurately ripped
02 [ccb25ba5|b0763959] (200+200/404) Accurately ripped
03 [c5c04e54|7fc3e70b] (200+200/404) Accurately ripped
04 [b504706d|57119049] (200+200/404) Accurately ripped
05 [3d41a7d2|926ac3cd] (200+200/404) Accurately ripped
06 [6abdd11f|6411b4bf] (200+200/404) Accurately ripped
07 [854445c4|c3af5f8b] (200+200/404) Accurately ripped
08 [9fe99c7e|45c4d974] (200+200/404) Accurately ripped
09 [5ecd94fc|326dfa91] (200+200/404) Accurately ripped
10 [89dd7d02|a5d7584e] (200+200/404) Accurately ripped
11 [1271e799|a9b18784] (200+200/418) Accurately ripped
Offsetted by -901:
01 [afae5adf] (000/404) No match (V2 was not tested)
02 [4bd2a68c] (000/404) No match (V2 was not tested)
03 [ebbd5dc1] (000/404) No match (V2 was not tested)
04 [3efa5e2d] (000/404) No match (V2 was not tested)
05 [f562e2d4] (000/404) No match (V2 was not tested)
06 [3b603450] (000/404) No match (V2 was not tested)
07 [23fe6695] (000/404) No match (V2 was not tested)
08 [c1a0f1b8] (000/404) No match (V2 was not tested)
09 [a9a0cec6] (000/404) No match (V2 was not tested)
10 [8b9233a8] (000/404) No match (V2 was not tested)
11 [ab2ba638] (000/418) No match (V2 was not tested)

Track Peak [ CRC32 ] [W/O NULL] [ LOG ]
– 99,9 [AF308182] [06C4966B] CRC32
01 99,3 [BC5A0052] [92F55EA0]
02 99,9 [3EBC2A39] [5C7BFDAB]
03 98,5 [A8DF57F3] [EE163DF7]
04 66,3 [FB4D6B4E] [C31DCD74]
05 23,2 [F7CFCBCD] [F5F525E0]
06 98,9 [3B5A2AB4] [B5D51033]
07 98,1 [CD91634D] [0DA393B5]
08 71,1 [47A96F64] [8AA37077]
09 55,9 [03B1E4B8] [734EE951]
10 93,2 [F2278367] [B7D4299D]
11 99,9 [B10501D2] [F2EAA590]

Enya - The Memory Of Trees (1995)


All thanks go to Boris1

>>> Enya in my Blog <<<

DOWNLOAD: