Subcategories

Erasure - Always: The Very Best Of Erasure (2015) 3CD Deluxe Edition [Re-Up]

Posted By: Designol
Erasure - Always: The Very Best Of Erasure (2015) 3CD Deluxe Edition [Re-Up]

Erasure - Always: The Very Best Of Erasure (2015) 3CD Deluxe Edition
EAC | FLAC | Tracks (Cue&Log) ~ 1.5 Gb | Mp3 (CBR320) ~ 502 Mb | Scans ~ 393 Mb
Synthpop, New Wave, Electronic, Dance-Pop | Label: Mute | # LCDMUTEL26 | 03:39:20

Always' - The Very Best Of Erasure is a brand new and essential singles compilation celebrating 30 years of the band, which brings the story bang up to date. The album includes a brand new version of 'Sometimes' re-booted for 2015 by David Wrench (Hot Chip, Jamie XX & Caribou). Formed in 1985, the award-winning song writing duo of Vince Clarke and Andy Bell unleashed on the nation a succession of both influential and chart-topping pop anthems of the '80s, '90s through to today. Songs like 'A Little Respect', 'Sometimes', 'Victim Of Love', 'Ship Of Fools', 'Blue Savannah', 'Star', 'Chains Of Love', 'The Circus', 'Who Needs Love (Like That)', 'Love To Hate You', 'Drama!', 'Always' and 'Breathe', ensured a formidable presence on the singles charts complemented by five consecutive No 1 albums (including The Innocents, Wild! and Chorus) and the beginning of the worldwide Abba revival, 'Abba-esque'. This is the 3CD bookpack edition features remixes from Moby, William Orbit, BT and The Grid (Dave Ball / Soft Cell) plus 4 brand new remixes.

Following the disbandment of the short-lived synth pop group Yazoo, former Depeche Mode member Vince Clarke formed Erasure in 1985 with singer Andy Bell. Like Yaz and Depeche Mode, Erasure were a synth-based group, but they had stronger dance inclinations, as well as a sharper, more accessible sense of pop songcraft, than either of Clarke's previous bands. Furthermore, Erasure had the flamboyantly eccentric Andy Bell – one of the first openly gay performers in pop music – as their focal point. Bell's keening, high voice and exaggerated sense of theatrically became the band's defining image. In their native Britain, Erasure were successful from their inception. After a few years, the duo achieved commercial success in America with 1988's "Chains of Love," but they remained, in essence, a cult band on both sides of the Atlantic, cultivating a dedicated fan base over the course of their career.

Before forming Erasure, Clarke was one of the founding members of the groundbreaking synth pop outfit Depeche Mode. He left after recording only one album with the group, choosing to form Yaz with Alison Moyet instead. After Yaz released two albums, Moyet left to pursue a solo career. Clarke participated in a short-lived alliance with vocalist Feargal Sharkey and producer Eric Radcliffe called the Assembly in 1984. Following a single with vocalist Paul Quinn, he decided to form Erasure. Clarke placed an advertisement for vocalists within a British music newspaper and received over 40 demo tapes, from which Bell was selected as his partner.

Released in 1986, Erasure's first album, Wonderland, received poor reviews and weak sales upon its release. The duo quickly followed the album with "Sometimes," a preview from their forthcoming second album. "Sometimes" reached number two on the U.K. charts, beginning a string of successful singles that would run into the '90s. The Circus, the group's second album, was released in the spring of 1987 and peaked at number six on the U.K. charts. The Innocents, Erasure's third album, became their first number one album in Britain upon its release in 1988. The album featured the group's first American hit, "Chains of Love," which reached number 12 in the U.S.; its follow-up, "A Little Respect," peaked at number 14 in America. At the end of 1988, Erasure released the Crackers International EP, which reached number two in Britain.

Erasure's fourth album, Wild!, appeared in 1989, and like its predecessor, it reached number one in the U.K., as did its successor, 1991's Chorus. Erasure released the Abba-esque EP, a tribute to the Swedish pop group ABBA, in 1992; it became their first number one single in the U.K. Later that year, Erasure released a compilation of their British singles, Pop! The First 20 Hits. Two years later, the duo released its fifth album, I Say I Say I Say, which featured the hit single "Always," their first American hit since 1988. Erasure's eponymous sixth album was released in the fall of 1995. It was followed in the spring of 1997 by Cowboy. Loveboat surfaced three years later. The all-covers Other People's Songs appeared in 2003, the same year as the oddly chosen compilation Hits! Before the release of 2005's "return to form" album Nightbird, Bell revealed he was HIV positive and had been since June of 1998. The 2006 album Union Street found the duo unplugging and re-recording old album tracks and B-sides with acoustic instruments. A tour with a full band supported the album and was documented on the 2007 live release On the Road to Nashville. Later in the year the return-to-form album Light at the End of the World arrived. Tomorrow's World followed in 2011 with the duo handing production over to Frankmusik, whose previous work included Lady Gaga and the Pet Shop Boys. In 2013 they released Snow Globe, a holiday album featuring new songs from the duo along with some classic Christmas carols. A return to their club-oriented work of their earlier years, the dancefloor-ready album The Violet Flame followed in 2014 with production from Richard X.

Stephen Thomas Erlewine, Allmusic.com

Erasure - Always: The Very Best Of Erasure (2015) 3CD Deluxe Edition [Re-Up]



Tracklist:

CD1:

01. Who Needs Love (Like That) (3:07)
02. Oh L'Amour (3:08)
03. Sometimes (3:40)
04. Victim of Love (3:38)
05. The Circus (4:07)
06. Ship of Fools (4:04)
07. Chains of Love (3:44)
08. A Little Respect (3:32)
09. Stop! (2:55)
10. Drama! (4:06)
11. Blue Savannah (4:20)
12. Chorus (4:30)
13. Love to Hate You (3:57)
14. Take a Chance on Me (3:46)
15. Always (4:02)
16. Fingers and Thumbs (Cold Summer's Day) (4:23)
17. Breathe (3:49)
18. Be With You (3:35)
19. Elevation (3:36)
20. Sometimes (2015 Mix) (3:33)

CD2:

01. Who Needs Love (Like That) (Mexican Mix) (6:07)
02. Oh l’amour (PWL Funky Sisters Say “Ooh La La”) (7:15)
03. The Circus (Eternal Eraser Mix (Grumbling Fur)) (6:08)
04. A Little Respect (Big Train Mix) (6:09)
05. Stop! (Vince Clarke Sync 82 Remix) (6:03)
06. Blue Savannah (Der Deutsche Mix II) (6:15)
07. Chorus (Vegan Mix) (5:28)
08. Love to Hate You (LFO Modulated Filter Mix) (5:55)
09. Always (Microbots Inside Your Brain Mix) (5:03)
10. Fingers and Thumbs (Cold Summer’s Day) (Tin Tin Out Remix) (8:04)
11. Breathe (GRN’s ‘Anticipated’ 12” Re-Mix) (5:20)
12. Elevation (BT Remix) (7:09)

CD3:

01. Victim of Love (Vixen Vitesse Remix) (5:47)
02. Chains of Love (Vince Clarke Remix) (5:13)
03. Drama! (Krucial Remix) (7:07)
04. You Surround Me (Mark Saunders Remix) (7:32)
05. Star (Interstellar Mix) (6:28)
06. Am I Right? (The Grid Remix) (6:40)
07. Run to the Sun (Beatmasters’ Galactic Remix) (7:20)
08. In My Arms (BBE Remix) (4:18)
09. Freedom (Mark Picchiotti Strumapella Remix) (8:11)
10. Be with You (Starshapes Remix) (4:58)
11. Sometimes (Erasure & Flood Mix) (4:56)


Exact Audio Copy V1.1 from 23. June 2015

EAC extraction logfile from 13. November 2015, 0:44

Erasure / Always - The Very Best Of Erasure (CD1)

Used drive : PIONEER DVD-RW DVR-221L Adapter: 1 ID: 2

Read mode : Secure
Utilize accurate stream : Yes
Defeat audio cache : Yes
Make use of C2 pointers : No

Read offset correction : 6
Overread into Lead-In and Lead-Out : Yes
Fill up missing offset samples with silence : Yes
Delete leading and trailing silent blocks : No
Null samples used in CRC calculations : Yes
Used interface : Native Win32 interface for Win NT & 2000
Gap handling : Appended to previous track

Used output format : User Defined Encoder
Selected bitrate : 1024 kBit/s
Quality : High
Add ID3 tag : Yes
Command line compressor : C:\Program Files (x86)\Exact Audio Copy\FLAC\FLAC.EXE
Additional command line options : -6 -V -T "COMMENT=ripped by RRC" -T "ARTIST=%artist%" -T "TITLE=%title%" -T "ALBUM=%albumtitle%" -T "DATE=%year%" -T "TRACKNUMBER=%tracknr%" -T "GENRE=%genre%" -T "BAND=%albuminterpret%" -T "ALBUMARTIST=%albuminterpret%" -T "COMPOSER=%composer%" %haslyrics%–tag-from-file=LYRICS="%lyricsfile%"%haslyrics% -T "DISCNUMBER=%cdnumber%" -T "TOTALDISCS=%totalcds%" -T "TOTALTRACKS=%numtracks%" %hascover%–picture="%coverfile%"%hascover% %source%


TOC of the extracted CD

Track | Start | Length | Start sector | End sector
––––––––––––––––––––––––––––-
1 | 0:00.00 | 3:06.36 | 0 | 13985
2 | 3:06.36 | 3:08.41 | 13986 | 28126
3 | 6:15.02 | 3:39.59 | 28127 | 44610
4 | 9:54.61 | 3:38.36 | 44611 | 60996
5 | 13:33.22 | 4:06.71 | 60997 | 79517
6 | 17:40.18 | 4:03.69 | 79518 | 97811
7 | 21:44.12 | 3:43.19 | 97812 | 114555
8 | 25:27.31 | 3:32.36 | 114556 | 130491
9 | 28:59.67 | 2:55.56 | 130492 | 143672
10 | 31:55.48 | 4:06.31 | 143673 | 162153
11 | 36:02.04 | 4:20.35 | 162154 | 181688
12 | 40:22.39 | 4:31.14 | 181689 | 202027
13 | 44:53.53 | 3:58.48 | 202028 | 219925
14 | 48:52.26 | 3:46.63 | 219926 | 236938
15 | 52:39.14 | 4:02.43 | 236939 | 255131
16 | 56:41.57 | 4:24.16 | 255132 | 274947
17 | 61:05.73 | 3:50.41 | 274948 | 292238
18 | 64:56.39 | 3:36.35 | 292239 | 308473
19 | 68:32.74 | 3:37.10 | 308474 | 324758
20 | 72:10.09 | 3:32.67 | 324759 | 340725


Track 1

Filename E:\RRCLtd Rip\01 - Who Needs Love (Like That).wav

Pre-gap length 0:00:02.00

Peak level 99.9 %
Extraction speed 2.7 X
Track quality 100.0 %
Test CRC C9325DB1
Copy CRC C9325DB1
Track not present in AccurateRip database
Copy OK

Track 2

Filename E:\RRCLtd Rip\02 - Oh L’Amour.wav

Pre-gap length 0:00:01.74

Peak level 99.9 %
Extraction speed 2.2 X
Track quality 99.9 %
Test CRC BD915179
Copy CRC BD915179
Track not present in AccurateRip database
Copy OK

Track 3

Filename E:\RRCLtd Rip\03 - Sometimes.wav

Pre-gap length 0:00:01.74

Peak level 99.9 %
Extraction speed 2.5 X
Track quality 99.9 %
Test CRC FB0F46A2
Copy CRC FB0F46A2
Track not present in AccurateRip database
Copy OK

Track 4

Filename E:\RRCLtd Rip\04 - Victim Of Love.wav

Pre-gap length 0:00:01.74

Peak level 99.9 %
Extraction speed 2.6 X
Track quality 99.9 %
Test CRC DD687121
Copy CRC DD687121
Track not present in AccurateRip database
Copy OK

Track 5

Filename E:\RRCLtd Rip\05 - The Circus.wav

Pre-gap length 0:00:01.74

Peak level 99.9 %
Extraction speed 3.7 X
Track quality 100.0 %
Test CRC AFC11140
Copy CRC AFC11140
Track not present in AccurateRip database
Copy OK

Track 6

Filename E:\RRCLtd Rip\06 - Ship of Fools.wav

Pre-gap length 0:00:01.74

Peak level 99.9 %
Extraction speed 3.9 X
Track quality 100.0 %
Test CRC E96A40BD
Copy CRC E96A40BD
Track not present in AccurateRip database
Copy OK

Track 7

Filename E:\RRCLtd Rip\07 - Chains of Love.wav

Pre-gap length 0:00:01.74

Peak level 99.9 %
Extraction speed 4.1 X
Track quality 100.0 %
Test CRC 73EDEB66
Copy CRC 73EDEB66
Track not present in AccurateRip database
Copy OK

Track 8

Filename E:\RRCLtd Rip\08 - A Little Respect.wav

Pre-gap length 0:00:01.74

Peak level 99.9 %
Extraction speed 3.2 X
Track quality 99.9 %
Test CRC F2859795
Copy CRC F2859795
Track not present in AccurateRip database
Copy OK

Track 9

Filename E:\RRCLtd Rip\09 - Stop!.wav

Pre-gap length 0:00:01.74

Peak level 99.9 %
Extraction speed 4.3 X
Track quality 100.0 %
Test CRC 1A34B8CB
Copy CRC 1A34B8CB
Track not present in AccurateRip database
Copy OK

Track 10

Filename E:\RRCLtd Rip\10 - Drama!.wav

Pre-gap length 0:00:01.74

Peak level 99.9 %
Extraction speed 4.6 X
Track quality 100.0 %
Test CRC 064F44ED
Copy CRC 064F44ED
Track not present in AccurateRip database
Copy OK

Track 11

Filename E:\RRCLtd Rip\11 - Blue Savannah.wav

Pre-gap length 0:00:01.74

Peak level 88.1 %
Extraction speed 4.8 X
Track quality 100.0 %
Test CRC 5DCFB91F
Copy CRC 5DCFB91F
Track not present in AccurateRip database
Copy OK

Track 12

Filename E:\RRCLtd Rip\12 - Chorus.wav

Pre-gap length 0:00:01.74

Peak level 99.9 %
Extraction speed 5.0 X
Track quality 100.0 %
Test CRC 10770705
Copy CRC 10770705
Track not present in AccurateRip database
Copy OK

Track 13

Filename E:\RRCLtd Rip\13 - Love To Hate You.wav

Pre-gap length 0:00:01.74

Peak level 99.9 %
Extraction speed 5.1 X
Track quality 100.0 %
Test CRC 981D3F79
Copy CRC 981D3F79
Track not present in AccurateRip database
Copy OK

Track 14

Filename E:\RRCLtd Rip\14 - Take A Chance On Me.wav

Pre-gap length 0:00:01.74

Peak level 99.9 %
Extraction speed 5.2 X
Track quality 100.0 %
Test CRC F4AA2505
Copy CRC F4AA2505
Track not present in AccurateRip database
Copy OK

Track 15

Filename E:\RRCLtd Rip\15 - Always.wav

Pre-gap length 0:00:01.74

Peak level 99.9 %
Extraction speed 5.4 X
Track quality 100.0 %
Test CRC 52B14785
Copy CRC 52B14785
Track not present in AccurateRip database
Copy OK

Track 16

Filename E:\RRCLtd Rip\16 - Fingers & Thumbs (Cold Summer’s Day).wav

Pre-gap length 0:00:01.74

Peak level 91.2 %
Extraction speed 5.6 X
Track quality 100.0 %
Test CRC 8647589D
Copy CRC 8647589D
Track not present in AccurateRip database
Copy OK

Track 17

Filename E:\RRCLtd Rip\17 - Breath.wav

Pre-gap length 0:00:01.74

Peak level 78.3 %
Extraction speed 5.7 X
Track quality 100.0 %
Test CRC 28844661
Copy CRC 28844661
Track not present in AccurateRip database
Copy OK

Track 18

Filename E:\RRCLtd Rip\18 - Be With You.wav

Pre-gap length 0:00:01.74

Peak level 81.3 %
Extraction speed 4.3 X
Track quality 99.9 %
Test CRC 625329A0
Copy CRC 625329A0
Track not present in AccurateRip database
Copy OK

Track 19

Filename E:\RRCLtd Rip\19 - Elevation.wav

Pre-gap length 0:00:03.23

Peak level 78.5 %
Extraction speed 4.4 X
Track quality 99.9 %
Test CRC 2276B419
Copy CRC 2276B419
Track not present in AccurateRip database
Copy OK

Track 20

Filename E:\RRCLtd Rip\20 - Sometimes 2015.wav

Pre-gap length 0:00:01.74

Peak level 91.4 %
Extraction speed 6.9 X
Track quality 100.0 %
Test CRC 11464D7C
Copy CRC 11464D7C
Track not present in AccurateRip database
Copy OK


None of the tracks are present in the AccurateRip database

No errors occurred

End of status report

–– CUETools DB Plugin V2.1.6

[CTDB TOCID: BuenuTORFc1fkse6pQXrxKa1a4s-] found
Submit result: BuenuTORFc1fkse6pQXrxKa1a4s- has been confirmed
Track | CTDB Status
1 | (7/7) Accurately ripped
2 | (7/7) Accurately ripped
3 | (7/7) Accurately ripped
4 | (7/7) Accurately ripped
5 | (7/7) Accurately ripped
6 | (7/7) Accurately ripped
7 | (7/7) Accurately ripped
8 | (7/7) Accurately ripped
9 | (7/7) Accurately ripped
10 | (7/7) Accurately ripped
11 | (7/7) Accurately ripped
12 | (7/7) Accurately ripped
13 | (7/7) Accurately ripped
14 | (7/7) Accurately ripped
15 | (7/7) Accurately ripped
16 | (7/7) Accurately ripped
17 | (7/7) Accurately ripped
18 | (7/7) Accurately ripped
19 | (7/7) Accurately ripped
20 | (7/7) Accurately ripped


==== Log checksum 08DDD3EEF1D2810E2A3B0550CB6DD94966FEC0171661272BE414DBD6B1A23E70 ====

foobar2000 1.3.8 / Dynamic Range Meter 1.1.1
log date: 2015-11-16 19:06:15

––––––––––––––––––––––––––––––––––––––––
Analyzed: Erasure / Always - The Very Best Of Erasure (CD1)
––––––––––––––––––––––––––––––––––––––––

DR Peak RMS Duration Track
––––––––––––––––––––––––––––––––––––––––
DR8 0.00 dB -9.67 dB 3:06 01-Who Needs Love (Like That)
DR8 0.00 dB -10.30 dB 3:09 02-Oh L’Amour
DR9 0.00 dB -9.94 dB 3:40 03-Sometimes
DR10 0.00 dB -10.79 dB 3:38 04-Victim Of Love
DR8 0.00 dB -10.25 dB 4:07 05-The Circus
DR9 0.00 dB -10.43 dB 4:04 06-Ship of Fools
DR10 0.00 dB -11.51 dB 3:43 07-Chains of Love
DR9 0.00 dB -10.76 dB 3:32 08-A Little Respect
DR10 0.00 dB -11.33 dB 2:56 09-Stop!
DR10 0.00 dB -10.45 dB 4:06 10-Drama!
DR8 -1.10 dB -10.43 dB 4:20 11-Blue Savannah
DR8 0.00 dB -10.00 dB 4:31 12-Chorus
DR9 0.00 dB -10.28 dB 3:59 13-Love To Hate You
DR10 0.00 dB -11.32 dB 3:47 14-Take A Chance On Me
DR7 0.00 dB -8.89 dB 4:03 15-Always
DR6 -0.79 dB -8.62 dB 4:24 16-Fingers & Thumbs (Cold Summer’s Day)
DR5 -2.12 dB -8.61 dB 3:51 17-Breath
DR6 -1.79 dB -9.79 dB 3:36 18-Be With You
DR5 -2.10 dB -8.03 dB 3:37 19-Elevation
DR7 -0.78 dB -8.65 dB 3:33 20-Sometimes 2015
––––––––––––––––––––––––––––––––––––––––

Number of tracks: 20
Official DR value: DR8

Samplerate: 44100 Hz
Channels: 2
Bits per sample: 16
Bitrate: 1064 kbps
Codec: FLAC
================================================================================


Exact Audio Copy V1.1 from 23. June 2015

EAC extraction logfile from 13. November 2015, 2:00

Erasure / Always - The Very Best Of Erasure (CD2)

Used drive : PIONEER DVD-RW DVR-221L Adapter: 1 ID: 2

Read mode : Secure
Utilize accurate stream : Yes
Defeat audio cache : Yes
Make use of C2 pointers : No

Read offset correction : 6
Overread into Lead-In and Lead-Out : Yes
Fill up missing offset samples with silence : Yes
Delete leading and trailing silent blocks : No
Null samples used in CRC calculations : Yes
Used interface : Native Win32 interface for Win NT & 2000
Gap handling : Appended to previous track

Used output format : User Defined Encoder
Selected bitrate : 1024 kBit/s
Quality : High
Add ID3 tag : Yes
Command line compressor : C:\Program Files (x86)\Exact Audio Copy\FLAC\FLAC.EXE
Additional command line options : -6 -V -T "COMMENT=ripped by RRC" -T "ARTIST=%artist%" -T "TITLE=%title%" -T "ALBUM=%albumtitle%" -T "DATE=%year%" -T "TRACKNUMBER=%tracknr%" -T "GENRE=%genre%" -T "BAND=%albuminterpret%" -T "ALBUMARTIST=%albuminterpret%" -T "COMPOSER=%composer%" %haslyrics%–tag-from-file=LYRICS="%lyricsfile%"%haslyrics% -T "DISCNUMBER=%cdnumber%" -T "TOTALDISCS=%totalcds%" -T "TOTALTRACKS=%numtracks%" %hascover%–picture="%coverfile%"%hascover% %source%


TOC of the extracted CD

Track | Start | Length | Start sector | End sector
––––––––––––––––––––––––––––-
1 | 0:00.00 | 6:08.56 | 0 | 27655
2 | 6:08.56 | 7:15.10 | 27656 | 60290
3 | 13:23.66 | 6:08.48 | 60291 | 87938
4 | 19:32.39 | 6:07.22 | 87939 | 115485
5 | 25:39.61 | 6:05.04 | 115486 | 142864
6 | 31:44.65 | 6:14.48 | 142865 | 170962
7 | 37:59.38 | 5:28.30 | 170963 | 195592
8 | 43:27.68 | 5:56.27 | 195593 | 222319
9 | 49:24.20 | 5:04.08 | 222320 | 245127
10 | 54:28.28 | 8:04.20 | 245128 | 281447
11 | 62:32.48 | 5:21.00 | 281448 | 305522
12 | 67:53.48 | 7:09.08 | 305523 | 337705


Track 1

Filename E:\RRCLtd Rip\01 - Who Needs Love (Like That) (Mexican Mix).wav

Pre-gap length 0:00:02.00

Peak level 94.4 %
Extraction speed 3.1 X
Track quality 100.0 %
Test CRC FAFFC600
Copy CRC FAFFC600
Track not present in AccurateRip database
Copy OK

Track 2

Filename E:\RRCLtd Rip\02 - Oh L’Amour (PWL Funky Sisters Say ‘Ooh La La’).wav

Pre-gap length 0:00:01.74

Peak level 87.0 %
Extraction speed 3.6 X
Track quality 100.0 %
Test CRC 480A653E
Copy CRC 480A653E
Track not present in AccurateRip database
Copy OK

Track 3

Filename E:\RRCLtd Rip\03 - The Circus (Eternal Eraser Mix by Grumbling Fur).wav

Pre-gap length 0:00:01.74

Peak level 94.4 %
Extraction speed 3.9 X
Track quality 100.0 %
Test CRC FEECA3B0
Copy CRC FEECA3B0
Track not present in AccurateRip database
Copy OK

Track 4

Filename E:\RRCLtd Rip\04 - A Little Respect (Big Train Remix).wav

Pre-gap length 0:00:01.74

Peak level 94.4 %
Extraction speed 4.3 X
Track quality 100.0 %
Test CRC AD482891
Copy CRC AD482891
Track not present in AccurateRip database
Copy OK

Track 5

Filename E:\RRCLtd Rip\05 - Stop! (Vince Clarke Sync 82 Remix).wav

Pre-gap length 0:00:01.74

Peak level 82.1 %
Extraction speed 4.5 X
Track quality 100.0 %
Test CRC CF933037
Copy CRC CF933037
Track not present in AccurateRip database
Copy OK

Track 6

Filename E:\RRCLtd Rip\06 - Blue Savannah (Der Deutsche Mix II).wav

Pre-gap length 0:00:01.74

Peak level 92.3 %
Extraction speed 4.9 X
Track quality 100.0 %
Test CRC 6DD83A21
Copy CRC 6DD83A21
Track not present in AccurateRip database
Copy OK

Track 7

Filename E:\RRCLtd Rip\07 - Chorus (Vegan Mix).wav

Pre-gap length 0:00:01.74

Peak level 94.4 %
Extraction speed 5.1 X
Track quality 100.0 %
Test CRC D568ECA0
Copy CRC D568ECA0
Track not present in AccurateRip database
Copy OK

Track 8

Filename E:\RRCLtd Rip\08 - Love To Hate You (LFO Modulated Filter Mix).wav

Pre-gap length 0:00:01.74

Peak level 89.1 %
Extraction speed 5.4 X
Track quality 100.0 %
Test CRC C6F2719E
Copy CRC C6F2719E
Track not present in AccurateRip database
Copy OK

Track 9

Filename E:\RRCLtd Rip\09 - Always (Microbots Inside Your Brain Mix).wav

Pre-gap length 0:00:01.74

Peak level 94.4 %
Extraction speed 4.4 X
Track quality 99.9 %
Test CRC 70008DF8
Copy CRC 70008DF8
Track not present in AccurateRip database
Copy OK

Track 10

Filename E:\RRCLtd Rip\10 - Fingers & Thumbs (Cold Summer’s Day) (Tin Tin Out Remix).wav

Pre-gap length 0:00:02.00

Peak level 94.4 %
Extraction speed 5.9 X
Track quality 100.0 %
Test CRC 10D58003
Copy CRC 10D58003
Track not present in AccurateRip database
Copy OK

Track 11

Filename E:\RRCLtd Rip\11 - Breathe (GRN Remix).wav

Pre-gap length 0:00:01.74

Peak level 94.4 %
Extraction speed 4.8 X
Track quality 99.9 %
Test CRC CAE9D639
Copy CRC CAE9D639
Track not present in AccurateRip database
Copy OK

Track 12

Filename E:\RRCLtd Rip\12 - Elevation (BT Remix).wav

Pre-gap length 0:00:01.74

Peak level 78.6 %
Extraction speed 6.8 X
Track quality 100.0 %
Test CRC 475F8454
Copy CRC 475F8454
Track not present in AccurateRip database
Copy OK


None of the tracks are present in the AccurateRip database

No errors occurred

End of status report

–– CUETools DB Plugin V2.1.6

[CTDB TOCID: seoKh9_A6q6k6ppVgp9__lSwbLg-] found
Submit result: seoKh9_A6q6k6ppVgp9__lSwbLg- has been confirmed
Track | CTDB Status
1 | (4/4) Accurately ripped
2 | (4/4) Accurately ripped
3 | (4/4) Accurately ripped
4 | (4/4) Accurately ripped
5 | (4/4) Accurately ripped
6 | (4/4) Accurately ripped
7 | (4/4) Accurately ripped
8 | (4/4) Accurately ripped
9 | (4/4) Accurately ripped
10 | (4/4) Accurately ripped
11 | (4/4) Accurately ripped
12 | (4/4) Accurately ripped


==== Log checksum 7923280B4FFD562B0D3AB4A217675F7BE4CE3069976D1AF5BEF2EBF037302F97 ====

foobar2000 1.3.8 / Dynamic Range Meter 1.1.1
log date: 2015-11-16 19:07:19

––––––––––––––––––––––––––––––––––––––––
Analyzed: Erasure / Always - The Very Best Of Erasure (CD2)
––––––––––––––––––––––––––––––––––––––––

DR Peak RMS Duration Track
––––––––––––––––––––––––––––––––––––––––
DR9 -0.50 dB -11.41 dB 6:09 01-Who Needs Love (Like That) (Mexican Mix)
DR10 -1.20 dB -12.77 dB 7:15 02-Oh L’Amour (PWL Funky Sisters Say ‘Ooh La La’)
DR10 -0.50 dB -11.55 dB 6:09 03-The Circus (Eternal Eraser Mix by Grumbling Fur)
DR10 -0.50 dB -12.69 dB 6:07 04-A Little Respect (Big Train Remix)
DR9 -1.71 dB -12.56 dB 6:05 05-Stop! (Vince Clarke Sync 82 Remix)
DR11 -0.70 dB -12.93 dB 6:15 06-Blue Savannah (Der Deutsche Mix II)
DR11 -0.50 dB -12.94 dB 5:28 07-Chorus (Vegan Mix)
DR9 -1.00 dB -11.44 dB 5:56 08-Love To Hate You (LFO Modulated Filter Mix)
DR12 -0.50 dB -13.58 dB 5:04 09-Always (Microbots Inside Your Brain Mix)
DR10 -0.50 dB -12.45 dB 8:04 10-Fingers & Thumbs (Cold Summer’s Day) (Tin Tin Out Remix)
DR11 -0.50 dB -13.95 dB 5:21 11-Breathe (GRN Remix)
DR8 -2.08 dB -11.97 dB 7:09 12-Elevation (BT Remix)
––––––––––––––––––––––––––––––––––––––––

Number of tracks: 12
Official DR value: DR10

Samplerate: 44100 Hz
Channels: 2
Bits per sample: 16
Bitrate: 984 kbps
Codec: FLAC
================================================================================


Exact Audio Copy V1.1 from 23. June 2015

EAC extraction logfile from 13. November 2015, 9:49

Erasure / Erasure - Always - The Very Best Of Erasure (CD3)

Used drive : PIONEER DVD-RW DVR-221L Adapter: 1 ID: 2

Read mode : Secure
Utilize accurate stream : Yes
Defeat audio cache : Yes
Make use of C2 pointers : No

Read offset correction : 6
Overread into Lead-In and Lead-Out : Yes
Fill up missing offset samples with silence : Yes
Delete leading and trailing silent blocks : No
Null samples used in CRC calculations : Yes
Used interface : Native Win32 interface for Win NT & 2000
Gap handling : Appended to previous track

Used output format : User Defined Encoder
Selected bitrate : 1024 kBit/s
Quality : High
Add ID3 tag : Yes
Command line compressor : C:\Program Files (x86)\Exact Audio Copy\FLAC\FLAC.EXE
Additional command line options : -6 -V -T "COMMENT=ripped by RRC" -T "ARTIST=%artist%" -T "TITLE=%title%" -T "ALBUM=%albumtitle%" -T "DATE=%year%" -T "TRACKNUMBER=%tracknr%" -T "GENRE=%genre%" -T "BAND=%albuminterpret%" -T "ALBUMARTIST=%albuminterpret%" -T "COMPOSER=%composer%" %haslyrics%–tag-from-file=LYRICS="%lyricsfile%"%haslyrics% -T "DISCNUMBER=%cdnumber%" -T "TOTALDISCS=%totalcds%" -T "TOTALTRACKS=%numtracks%" %hascover%–picture="%coverfile%"%hascover% %source%


TOC of the extracted CD

Track | Start | Length | Start sector | End sector
––––––––––––––––––––––––––––-
1 | 0:00.00 | 5:47.17 | 0 | 26041
2 | 5:47.17 | 5:15.30 | 26042 | 49696
3 | 11:02.47 | 7:07.44 | 49697 | 81765
4 | 18:10.16 | 7:33.17 | 81766 | 115757
5 | 25:43.33 | 6:28.40 | 115758 | 144897
6 | 32:11.73 | 6:40.10 | 144898 | 174907
7 | 38:52.08 | 7:20.41 | 174908 | 207948
8 | 46:12.49 | 4:17.55 | 207949 | 227278
9 | 50:30.29 | 8:11.09 | 227279 | 264112
10 | 58:41.38 | 4:57.33 | 264113 | 286420
11 | 63:38.71 | 4:54.39 | 286421 | 308509


Track 1

Filename E:\RRCLtd Rip\01 - Victim Of Love (Vixen Vitesse Remix).wav

Pre-gap length 0:00:02.00

Peak level 94.4 %
Extraction speed 2.3 X
Track quality 99.9 %
Test CRC B05BAA77
Copy CRC B05BAA77
Track not present in AccurateRip database
Copy OK

Track 2

Filename E:\RRCLtd Rip\02 - Chains Of Love (Vince Clarke Remix).wav

Pre-gap length 0:00:01.74

Peak level 94.4 %
Extraction speed 2.6 X
Track quality 99.9 %
Test CRC B4152095
Copy CRC B4152095
Track not present in AccurateRip database
Copy OK

Track 3

Filename E:\RRCLtd Rip\03 - Drama! (Krucial Remix).wav

Pre-gap length 0:00:01.74

Peak level 94.4 %
Extraction speed 3.1 X
Track quality 99.9 %
Test CRC 0DC98CAB
Copy CRC 0DC98CAB
Track not present in AccurateRip database
Copy OK

Track 4

Filename E:\RRCLtd Rip\04 - You Surround Me (Mark Saunders Remix).wav

Pre-gap length 0:00:01.74

Peak level 94.4 %
Extraction speed 4.0 X
Track quality 100.0 %
Test CRC 515620FA
Copy CRC 515620FA
Track not present in AccurateRip database
Copy OK

Track 5

Filename E:\RRCLtd Rip\05 - Star (William Orbit’s Interstellar Mix).wav

Pre-gap length 0:00:01.73

Peak level 94.4 %
Extraction speed 4.3 X
Track quality 100.0 %
Test CRC AE7F60D7
Copy CRC AE7F60D7
Track not present in AccurateRip database
Copy OK

Track 6

Filename E:\RRCLtd Rip\06 - Am I Right (The Grid Remix).wav

Pre-gap length 0:00:01.74

Peak level 94.4 %
Extraction speed 4.6 X
Track quality 100.0 %
Test CRC ED9AD007
Copy CRC ED9AD007
Track not present in AccurateRip database
Copy OK

Track 7

Filename E:\RRCLtd Rip\07 - Run To The Sun (Beatmasters’ Galactic Remix).wav

Pre-gap length 0:00:01.74

Peak level 94.4 %
Extraction speed 4.2 X
Track quality 99.9 %
Test CRC EB0505E0
Copy CRC EB0505E0
Track not present in AccurateRip database
Copy OK

Track 8

Filename E:\RRCLtd Rip\08 - In My Arms (BBE Remix).wav

Pre-gap length 0:00:01.74

Peak level 94.4 %
Extraction speed 5.0 X
Track quality 100.0 %
Test CRC 83CF806D
Copy CRC 83CF806D
Track not present in AccurateRip database
Copy OK

Track 9

Filename E:\RRCLtd Rip\09 - Freedom (Mark Picchiotti Strumapella Remix).wav

Pre-gap length 0:00:01.74

Peak level 94.4 %
Extraction speed 5.5 X
Track quality 100.0 %
Test CRC 278696E4
Copy CRC 278696E4
Track not present in AccurateRip database
Copy OK

Track 10

Filename E:\RRCLtd Rip\10 - Be With You (Starshapes Remix).wav

Pre-gap length 0:00:01.74

Peak level 94.4 %
Extraction speed 4.4 X
Track quality 99.9 %
Test CRC ABB09708
Copy CRC ABB09708
Track not present in AccurateRip database
Copy OK

Track 11

Filename E:\RRCLtd Rip\11 - Sometimes (Erasure & Flood Mix).wav

Pre-gap length 0:00:01.74

Peak level 94.4 %
Extraction speed 6.3 X
Track quality 100.0 %
Test CRC 0C831050
Copy CRC 0C831050
Track not present in AccurateRip database
Copy OK


None of the tracks are present in the AccurateRip database

No errors occurred

End of status report

–– CUETools DB Plugin V2.1.6

[CTDB TOCID: igraCCOOphVayOEoj8Mid.fEC8A-] found
Submit result: igraCCOOphVayOEoj8Mid.fEC8A- has been confirmed
Track | CTDB Status
1 | (5/5) Accurately ripped
2 | (5/5) Accurately ripped
3 | (5/5) Accurately ripped
4 | (5/5) Accurately ripped
5 | (5/5) Accurately ripped
6 | (5/5) Accurately ripped
7 | (5/5) Accurately ripped
8 | (5/5) Accurately ripped
9 | (5/5) Accurately ripped
10 | (5/5) Accurately ripped
11 | (5/5) Accurately ripped


==== Log checksum 1626DEEC3B66C64364CD859478CEB23D559E21F58D006657B42E7FF6FD9B982D ====

foobar2000 1.3.8 / Dynamic Range Meter 1.1.1
log date: 2015-11-16 19:08:16

––––––––––––––––––––––––––––––––––––––––
Analyzed: Erasure / Erasure - Always - The Very Best Of Erasure (CD3)
––––––––––––––––––––––––––––––––––––––––

DR Peak RMS Duration Track
––––––––––––––––––––––––––––––––––––––––
DR7 -0.50 dB -9.38 dB 5:47 01-Victim Of Love (Vixen Vitesse Remix)
DR9 -0.50 dB -10.70 dB 5:15 02-Chains Of Love (Vince Clarke Remix)
DR8 -0.50 dB -9.98 dB 7:08 03-Drama! (Krucial Remix)
DR7 -0.50 dB -9.38 dB 7:33 04-You Surround Me (Mark Saunders Remix)
DR7 -0.50 dB -10.13 dB 6:29 05-Star (William Orbit’s Interstellar Mix)
DR9 -0.50 dB -11.41 dB 6:40 06-Am I Right (The Grid Remix)
DR9 -0.50 dB -10.69 dB 7:21 07-Run To The Sun (Beatmasters’ Galactic Remix)
DR8 -0.50 dB -10.57 dB 4:18 08-In My Arms (BBE Remix)
DR9 -0.50 dB -10.87 dB 8:11 09-Freedom (Mark Picchiotti Strumapella Remix)
DR7 -0.50 dB -9.35 dB 4:57 10-Be With You (Starshapes Remix)
DR8 -0.50 dB -10.23 dB 4:55 11-Sometimes (Erasure & Flood Mix)
––––––––––––––––––––––––––––––––––––––––

Number of tracks: 11
Official DR value: DR8

Samplerate: 44100 Hz
Channels: 2
Bits per sample: 16
Bitrate: 982 kbps
Codec: FLAC
================================================================================

Erasure - Always: The Very Best Of Erasure (2015) 3CD Deluxe Edition [Re-Up]

Erasure - Always: The Very Best Of Erasure (2015) 3CD Deluxe Edition [Re-Up]

All thanks to original releaser - RRCLtd

More interesting music in My Blog