Subcategories
Tags
Language
Tags

Erasure - Chorus (1991) [3CD Deluxe Edition 2020]

Posted By: gribovar
Erasure - Chorus (1991) [3CD Deluxe Edition 2020]

Erasure - Chorus (1991) [3CD Deluxe Edition 2020]
EAC Rip | FLAC (tracks+.cue+log) - 1,16 GB | Covers - 370 MB
Genre: Synthpop | RAR 3% Rec. | Label: Mute Records/BMG (LCDStumm 95)

Originally released in 1991, the classic Erasure album Chorus was the band’s fifth album and their 3rd UK number one. Remastered with a second CD of B-Sides, Remixes (including 4 new remixes) and Rarities plus a third CD containing live "Chorus" performances from the Phantasmagorical Entertainment tour.
No longer making a big American splash outside of its fanbase and alternative radio - and about to be turned into yesterday's news thanks to the techno/hardcore explosion - Erasure on Chorus concentrated on just sounding like itself. With the notable exception of the hypersassy "Love to Hate You," Bell steers away from campiness in favor of a series of gentler meditations and impassioned pleas. "Chorus" itself is another great Erasure anthem, Clarke providing just the right combination of beat and melody for Bell's surprisingly effective tackling of environmental degredation. Other cuts like "Breath of Life" and "Turns the Love to Anger" keep the quicker, more specifically high-paced dance pace going, but most of the best cuts come with the quieter numbers. Happily, rather than revamping the basic ballad format often used on earlier albums, Clarke keeps throwing in unexpected touches while Bell comes up with some inspired and often affecting lyrics. "Am I Right?" reflects on love and aging with a gentle tone and soft hip-hop beat, while "Joan" adds a touch of gospel in Bell's backing harmonies to a more prominent breakbeat with equally fine results. Also intriguing is how the final songs of the album, while individually not among the band's best, still blend together to provide an excellent conclusion, from the wistful philosophy of "Siren Song" and the romantic entanglement of "Perfect Stranger" to the concluding "Home." Something of a sequel to "Hideaway" set a few years later, Bell sings of continuing to follow his own path over lovely backing from Clarke, a fine way to end the album.
CD 1 Tracklist (Chorus):
01. Chorus
02. Waiting For The Day
03. Joan
04. Breath Of Life
05. Am I Right?
06. Love To Hate You
07. Turns The Love To Anger
08. Siren Song
09. Perfect Stranger
10. Home

Total time: 41:27

CD 2 Tracklist (B-Sides, Remixes & Rarities):
01. Over The Rainbow
02. Turns The Love To Anger (Vince Clarke Remix)
03. Perfect Stranger (KROQ Mellow Version)
04. Waiting For Sex (Full Length)
05. Love To Hate You (Robbie Rivera's Juicy Mix)
06. Twilight
07. Let It Flow
08. Chorus (Fishes In The Sea) (Ben Grosse Remix)
09. Siren Song (Alternative Lyrics)
10. Breath Of Life (Divine Inspiration Mix)
11. Love To Hate You (KROQ Blunder Version)
12. La La La
13. Mirror To Your Soul
14. Waiting For The Day (Demo Version)
15. Perfect Stranger (Acoustic)
16. Am I Right? (Glen Nicholls Extended 12" Mix)
17. Home (Minute Taker Remix)

Total time: 01:17:13

CD 2 Tracklist (Chorus Live):
01. Chorus
02. Waiting For The Day
03. Joan
04. Breath Of Life
05. Am I Right?
06. Love To Hate You
07. Turns The Love To Anger
08. Siren Song
09. Perfect Stranger
10. Home

Total time: 46:11

Exact Audio Copy V1.3 from 2. September 2016

EAC extraction logfile from 26. February 2020, 22:23

Erasure / Chorus (Deluxe edition) - CD1

Used drive : PIONEER DVD-RW DVR-221L Adapter: 1 ID: 0

Read mode : Secure
Utilize accurate stream : Yes
Defeat audio cache : Yes
Make use of C2 pointers : No

Read offset correction : 6
Overread into Lead-In and Lead-Out : No
Fill up missing offset samples with silence : Yes
Delete leading and trailing silent blocks : No
Null samples used in CRC calculations : Yes
Used interface : Native Win32 interface for Win NT & 2000
Gap handling : Appended to previous track

Used output format : User Defined Encoder
Selected bitrate : 1024 kBit/s
Quality : High
Add ID3 tag : No
Command line compressor : C:\Program Files (x86)\Exact Audio Copy\FLAC\FLAC.EXE
Additional command line options : -6 -V -T "COMMENT=ripped by RRC" -T "ARTIST=%artist%" -T "TITLE=%title%" -T "ALBUM=%albumtitle%" -T "DATE=%year%" -T "TRACKNUMBER=%tracknr%" -T "GENRE=%genre%" %source%


TOC of the extracted CD

Track | Start | Length | Start sector | End sector
––––––––––––––––––––––––––––-
1 | 0:00.00 | 4:26.10 | 0 | 19959
2 | 4:26.10 | 3:49.67 | 19960 | 37201
3 | 8:16.02 | 3:50.34 | 37202 | 54485
4 | 12:06.36 | 4:06.54 | 54486 | 72989
5 | 16:13.15 | 4:19.08 | 72990 | 92422
6 | 20:32.23 | 3:56.02 | 92423 | 110124
7 | 24:28.25 | 3:56.15 | 110125 | 127839
8 | 28:24.40 | 4:43.53 | 127840 | 149117
9 | 33:08.18 | 4:04.55 | 149118 | 167472
10 | 37:12.73 | 4:14.11 | 167473 | 186533


Track 1

Filename E:\RRCLtd Rip\01 - Chorus.wav

Pre-gap length 0:00:02.00

Peak level 94.3 %
Extraction speed 2.6 X
Track quality 100.0 %
Test CRC CA9DBC07
Copy CRC CA9DBC07
Track not present in AccurateRip database
Copy OK

Track 2

Filename E:\RRCLtd Rip\02 - Waiting For The Day.wav

Peak level 94.3 %
Extraction speed 2.9 X
Track quality 100.0 %
Test CRC 57EEC823
Copy CRC 57EEC823
Track not present in AccurateRip database
Copy OK

Track 3

Filename E:\RRCLtd Rip\03 - Joan.wav

Peak level 94.3 %
Extraction speed 3.2 X
Track quality 100.0 %
Test CRC 3E6C73B1
Copy CRC 3E6C73B1
Track not present in AccurateRip database
Copy OK

Track 4

Filename E:\RRCLtd Rip\04 - Breath Of Life.wav

Peak level 94.3 %
Extraction speed 3.4 X
Track quality 100.0 %
Test CRC 8BBB3DF5
Copy CRC 8BBB3DF5
Track not present in AccurateRip database
Copy OK

Track 5

Filename E:\RRCLtd Rip\05 - Am I Right.wav

Peak level 94.3 %
Extraction speed 3.7 X
Track quality 100.0 %
Test CRC 26EC7AE9
Copy CRC 26EC7AE9
Track not present in AccurateRip database
Copy OK

Track 6

Filename E:\RRCLtd Rip\06 - Love To Hate You.wav

Peak level 94.3 %
Extraction speed 3.0 X
Track quality 99.9 %
Test CRC E410EB47
Copy CRC E410EB47
Track not present in AccurateRip database
Copy OK

Track 7

Filename E:\RRCLtd Rip\07 - Turns The Love To Anger.wav

Peak level 94.3 %
Extraction speed 4.0 X
Track quality 100.0 %
Test CRC 290E7CFF
Copy CRC 290E7CFF
Track not present in AccurateRip database
Copy OK

Track 8

Filename E:\RRCLtd Rip\08 - Siren Song.wav

Peak level 94.3 %
Extraction speed 4.3 X
Track quality 100.0 %
Test CRC F6A5644A
Copy CRC F6A5644A
Track not present in AccurateRip database
Copy OK

Track 9

Filename E:\RRCLtd Rip\09 - Perfect Stranger.wav

Peak level 94.3 %
Extraction speed 4.5 X
Track quality 100.0 %
Test CRC 661E3DC5
Copy CRC 661E3DC5
Track not present in AccurateRip database
Copy OK

Track 10

Filename E:\RRCLtd Rip\10 - Home.wav

Peak level 94.3 %
Extraction speed 4.6 X
Track quality 100.0 %
Test CRC D85A612D
Copy CRC D85A612D
Track not present in AccurateRip database
Copy OK


None of the tracks are present in the AccurateRip database

No errors occurred

End of status report

–– CUETools DB Plugin V2.1.6

[CTDB TOCID: NnmbQ8fIRIdMSD2k_lKbzkYz_c0-] found
Submit result: NnmbQ8fIRIdMSD2k_lKbzkYz_c0- has been confirmed
Track | CTDB Status
1 | (37/37) Accurately ripped
2 | (37/37) Accurately ripped
3 | (37/37) Accurately ripped
4 | (37/37) Accurately ripped
5 | (37/37) Accurately ripped
6 | (37/37) Accurately ripped
7 | (37/37) Accurately ripped
8 | (37/37) Accurately ripped
9 | (37/37) Accurately ripped
10 | (37/37) Accurately ripped


==== Log checksum B13ECC068FFE2A8465BF0017AA617A20E3FEC6DD838F86A0EF70A403EC41F970 ====

[CUETools log; Date: 05.03.2020 22:37:40; Version: 2.1.4]
[CTDB TOCID: NnmbQ8fIRIdMSD2k_lKbzkYz_c0-] found.
Track | CTDB Status
1 | (49/49) Accurately ripped
2 | (49/49) Accurately ripped
3 | (49/49) Accurately ripped
4 | (49/49) Accurately ripped
5 | (49/49) Accurately ripped
6 | (49/49) Accurately ripped
7 | (49/49) Accurately ripped
8 | (49/49) Accurately ripped
9 | (49/49) Accurately ripped
10 | (49/49) Accurately ripped
[AccurateRip ID: 000f8927-007c60b4-8f09b70a] disk not present in database.

Track Peak [ CRC32 ] [W/O NULL] [ LOG ]
– 94,3 [C9A1238B] [CF8E8EF4]
01 94,3 [CA9DBC07] [97CF9EDD] CRC32
02 94,3 [57EEC823] [253FAE44] CRC32
03 94,3 [3E6C73B1] [1397A037] CRC32
04 94,3 [8BBB3DF5] [F2A6C840] CRC32
05 94,3 [26EC7AE9] [51A05A96] CRC32
06 94,3 [E410EB47] [29973344] CRC32
07 94,3 [290E7CFF] [CB98D66C] CRC32
08 94,3 [F6A5644A] [87BC3A9A] CRC32
09 94,3 [661E3DC5] [551BBBEB] CRC32
10 94,3 [D85A612D] [2BE37592] CRC32

Exact Audio Copy V1.3 from 2. September 2016

EAC extraction logfile from 3. March 2020, 19:34

Erasure / Chorus (Deluxe edition) - CD2

Used drive : PIONEER DVD-RW DVR-221L Adapter: 1 ID: 0

Read mode : Secure
Utilize accurate stream : Yes
Defeat audio cache : Yes
Make use of C2 pointers : No

Read offset correction : 6
Overread into Lead-In and Lead-Out : No
Fill up missing offset samples with silence : Yes
Delete leading and trailing silent blocks : No
Null samples used in CRC calculations : Yes
Used interface : Native Win32 interface for Win NT & 2000
Gap handling : Appended to previous track

Used output format : User Defined Encoder
Selected bitrate : 1024 kBit/s
Quality : High
Add ID3 tag : No
Command line compressor : C:\Program Files (x86)\Exact Audio Copy\FLAC\FLAC.EXE
Additional command line options : -6 -V -T "COMMENT=ripped by RRC" -T "ARTIST=%artist%" -T "TITLE=%title%" -T "ALBUM=%albumtitle%" -T "DATE=%year%" -T "TRACKNUMBER=%tracknr%" -T "GENRE=%genre%" %source%


TOC of the extracted CD

Track | Start | Length | Start sector | End sector
––––––––––––––––––––––––––––-
1 | 0:00.00 | 3:30.23 | 0 | 15772
2 | 3:30.23 | 5:40.11 | 15773 | 41283
3 | 9:10.34 | 2:25.08 | 41284 | 52166
4 | 11:35.42 | 4:07.04 | 52167 | 70695
5 | 15:42.46 | 5:56.62 | 70696 | 97457
6 | 21:39.33 | 4:22.59 | 97458 | 117166
7 | 26:02.17 | 4:22.11 | 117167 | 136827
8 | 30:24.28 | 4:37.14 | 136828 | 157616
9 | 35:01.42 | 4:05.19 | 157617 | 176010
10 | 39:06.61 | 6:41.17 | 176011 | 206102
11 | 45:48.03 | 4:13.59 | 206103 | 225136
12 | 50:01.62 | 4:12.13 | 225137 | 244049
13 | 54:14.00 | 3:55.67 | 244050 | 261741
14 | 58:09.67 | 3:41.20 | 261742 | 278336
15 | 61:51.12 | 2:12.31 | 278337 | 288267
16 | 64:03.43 | 6:47.62 | 288268 | 318854
17 | 70:51.30 | 6:21.52 | 318855 | 347481


Track 1

Filename E:\RRCLtd Rip\01 - Over The Rainbow.wav

Pre-gap length 0:00:02.00

Peak level 91.1 %
Extraction speed 2.8 X
Track quality 100.0 %
Test CRC DA8737E0
Copy CRC DA8737E0
Track not present in AccurateRip database
Copy OK

Track 2

Filename E:\RRCLtd Rip\02 - Turns The Love To Anger (Vince Clarke Remix).wav

Peak level 94.3 %
Extraction speed 3.3 X
Track quality 100.0 %
Test CRC 7A8621FC
Copy CRC 7A8621FC
Track not present in AccurateRip database
Copy OK

Track 3

Filename E:\RRCLtd Rip\03 - Perfect Stranger (KROQ Mellow Version).wav

Peak level 94.3 %
Extraction speed 2.2 X
Track quality 99.9 %
Test CRC F1AF2C0D
Copy CRC F1AF2C0D
Track not present in AccurateRip database
Copy OK

Track 4

Filename E:\RRCLtd Rip\04 - Waiting For Sex (Full Length).wav

Peak level 94.3 %
Extraction speed 3.7 X
Track quality 100.0 %
Test CRC 6085D782
Copy CRC 6085D782
Track not present in AccurateRip database
Copy OK

Track 5

Filename E:\RRCLtd Rip\05 - Love To Hate You (Robbie Rivera's Juice Mix).wav

Peak level 72.4 %
Extraction speed 4.1 X
Track quality 100.0 %
Test CRC EADA2998
Copy CRC EADA2998
Track not present in AccurateRip database
Copy OK

Track 6

Filename E:\RRCLtd Rip\06 - Twilight.wav

Peak level 85.1 %
Extraction speed 4.2 X
Track quality 100.0 %
Test CRC CABCD05A
Copy CRC CABCD05A
Track not present in AccurateRip database
Copy OK

Track 7

Filename E:\RRCLtd Rip\07 - Let It Flow.wav

Peak level 85.1 %
Extraction speed 4.4 X
Track quality 100.0 %
Test CRC 0676B7D5
Copy CRC 0676B7D5
Track not present in AccurateRip database
Copy OK

Track 8

Filename E:\RRCLtd Rip\08 - Chorus (Fishes In The Sea) (Ben Grosse Remix).wav

Peak level 94.3 %
Extraction speed 3.7 X
Track quality 99.9 %
Test CRC 94F06E7B
Copy CRC 94F06E7B
Track not present in AccurateRip database
Copy OK

Track 9

Filename E:\RRCLtd Rip\09 - Siren Song (Alternative Lyrics).wav

Peak level 94.3 %
Extraction speed 4.8 X
Track quality 100.0 %
Test CRC 1CC514C0
Copy CRC 1CC514C0
Track not present in AccurateRip database
Copy OK

Track 10

Filename E:\RRCLtd Rip\10 - Breath Of Life (Divine Inspiration Mix).wav

Peak level 79.4 %
Extraction speed 5.2 X
Track quality 100.0 %
Test CRC 161CF001
Copy CRC 161CF001
Track not present in AccurateRip database
Copy OK

Track 11

Filename E:\RRCLtd Rip\11 - Love To Hate You (KROQ Blunder Version).wav

Peak level 94.3 %
Extraction speed 5.3 X
Track quality 100.0 %
Test CRC CB9E7BD1
Copy CRC CB9E7BD1
Track not present in AccurateRip database
Copy OK

Track 12

Filename E:\RRCLtd Rip\12 - La La La.wav

Peak level 79.4 %
Extraction speed 5.3 X
Track quality 100.0 %
Test CRC AEE91114
Copy CRC AEE91114
Track not present in AccurateRip database
Copy OK

Track 13

Filename E:\RRCLtd Rip\13 - Mirror To Your Soul.wav

Peak level 85.1 %
Extraction speed 5.4 X
Track quality 100.0 %
Test CRC F9DCEA00
Copy CRC F9DCEA00
Track not present in AccurateRip database
Copy OK

Track 14

Filename E:\RRCLtd Rip\14 - Waiting For The Day (Demo Version).wav

Peak level 94.3 %
Extraction speed 5.6 X
Track quality 100.0 %
Test CRC CAFB5966
Copy CRC CAFB5966
Track not present in AccurateRip database
Copy OK

Track 15

Filename E:\RRCLtd Rip\15 - Perfect Stranger (Acoustic).wav

Peak level 91.1 %
Extraction speed 5.0 X
Track quality 100.0 %
Test CRC 1DC4EE9A
Copy CRC 1DC4EE9A
Track not present in AccurateRip database
Copy OK

Track 16

Filename E:\RRCLtd Rip\16 - Am I Right (GLen Nicholls Extended 12'' Mix).wav

Peak level 94.3 %
Extraction speed 6.3 X
Track quality 100.0 %
Test CRC 1FC1A272
Copy CRC 1FC1A272
Track not present in AccurateRip database
Copy OK

Track 17

Filename E:\RRCLtd Rip\17 - Home (Minute Taker Remix).wav

Peak level 94.3 %
Extraction speed 6.4 X
Track quality 100.0 %
Test CRC 04E18B1A
Copy CRC 04E18B1A
Track not present in AccurateRip database
Copy OK


None of the tracks are present in the AccurateRip database

No errors occurred

End of status report

–– CUETools DB Plugin V2.1.6

[CTDB TOCID: KsJfYlpR_kO.xnzkSrbD7GDhIdY-] found
Submit result: already submitted
Track | CTDB Status
1 | (49/49) Accurately ripped
2 | (49/49) Accurately ripped
3 | (49/49) Accurately ripped
4 | (49/49) Accurately ripped
5 | (49/49) Accurately ripped
6 | (49/49) Accurately ripped
7 | (49/49) Accurately ripped
8 | (49/49) Accurately ripped
9 | (49/49) Accurately ripped
10 | (49/49) Accurately ripped
11 | (49/49) Accurately ripped
12 | (49/49) Accurately ripped
13 | (48/49) Accurately ripped
14 | (49/49) Accurately ripped
15 | (48/49) Accurately ripped
16 | (48/49) Accurately ripped
17 | (48/49) Accurately ripped


==== Log checksum 750041800521389F4C04970A94EE7BAECA99B733E3DA6C1B225B4274CAE34497 ====

[CUETools log; Date: 05.03.2020 22:38:09; Version: 2.1.4]
[CTDB TOCID: KsJfYlpR_kO.xnzkSrbD7GDhIdY-] found.
Track | CTDB Status
1 | (49/49) Accurately ripped
2 | (49/49) Accurately ripped
3 | (49/49) Accurately ripped
4 | (49/49) Accurately ripped
5 | (49/49) Accurately ripped
6 | (49/49) Accurately ripped
7 | (49/49) Accurately ripped
8 | (49/49) Accurately ripped
9 | (49/49) Accurately ripped
10 | (49/49) Accurately ripped
11 | (49/49) Accurately ripped
12 | (49/49) Accurately ripped
13 | (48/49) Accurately ripped
14 | (49/49) Accurately ripped
15 | (48/49) Accurately ripped
16 | (48/49) Accurately ripped
17 | (48/49) Accurately ripped
[AccurateRip ID: 002e4f5f-024df7b8-dc121911] disk not present in database.

Track Peak [ CRC32 ] [W/O NULL] [ LOG ]
– 94,3 [00F67AC5] [5D9DDF8A]
01 91,1 [DA8737E0] [C3171871] CRC32
02 94,3 [7A8621FC] [D77F6C9B] CRC32
03 94,3 [F1AF2C0D] [5BFD80DC] CRC32
04 94,3 [6085D782] [D75A8DAE] CRC32
05 72,4 [EADA2998] [7A15FF07] CRC32
06 85,1 [CABCD05A] [C715857A] CRC32
07 85,1 [0676B7D5] [6F5B6A9B] CRC32
08 94,3 [94F06E7B] [8A72FE26] CRC32
09 94,3 [1CC514C0] [D631659D] CRC32
10 79,4 [161CF001] [D092AD71] CRC32
11 94,3 [CB9E7BD1] [6080E6F5] CRC32
12 79,4 [AEE91114] [3A0F8033] CRC32
13 85,1 [F9DCEA00] [4AA1C57C] CRC32
14 94,3 [CAFB5966] [E4323807] CRC32
15 91,1 [1DC4EE9A] [BC6FFC4F] CRC32
16 94,3 [1FC1A272] [C7F4750F] CRC32
17 94,3 [04E18B1A] [5BEF8557] CRC32

Exact Audio Copy V1.3 from 2. September 2016

EAC extraction logfile from 3. March 2020, 20:05

Erasure / Chorus (Deluxe edition) - CD3

Used drive : PIONEER DVD-RW DVR-221L Adapter: 1 ID: 0

Read mode : Secure
Utilize accurate stream : Yes
Defeat audio cache : Yes
Make use of C2 pointers : No

Read offset correction : 6
Overread into Lead-In and Lead-Out : No
Fill up missing offset samples with silence : Yes
Delete leading and trailing silent blocks : No
Null samples used in CRC calculations : Yes
Used interface : Native Win32 interface for Win NT & 2000
Gap handling : Appended to previous track

Used output format : User Defined Encoder
Selected bitrate : 1024 kBit/s
Quality : High
Add ID3 tag : No
Command line compressor : C:\Program Files (x86)\Exact Audio Copy\FLAC\FLAC.EXE
Additional command line options : -6 -V -T "COMMENT=ripped by RRC" -T "ARTIST=%artist%" -T "TITLE=%title%" -T "ALBUM=%albumtitle%" -T "DATE=%year%" -T "TRACKNUMBER=%tracknr%" -T "GENRE=%genre%" %source%


TOC of the extracted CD

Track | Start | Length | Start sector | End sector
––––––––––––––––––––––––––––-
1 | 0:00.00 | 4:38.54 | 0 | 20903
2 | 4:38.54 | 3:37.29 | 20904 | 37207
3 | 8:16.08 | 4:01.51 | 37208 | 55333
4 | 12:17.59 | 4:29.58 | 55334 | 75566
5 | 16:47.42 | 5:10.61 | 75567 | 98877
6 | 21:58.28 | 4:06.43 | 98878 | 117370
7 | 26:04.71 | 5:29.14 | 117371 | 142059
8 | 31:34.10 | 6:17.23 | 142060 | 170357
9 | 37:51.33 | 3:20.22 | 170358 | 185379
10 | 41:11.55 | 4:59.73 | 185380 | 207877


Track 1

Filename E:\RRCLtd Rip\01 - Chorus (Live).wav

Pre-gap length 0:00:02.00

Peak level 94.3 %
Extraction speed 2.7 X
Track quality 100.0 %
Test CRC 4CE453B2
Copy CRC 4CE453B2
Track not present in AccurateRip database
Copy OK

Track 2

Filename E:\RRCLtd Rip\02 - Waiting For The Day (Live).wav

Peak level 100.0 %
Extraction speed 2.9 X
Track quality 100.0 %
Test CRC A53C947D
Copy CRC A53C947D
Track not present in AccurateRip database
Copy OK

Track 3

Filename E:\RRCLtd Rip\03 - Joan (Live).wav

Peak level 100.0 %
Extraction speed 2.5 X
Track quality 99.9 %
Test CRC FAD169F8
Copy CRC FAD169F8
Track not present in AccurateRip database
Copy OK

Track 4

Filename E:\RRCLtd Rip\04 - Breath Of Life (Live).wav

Peak level 99.2 %
Extraction speed 3.4 X
Track quality 100.0 %
Test CRC F1A70D1C
Copy CRC F1A70D1C
Track not present in AccurateRip database
Copy OK

Track 5

Filename E:\RRCLtd Rip\05 - Am I Right (Live).wav

Peak level 97.9 %
Extraction speed 3.8 X
Track quality 100.0 %
Test CRC FC76CD1A
Copy CRC FC76CD1A
Track not present in AccurateRip database
Copy OK

Track 6

Filename E:\RRCLtd Rip\06 - Love To Hate You (Live).wav

Peak level 100.0 %
Extraction speed 3.9 X
Track quality 100.0 %
Test CRC CCC36D87
Copy CRC CCC36D87
Track not present in AccurateRip database
Copy OK

Track 7

Filename E:\RRCLtd Rip\07 - Turns The Love To Anger (Live).wav

Peak level 100.0 %
Extraction speed 4.3 X
Track quality 100.0 %
Test CRC 96795BF6
Copy CRC 96795BF6
Track not present in AccurateRip database
Copy OK

Track 8

Filename E:\RRCLtd Rip\08 - Siren Song (Live).wav

Peak level 94.3 %
Extraction speed 4.6 X
Track quality 100.0 %
Test CRC 45F835AC
Copy CRC 45F835AC
Track not present in AccurateRip database
Copy OK

Track 9

Filename E:\RRCLtd Rip\09 - Perfect Stranger (Live).wav

Peak level 94.3 %
Extraction speed 4.5 X
Track quality 100.0 %
Test CRC 4275AB4A
Copy CRC 4275AB4A
Track not present in AccurateRip database
Copy OK

Track 10

Filename E:\RRCLtd Rip\10 - Home (Live).wav

Peak level 94.3 %
Extraction speed 4.8 X
Track quality 100.0 %
Test CRC 366B3BA4
Copy CRC 366B3BA4
Track not present in AccurateRip database
Copy OK


None of the tracks are present in the AccurateRip database

No errors occurred

End of status report

–– CUETools DB Plugin V2.1.6

[CTDB TOCID: YMhj0IqNxuZWkqK1gEqjXxcTiNg-] found
Submit result: already submitted
Track | CTDB Status
1 | (46/46) Accurately ripped
2 | (46/46) Accurately ripped
3 | (46/46) Accurately ripped
4 | (46/46) Accurately ripped
5 | (46/46) Accurately ripped
6 | (46/46) Accurately ripped
7 | (46/46) Accurately ripped
8 | (46/46) Accurately ripped
9 | (46/46) Accurately ripped
10 | (46/46) Accurately ripped


==== Log checksum 552928553435D127E1D396D26A44C072042DE372C9A27EC5C210D2B4703942CA ====

[CUETools log; Date: 05.03.2020 22:38:24; Version: 2.1.4]
[CTDB TOCID: YMhj0IqNxuZWkqK1gEqjXxcTiNg-] found.
Track | CTDB Status
1 | (46/46) Accurately ripped
2 | (46/46) Accurately ripped
3 | (46/46) Accurately ripped
4 | (46/46) Accurately ripped
5 | (46/46) Accurately ripped
6 | (46/46) Accurately ripped
7 | (46/46) Accurately ripped
8 | (46/46) Accurately ripped
9 | (46/46) Accurately ripped
10 | (46/46) Accurately ripped
[AccurateRip ID: 0010f39a-0088fcdd-8c0ad30a] disk not present in database.

Track Peak [ CRC32 ] [W/O NULL] [ LOG ]
– 100,0 [45B55B80] [DA6F2C01]
01 94,3 [4CE453B2] [1E83B816] CRC32
02 100,0 [A53C947D] [21EBC852] CRC32
03 100,0 [FAD169F8] [E2B1DE1B] CRC32
04 99,2 [F1A70D1C] [12310815] CRC32
05 97,9 [FC76CD1A] [E435EC35] CRC32
06 100,0 [CCC36D87] [E5D2000A] CRC32
07 100,0 [96795BF6] [49342B2B] CRC32
08 94,3 [45F835AC] [92B01843] CRC32
09 94,3 [4275AB4A] [4F6D28BF] CRC32
10 94,3 [366B3BA4] [683EF33B] CRC32

Thanks to RRC

See also:
Erasure - Wild! (1989) [2CD Deluxe 30th Anniversary Edition 2019]