Subcategories

Erasure - The Innocents (1988)

Posted By: Andi_Deris
Erasure - The Innocents (1988)

Erasure - The Innocents (1988)
EAC Rip | FLAC: Image+Cue+Log | 340 Mb | MP3 CBR 320 kbps | 126 Mb | Scans | 51:44
Mute Records Limited | CDSTUMM 55
Electronic, New Wave, Synthpop, Dance-Pop

After releasing The Two Ring Circus (a remix album) in 1987, The Innocents was the third proper studio release from Erasure, released in 1988. Produced by Stephen Hague and released by Mute Records in Germany and the UK and Sire/Reprise Records in the USA, it was the release that made Erasure superstars in their home country and gave them their long-awaited breakthrough in the U.S.

The Innocents became the first in a string of number one albums by Erasure in the UK, turning double platinum with sales over 600,000. Thanks to heavy exposure on MTV, it also spawned two major Billboard Hot 100 hits, a Top 50 placing on the Billboard 200 and Platinum album certification in the U.S. According To Nielsen SoundScan, 23 years after its release the album has sold a total of 5 million copies worldwide. It is their best selling album to date.

Erasure - The Innocents (1988)




Track Listing

01. A Little Respect (03:34)
02. Ship Of Fools (04:02)
03. Phantom Bride (03:33)
04. Chains Of Love (03:40)
05. Hallowed Ground (04:06)
06. Sixty-Five Thousand (03:24)
07. Heart Of Stone (03:20)
08. Yahoo! (03:48)
09. Imagination (03:29)
10. Witch In The Ditch (03:45)
11. Weight Of The World (03:40)
12. When I Needed You (Melancholic Mix) (04:23)
13. River Deep, Mountain High (Private Dance Mix) (07:01)

Produced by Stephen Hague

Notes

Tracks 12 & 13 are Extra Tracks.

Made in Great Britain
℗ © 1988 Mute Records Limited

Barcode: 5016025610556
Matrix / Runout: CDSTUMM 55 • :MASTERED BY NIMBUS:
SPARS Code: DAD


Exact Audio Copy V0.99 prebeta 4 from 23. January 2008

EAC extraction logfile from 3. May 2008, 19:39

Erasure / The Innocents

Used drive : ASUS DRW-1608P2S Adapter: 0 ID: 1

Read mode : Secure
Utilize accurate stream : Yes
Defeat audio cache : Yes
Make use of C2 pointers : No

Read offset correction : 48
Overread into Lead-In and Lead-Out : No
Fill up missing offset samples with silence : Yes
Delete leading and trailing silent blocks : No
Null samples used in CRC calculations : Yes
Used interface : Installed external ASPI interface

Used output format : Internal WAV Routines
Sample format : 44.100 Hz; 16 Bit; Stereo


TOC of the extracted CD

Track | Start | Length | Start sector | End sector
––––––––––––––––––––––––––––-
1 | 0:00.00 | 3:34.00 | 0 | 16049
2 | 3:34.00 | 4:01.65 | 16050 | 34189
3 | 7:35.65 | 3:32.40 | 34190 | 50129
4 | 11:08.30 | 3:39.57 | 50130 | 66611
5 | 14:48.12 | 4:05.73 | 66612 | 85059
6 | 18:54.10 | 3:23.57 | 85060 | 100341
7 | 22:17.67 | 3:19.38 | 100342 | 115304
8 | 25:37.30 | 3:48.32 | 115305 | 132436
9 | 29:25.62 | 3:28.33 | 132437 | 148069
10 | 32:54.20 | 3:44.57 | 148070 | 164926
11 | 36:39.02 | 3:40.13 | 164927 | 181439
12 | 40:19.15 | 4:22.32 | 181440 | 201121
13 | 44:41.47 | 7:01.28 | 201122 | 232724


Range status and errors

Selected range

Filename H:\Erasure New Ripes\Albums\Erasure. 1988 - The Innocents.wav

Peak level 100.0 %
Range quality 100.0 %
Test CRC 1C40C1DD
Copy CRC 1C40C1DD
Copy OK

No errors occurred


AccurateRip summary

Track 1 cannot be verified as accurate (confidence 2) [2BED71FA], AccurateRip returned [110FA56F]
Track 2 cannot be verified as accurate (confidence 2) [A51DB260], AccurateRip returned [F9B398AB]
Track 3 cannot be verified as accurate (confidence 2) [A359DDFC], AccurateRip returned [AEE0117C]
Track 4 cannot be verified as accurate (confidence 2) [AE09C354], AccurateRip returned [BFA54514]
Track 5 cannot be verified as accurate (confidence 2) [959E31DB], AccurateRip returned [74CC6E44]
Track 6 cannot be verified as accurate (confidence 2) [D341ED87], AccurateRip returned [CBCCA947]
Track 7 cannot be verified as accurate (confidence 2) [72CD3588], AccurateRip returned [B96B51D8]
Track 8 cannot be verified as accurate (confidence 2) [57C132DA], AccurateRip returned [B9DACF3F]
Track 9 cannot be verified as accurate (confidence 2) [6F35DA3A], AccurateRip returned [A9881D45]
Track 10 cannot be verified as accurate (confidence 2) [6C3D96D2], AccurateRip returned [41451912]
Track 11 cannot be verified as accurate (confidence 2) [2BAD6572], AccurateRip returned [B09EB172]
Track 12 cannot be verified as accurate (confidence 2) [3E075676], AccurateRip returned [11790136]
Track 13 cannot be verified as accurate (confidence 2) [E1C2F9AF], AccurateRip returned [DA32BE2F]

No tracks could be verified as accurate
You may have a different pressing from the one(s) in the database

End of status report


Many thanks to the original uploader: Edred





Password: pass