Subcategories
Tags
Language
Tags

Erasure - Other People's Songs (2003)

Posted By: gribovar
Erasure - Other People's Songs (2003)

Erasure - Other People's Songs (2003)
EAC Rip | FLAC (tracks+.cue+log) - 285 MB | MP3 CBR 320 kbps (LAME 3.93) - 100 MB | Covers - 180 MB
Genre: Synthpop | RAR 3% Rec. | Label: Mute Records (CDStumm215)

While there's nothing wrong with doing an album of covers, putting such a project together has its risks. For Erasure, the experiment yields mixed results. More often than not, they connect with the material in unexpected ways, and certainly with greater success than one might expect from other electronic groups. This is due largely to the fact that these guys have been around long enough to develop a sensitivity to music as being more than a beat and a hook. Their sense of humor leads them to revise "Video Killed the Radio Star" in a way that's not only highly amusing - it actually suits the message of the song. Plus, Andy Bell remains a very convincing singer, particularly on the softer material, where his choir-boy timbre glistens and shimmers. Problems occur when they can't find a convincing way to graft their highly identifiable sound onto the song. On "True Love Ways," for instance, Vince Clarke's textures are sweet to the point of gag inducement, which makes the squirmy synth lick in the bridge section seem weirdly out of place. While they deserve credit for not mimicking the feel of the records they cover, there's something very unnerving about the disco gallop they inflict on "Ebb Tide." And when they do stay faithful to the original arrangement, as on "You've Lost That Lovin' Feeling," all the grandiosity achieved by Phil Spector sounds as if it was being squashed down to Tinker Toy sonics. Finally, just because you're able to insert a cricket sound every time the word "sleeping" occurs on "Goodnight" doesn't necessarily mean it's a good idea.
Tracklist:
01. Solsbury Hill
02. Everybody's Got To Learn Sometime
03. Make Me Smile (Come Up & See Me)
04. Everyday
05. When Will I See You Again
06. Walking In The Rain
07. True Love Ways
08. Ebb Tide
09. Can't Help Falling In Love
10. You've Lost That Lovin' Feelin'
11. Goodnight
12. Video Killed The Radio Star

Total time: 41:17

Exact Audio Copy V1.3 from 2. September 2016

EAC extraction logfile from 9. August 2019, 22:23

Erasure / Other People's Songs

Used drive : PIONEER DVD-RW DVR-215 Adapter: 1 ID: 2

Read mode : Secure
Utilize accurate stream : Yes
Defeat audio cache : Yes
Make use of C2 pointers : No

Read offset correction : 48
Overread into Lead-In and Lead-Out : No
Fill up missing offset samples with silence : Yes
Delete leading and trailing silent blocks : No
Null samples used in CRC calculations : Yes
Used interface : Native Win32 interface for Win NT & 2000
Gap handling : Appended to previous track

Used output format : User Defined Encoder
Selected bitrate : 1024 kBit/s
Quality : High
Add ID3 tag : No
Command line compressor : C:\Program Files (x86)\Exact Audio Copy\FLAC\FLAC.EXE
Additional command line options : -6 -V -T "COMMENT=Ripped by RRC" -T "ARTIST=%artist%" -T "TITLE=%title%" -T "ALBUM=%albumtitle%" -T "DATE=%year%" -T "TRACKNUMBER=%tracknr%" -T "GENRE=%genre%" -T "BAND=%albuminterpret%" -T "ALBUMARTIST=%albuminterpret%" -T "COMPOSER=%composer%" %haslyrics%–tag-from-file=LYRICS="%lyricsfile%"%haslyrics% -T "DISCNUMBER=%cdnumber%" -T "TOTALDISCS=%totalcds%" -T "TOTALTRACKS=%numtracks%" %hascover%–picture="%coverfile%"%hascover% %source%


TOC of the extracted CD

Track | Start | Length | Start sector | End sector
––––––––––––––––––––––––––––-
1 | 0:00.00 | 4:20.08 | 0 | 19507
2 | 4:20.08 | 3:20.61 | 19508 | 34568
3 | 7:40.69 | 3:58.15 | 34569 | 52433
4 | 11:39.09 | 2:00.52 | 52434 | 61485
5 | 13:39.61 | 2:59.73 | 61486 | 74983
6 | 16:39.59 | 2:49.01 | 74984 | 87659
7 | 19:28.60 | 3:08.39 | 87660 | 101798
8 | 22:37.24 | 3:07.40 | 101799 | 115863
9 | 25:44.64 | 3:29.43 | 115864 | 131581
10 | 29:14.32 | 4:00.70 | 131582 | 149651
11 | 33:15.27 | 4:10.27 | 149652 | 168428
12 | 37:25.54 | 3:51.69 | 168429 | 185822


Track 1

Filename E:\RRCLtd Rip\01-Solsbury Hill.wav

Pre-gap length 0:00:02.00

Peak level 100.0 %
Extraction speed 4.7 X
Track quality 100.0 %
Test CRC 36524D37
Copy CRC 36524D37
Accurately ripped (confidence 62) [D33CEB6B] (AR v2)
Copy OK

Track 2

Filename E:\RRCLtd Rip\02-Everybody's Got To Learn Sometime.wav

Peak level 100.0 %
Extraction speed 4.3 X
Track quality 99.9 %
Test CRC 6109061C
Copy CRC 6109061C
Accurately ripped (confidence 62) [BD45812A] (AR v2)
Copy OK

Track 3

Filename E:\RRCLtd Rip\03-Make Me Smile (Come Up & See Me).wav

Peak level 100.0 %
Extraction speed 5.5 X
Track quality 100.0 %
Test CRC 1516A168
Copy CRC 1516A168
Accurately ripped (confidence 62) [1848A40B] (AR v2)
Copy OK

Track 4

Filename E:\RRCLtd Rip\04-Everyday.wav

Peak level 100.0 %
Extraction speed 4.9 X
Track quality 100.0 %
Test CRC 0F962371
Copy CRC 0F962371
Accurately ripped (confidence 62) [4235A23E] (AR v2)
Copy OK

Track 5

Filename E:\RRCLtd Rip\05-When Will I See You Again.wav

Peak level 100.0 %
Extraction speed 5.5 X
Track quality 100.0 %
Test CRC 0023D01C
Copy CRC 0023D01C
Accurately ripped (confidence 62) [D832912D] (AR v2)
Copy OK

Track 6

Filename E:\RRCLtd Rip\06-Walking In The Rain.wav

Peak level 100.0 %
Extraction speed 5.4 X
Track quality 100.0 %
Test CRC 1345CC79
Copy CRC 1345CC79
Accurately ripped (confidence 62) [8B0004F8] (AR v2)
Copy OK

Track 7

Filename E:\RRCLtd Rip\07-True Love Ways.wav

Peak level 100.0 %
Extraction speed 6.1 X
Track quality 100.0 %
Test CRC B88660C2
Copy CRC B88660C2
Accurately ripped (confidence 62) [857B2026] (AR v2)
Copy OK

Track 8

Filename E:\RRCLtd Rip\08-Ebb Tide.wav

Peak level 100.0 %
Extraction speed 5.3 X
Track quality 99.9 %
Test CRC F1827104
Copy CRC F1827104
Accurately ripped (confidence 61) [2E5E12BC] (AR v2)
Copy OK

Track 9

Filename E:\RRCLtd Rip\09-Can't Help Falling In Love.wav

Peak level 100.0 %
Extraction speed 6.5 X
Track quality 100.0 %
Test CRC 718B3150
Copy CRC 718B3150
Accurately ripped (confidence 61) [D86B2CAE] (AR v2)
Copy OK

Track 10

Filename E:\RRCLtd Rip\10-You've Lost That Lovin' Feelin'.wav

Peak level 100.0 %
Extraction speed 0.9 X
Track quality 99.4 %
Test CRC A7F61D1F
Copy CRC A7F61D1F
Accurately ripped (confidence 60) [756D57BB] (AR v2)
Copy OK

Track 11

Filename E:\RRCLtd Rip\11-Goodnight.wav

Peak level 100.0 %
Extraction speed 1.0 X
Track quality 100.0 %
Test CRC C0883C8D
Copy CRC C0883C8D
Accurately ripped (confidence 61) [03B6658F] (AR v2)
Copy OK

Track 12

Filename E:\RRCLtd Rip\12-Video Killed The Radio Star.wav

Peak level 100.0 %
Extraction speed 0.9 X
Track quality 100.0 %
Test CRC 4CA97AF0
Copy CRC 4CA97AF0
Accurately ripped (confidence 60) [D0D04EA6] (AR v2)
Copy OK


All tracks accurately ripped

No errors occurred

End of status report

–– CUETools DB Plugin V2.1.6

[CTDB TOCID: 7gQcmQW.36gfZG0FttDgZccal3c-] found
Submit result: 7gQcmQW.36gfZG0FttDgZccal3c- has been confirmed
Track | CTDB Status
1 | (140/141) Accurately ripped
2 | (141/141) Accurately ripped
3 | (140/141) Accurately ripped
4 | (141/141) Accurately ripped
5 | (139/141) Accurately ripped
6 | (141/141) Accurately ripped
7 | (140/141) Accurately ripped
8 | (135/141) Accurately ripped
9 | (140/141) Accurately ripped
10 | (140/141) Accurately ripped
11 | (137/141) Accurately ripped
12 | (131/141) Accurately ripped


==== Log checksum 156B002B5EE5E3E6822B1E68C6B54C86170E95E1461A398AF2DFE0C07EBD3BA6 ====

[CUETools log; Date: 13.03.2020 20:58:59; Version: 2.1.4]
[CTDB TOCID: 7gQcmQW.36gfZG0FttDgZccal3c-] found.
Track | CTDB Status
1 | (157/158) Accurately ripped
2 | (158/158) Accurately ripped
3 | (157/158) Accurately ripped
4 | (158/158) Accurately ripped
5 | (156/158) Accurately ripped
6 | (158/158) Accurately ripped
7 | (157/158) Accurately ripped
8 | (151/158) Accurately ripped
9 | (157/158) Accurately ripped
10 | (157/158) Accurately ripped
11 | (154/158) Accurately ripped
12 | (147/158) Accurately ripped
[AccurateRip ID: 0012102e-00a7885d-9409ad0c] found.
Track [ CRC | V2 ] Status
01 [c3989d2e|d33ceb6b] (039+069/116) Accurately ripped
02 [14cca832|bd45812a] (038+069/115) Accurately ripped
03 [12b43cda|1848a40b] (038+069/115) Accurately ripped
04 [6b1a80d7|4235a23e] (038+069/115) Accurately ripped
05 [4a26d54e|d832912d] (038+069/114) Accurately ripped
06 [b7000ab3|8b0004f8] (038+069/115) Accurately ripped
07 [cb0d6e42|857b2026] (037+069/114) Accurately ripped
08 [f1a59a46|2e5e12bc] (038+068/114) Accurately ripped
09 [67cb8397|d86b2cae] (038+068/114) Accurately ripped
10 [752aee66|756d57bb] (037+067/112) Accurately ripped
11 [f5fa7491|03b6658f] (034+068/110) Accurately ripped
12 [4294ccac|d0d04ea6] (034+067/109) Accurately ripped
Offsetted by 147:
01 [687700bd] (005/116) Accurately ripped
02 [ce290c22] (005/115) Accurately ripped
03 [53f9db27] (005/115) Accurately ripped
04 [06975129] (005/115) Accurately ripped
05 [fc98ad3a] (005/114) Accurately ripped
06 [2bf10cd0] (005/115) Accurately ripped
07 [6dcb6b71] (005/114) Accurately ripped
08 [6825cc98] (005/114) Accurately ripped
09 [5dd4d7f9] (005/114) Accurately ripped
10 [af42e566] (005/112) Accurately ripped
11 [df307bf4] (005/110) Accurately ripped
12 [1606db47] (005/109) Accurately ripped
Offsetted by 6:
01 [03cb7cac] (000/116) No match
02 [367cd612] (000/115) No match
03 [7ddba694] (000/115) No match
04 [37fb06bb] (000/115) No match
05 [27a3a4a6] (000/114) No match
06 [c0ff6e0d] (000/115) No match
07 [00b72500] (000/114) No match
08 [696c242a] (000/114) No match
09 [e4c6ab9b] (000/114) No match
10 [9c1c3c66] (000/112) No match
11 [cb409437] (000/110) No match
12 [f26535c2] (000/109) No match (V2 was not tested)

Track Peak [ CRC32 ] [W/O NULL] [ LOG ]
– 100,0 [74890787] [4DA87735]
01 100,0 [36524D37] [B3CDA04C] CRC32
02 100,0 [6109061C] [935415FC] CRC32
03 100,0 [1516A168] [7314983E] CRC32
04 100,0 [0F962371] [443F16DB] CRC32
05 100,0 [0023D01C] [407FFF95] CRC32
06 100,0 [1345CC79] [3BF23E70] CRC32
07 100,0 [B88660C2] [6D3682EC] CRC32
08 100,0 [F1827104] [02C07976] CRC32
09 100,0 [718B3150] [187D4427] CRC32
10 100,0 [A7F61D1F] [47362C86] CRC32
11 100,0 [C0883C8D] [3887ECA9] CRC32
12 100,0 [4CA97AF0] [B010DD36] CRC32

Thanks to RRC

See also: