Subcategories
Tags
Language
Tags

Erasure - The Violet Flame (2014) [3CD Limited Edition Deluxe Box Set]

Posted By: gribovar
Erasure - The Violet Flame (2014) [3CD Limited Edition Deluxe Box Set]

Erasure - The Violet Flame (2014) [3CD Limited Edition Deluxe Box Set]
EAC Rip | FLAC (tracks+.cue+log) - 1,01 GB | MP3 CBR 320 kbps (LAME 3.93) - 327 MB | Covers - 166 MB
Genre: Synthpop, House | RAR 3% Rec. | Label: Mute (BXCDSTUMM375)

The Violet Flame is the 16th studio album by Erasure. 3CD Deluxe Box includes a live disc and one of remixes. The three CDs present in an 8-page card package with a 16-page booklet.
Following a holiday album (2013's Snow Globe) with this "return to form" album means veteran duo Erasure are now on the cliched career revival path for aging pop stars, but maybe it's just by chance. Make that "likely," as The Violet Flame gets right down to dancey, inspired business on its opening "Dead of Night," a track that pumps with the beat of any given single off the duo's great 1989 album Wild!. Classic lyrics from Andy Bell speak to the morality play that club night can be ("Too many times you're forgiven/Now you cry like you're the victim") then the chorus is like a pair of bright red cha-cha heels (a joyful stuttering of "D-d-d-dead of night") that won't be ignored. If hearing Bell in his Maleficent costume is a decadent kind of delicious, he's still an excellent Sleeping Beauty as well, as the pumping "Paradise" welcomes a new soul mate with open arms and open heart. Synth man Vince Clarke is simpatico in these back-to-the-future surroundings, as the great "Be the One" sounds like he plundered the computer and found some early sketches of Yaz's "Only You." while "Under the Wave" could be seamlessly mixed with all the minimal bleeping and blooping on Depeche Mode's debut album Speak & Spell, also known as Clarke's last hurrah with the band. The big anthem this time out is "Elevation," a cut with the simplicity of Robin S's "Show Me Love" and lyrics preaching freedom to the dancing masses ("It makes you kinda wonder, what are we supposed to do/When the fate of many, is guided by the hand of few/Who-o-oa."), then there's the closing "Stayed a Little Late Last Night" and the heart-breaking "Smoke and Mirrors," both serving the roles of a soul-filling number that sticks to the bones. With all the elements in place, the late-era The Violet Flame sits on the top shelf of Erasure albums, and considering all the greatness in the back catalog, that's no easy task.
CD 1 Tracklist (The Violet Flame):
01. Dead Of Night
02. Elevation
03. Reason
04. Promises
05. Be The One
06. Sacred
07. Under The Wave
08. Smoke And Mirrors
09. Paradise
10. Stayed A Little Late Tonight

Total time: 37:45

CD 2 Tracklist (Live At Short Circuit, The Roundhouse, London 14/05/11):
01. Hideaway
02. Fingers & Thumbs (Cold Summer's Day)
03. Heavenly Action
04. Always
05. Ship Of Fools
06. Victim Of Love
07. Breathe
08. Chains Of Love
09. Sometimes
10. Blue Savannah
11. A Little Respect

Total time: 43:51

CD 3 Tracklist (The Violet Flame Remixed):
01. Dead Of Night (WAWA's In The Dark Club Mix)
02. Elevation (BT Remix)
03. Reason (Carter Tutti Remix) (Edit)
04. Promises (Astrolith Remix)
05. Be The One (Paul Humphreys Remix)
06. Sacred (Daniel Miller Mix) (Edit)
07. Under The Wave (Parralox Extended Mix)
08. Smoke And Mirrors (Atatika Remix)
09. Paradise (Black Light Odyssey Remix)
10. Stayed A Little Late Tonight (Koishii & Hush Vs Ric Scott Remix)

Total time: 55:28

Exact Audio Copy V1.3 from 2. September 2016

EAC extraction logfile from 10. August 2019, 12:25

Erasure / The Violet Flame

Used drive : PIONEER DVD-RW DVR-221L Adapter: 1 ID: 1

Read mode : Secure
Utilize accurate stream : Yes
Defeat audio cache : Yes
Make use of C2 pointers : No

Read offset correction : 6
Overread into Lead-In and Lead-Out : No
Fill up missing offset samples with silence : Yes
Delete leading and trailing silent blocks : No
Null samples used in CRC calculations : Yes
Used interface : Native Win32 interface for Win NT & 2000
Gap handling : Appended to previous track

Used output format : User Defined Encoder
Selected bitrate : 1024 kBit/s
Quality : High
Add ID3 tag : No
Command line compressor : C:\Program Files (x86)\Exact Audio Copy\FLAC\FLAC.EXE
Additional command line options : -6 -V -T "COMMENT=Ripped by RRC" -T "ARTIST=%artist%" -T "TITLE=%title%" -T "ALBUM=%albumtitle%" -T "DATE=%year%" -T "TRACKNUMBER=%tracknr%" -T "GENRE=%genre%" -T "BAND=%albuminterpret%" -T "ALBUMARTIST=%albuminterpret%" -T "COMPOSER=%composer%" %haslyrics%–tag-from-file=LYRICS="%lyricsfile%"%haslyrics% -T "DISCNUMBER=%cdnumber%" -T "TOTALDISCS=%totalcds%" -T "TOTALTRACKS=%numtracks%" %hascover%–picture="%coverfile%"%hascover% %source%


TOC of the extracted CD

Track | Start | Length | Start sector | End sector
––––––––––––––––––––––––––––-
1 | 0:00.00 | 3:17.19 | 0 | 14793
2 | 3:17.19 | 4:17.70 | 14794 | 34138
3 | 7:35.14 | 3:43.23 | 34139 | 50886
4 | 11:18.37 | 3:46.68 | 50887 | 67904
5 | 15:05.30 | 3:43.61 | 67905 | 84690
6 | 18:49.16 | 4:06.06 | 84691 | 103146
7 | 22:55.22 | 3:46.20 | 103147 | 120116
8 | 26:41.42 | 3:48.20 | 120117 | 137236
9 | 30:29.62 | 3:23.08 | 137237 | 152469
10 | 33:52.70 | 3:52.42 | 152470 | 169911


Track 1

Filename E:\RRCLtd Rip\01-Dead Of Night.wav

Pre-gap length 0:00:02.00

Peak level 100.0 %
Extraction speed 2.6 X
Track quality 100.0 %
Test CRC 131875A3
Copy CRC 131875A3
Accurately ripped (confidence 44) [564C51D5] (AR v2)
Copy OK

Track 2

Filename E:\RRCLtd Rip\02-Elevation.wav

Peak level 100.0 %
Extraction speed 2.4 X
Track quality 99.9 %
Test CRC 422C75BD
Copy CRC 422C75BD
Accurately ripped (confidence 44) [F40FF37D] (AR v2)
Copy OK

Track 3

Filename E:\RRCLtd Rip\03-Reason.wav

Peak level 100.0 %
Extraction speed 3.2 X
Track quality 100.0 %
Test CRC EE5ACC58
Copy CRC EE5ACC58
Accurately ripped (confidence 44) [EF5D6CB3] (AR v2)
Copy OK

Track 4

Filename E:\RRCLtd Rip\04-Promises.wav

Peak level 100.0 %
Extraction speed 3.5 X
Track quality 100.0 %
Test CRC EFA5CF22
Copy CRC EFA5CF22
Accurately ripped (confidence 44) [8C0CA95A] (AR v2)
Copy OK

Track 5

Filename E:\RRCLtd Rip\05-Be The One.wav

Peak level 100.0 %
Extraction speed 3.7 X
Track quality 100.0 %
Test CRC D703763C
Copy CRC D703763C
Accurately ripped (confidence 43) [18AAA5EB] (AR v2)
Copy OK

Track 6

Filename E:\RRCLtd Rip\06-Sacred.wav

Peak level 100.0 %
Extraction speed 3.9 X
Track quality 100.0 %
Test CRC C0991750
Copy CRC C0991750
Accurately ripped (confidence 44) [C0520A69] (AR v2)
Copy OK

Track 7

Filename E:\RRCLtd Rip\07-Under The Wave.wav

Peak level 100.0 %
Extraction speed 4.0 X
Track quality 100.0 %
Test CRC 312D4833
Copy CRC 312D4833
Accurately ripped (confidence 44) [73E853A4] (AR v2)
Copy OK

Track 8

Filename E:\RRCLtd Rip\08-Smoke And Mirrors.wav

Peak level 100.0 %
Extraction speed 4.2 X
Track quality 100.0 %
Test CRC 7A31C488
Copy CRC 7A31C488
Accurately ripped (confidence 42) [A518A97A] (AR v2)
Copy OK

Track 9

Filename E:\RRCLtd Rip\09-Paradise.wav

Peak level 100.0 %
Extraction speed 4.3 X
Track quality 100.0 %
Test CRC F7964883
Copy CRC F7964883
Accurately ripped (confidence 44) [F8868261] (AR v2)
Copy OK

Track 10

Filename E:\RRCLtd Rip\10-Stayed A Little Late Tonight.wav

Peak level 100.0 %
Extraction speed 4.6 X
Track quality 100.0 %
Test CRC 837A1AFE
Copy CRC 837A1AFE
Accurately ripped (confidence 43) [C4DB4842] (AR v2)
Copy OK


All tracks accurately ripped

No errors occurred

End of status report

–– CUETools DB Plugin V2.1.6

[CTDB TOCID: gzMQjh6JMR3BBompv.C0ebbECKA-] found
Submit result: already submitted
Track | CTDB Status
1 | (167/168) Accurately ripped
2 | (167/168) Accurately ripped
3 | (167/168) Accurately ripped
4 | (167/168) Accurately ripped
5 | (167/168) Accurately ripped
6 | (166/168) Accurately ripped
7 | (167/168) Accurately ripped
8 | (167/168) Accurately ripped
9 | (164/168) Accurately ripped
10 | (163/168) Accurately ripped


==== Log checksum 3BB39BEABC12FEE21D3D6B48CBE00B6B9D8D4CA74FC797AE37571354D9A4F558 ====

[CUETools log; Date: 06.03.2020 19:54:40; Version: 2.1.4]
[CTDB TOCID: gzMQjh6JMR3BBompv.C0ebbECKA-] found.
Track | CTDB Status
1 | (179/180) Accurately ripped
2 | (179/180) Accurately ripped
3 | (179/180) Accurately ripped
4 | (179/180) Accurately ripped
5 | (179/180) Accurately ripped
6 | (178/180) Accurately ripped
7 | (179/180) Accurately ripped
8 | (179/180) Accurately ripped
9 | (176/180) Accurately ripped
10 | (175/180) Accurately ripped
[AccurateRip ID: 000e4583-00725d8f-7b08d90a] found.
Track [ CRC | V2 ] Status
01 [a4c8e1ff|564c51d5] (05+49/91) Accurately ripped
02 [5fe8d493|f40ff37d] (05+49/91) Accurately ripped
03 [2bf5fb96|ef5d6cb3] (05+49/91) Accurately ripped
04 [09aeb7c0|8c0ca95a] (05+49/91) Accurately ripped
05 [1a139ce9|18aaa5eb] (05+48/90) Accurately ripped
06 [e6056a7d|c0520a69] (05+49/91) Accurately ripped
07 [55ea57a2|73e853a4] (05+49/91) Accurately ripped
08 [e4e361d9|a518a97a] (05+47/89) Accurately ripped
09 [073266f7|f8868261] (05+49/91) Accurately ripped
10 [e094e3e2|c4db4842] (04+48/89) Accurately ripped
Offsetted by -6:
01 [c0378357] (00/91) No match (V2 was not tested)
02 [d92ab219] (00/91) No match (V2 was not tested)
03 [d6a0fdc5] (00/91) No match (V2 was not tested)
04 [52e2c45b] (00/91) No match (V2 was not tested)
05 [8ae6ecca] (00/90) No match (V2 was not tested)
06 [87482502] (00/91) No match (V2 was not tested)
07 [4845d6f9] (00/91) No match (V2 was not tested)
08 [fb16239e] (00/89) No match (V2 was not tested)
09 [b7189c01] (00/91) No match (V2 was not tested)
10 [886f0610] (00/89) No match (V2 was not tested)

Track Peak [ CRC32 ] [W/O NULL] [ LOG ]
– 100,0 [95C9DA10] [4D1E82C2]
01 100,0 [131875A3] [C7253074] CRC32
02 100,0 [422C75BD] [63E59DBA] CRC32
03 100,0 [EE5ACC58] [5AA37205] CRC32
04 100,0 [EFA5CF22] [9ABBF11F] CRC32
05 100,0 [D703763C] [C490F85D] CRC32
06 100,0 [C0991750] [9FEF70B9] CRC32
07 100,0 [312D4833] [76DF4C48] CRC32
08 100,0 [7A31C488] [689A6EFC] CRC32
09 100,0 [F7964883] [4C22DC68] CRC32
10 100,0 [837A1AFE] [24CEF41B] CRC32

Exact Audio Copy V1.3 from 2. September 2016

EAC extraction logfile from 10. August 2019, 13:52

Erasure / The Violet Flame - Live At Short Circuit

Used drive : PIONEER DVD-RW DVR-221L Adapter: 1 ID: 1

Read mode : Secure
Utilize accurate stream : Yes
Defeat audio cache : Yes
Make use of C2 pointers : No

Read offset correction : 6
Overread into Lead-In and Lead-Out : No
Fill up missing offset samples with silence : Yes
Delete leading and trailing silent blocks : No
Null samples used in CRC calculations : Yes
Used interface : Native Win32 interface for Win NT & 2000
Gap handling : Appended to previous track

Used output format : User Defined Encoder
Selected bitrate : 1024 kBit/s
Quality : High
Add ID3 tag : No
Command line compressor : C:\Program Files (x86)\Exact Audio Copy\FLAC\FLAC.EXE
Additional command line options : -6 -V -T "COMMENT=Ripped by RRC" -T "ARTIST=%artist%" -T "TITLE=%title%" -T "ALBUM=%albumtitle%" -T "DATE=%year%" -T "TRACKNUMBER=%tracknr%" -T "GENRE=%genre%" -T "BAND=%albuminterpret%" -T "ALBUMARTIST=%albuminterpret%" -T "COMPOSER=%composer%" %haslyrics%–tag-from-file=LYRICS="%lyricsfile%"%haslyrics% -T "DISCNUMBER=%cdnumber%" -T "TOTALDISCS=%totalcds%" -T "TOTALTRACKS=%numtracks%" %hascover%–picture="%coverfile%"%hascover% %source%


TOC of the extracted CD

Track | Start | Length | Start sector | End sector
––––––––––––––––––––––––––––-
1 | 0:00.00 | 4:00.10 | 0 | 18009
2 | 4:00.10 | 4:25.22 | 18010 | 37906
3 | 8:25.32 | 3:33.05 | 37907 | 53886
4 | 11:58.37 | 3:49.16 | 53887 | 71077
5 | 15:47.53 | 4:04.46 | 71078 | 89423
6 | 19:52.24 | 4:01.02 | 89424 | 107500
7 | 23:53.26 | 4:24.70 | 107501 | 127370
8 | 28:18.21 | 3:58.57 | 127371 | 145277
9 | 32:17.03 | 3:45.52 | 145278 | 162204
10 | 36:02.55 | 4:21.37 | 162205 | 181816
11 | 40:24.17 | 3:26.58 | 181817 | 197324


Track 1

Filename E:\RRCLtd Rip\01-Hideaway.wav

Pre-gap length 0:00:02.00

Peak level 95.7 %
Extraction speed 2.7 X
Track quality 100.0 %
Test CRC 66F5948A
Copy CRC 66F5948A
Accurately ripped (confidence 28) [7FE46D81] (AR v2)
Copy OK

Track 2

Filename E:\RRCLtd Rip\02-Fingers & Thumbs (Cold Summer’s Day).wav

Peak level 95.7 %
Extraction speed 2.4 X
Track quality 99.9 %
Test CRC 4282B605
Copy CRC 4282B605
Accurately ripped (confidence 28) [D00B9625] (AR v2)
Copy OK

Track 3

Filename E:\RRCLtd Rip\03-Heavenly Action.wav

Peak level 95.7 %
Extraction speed 3.2 X
Track quality 100.0 %
Test CRC D1CEF1F1
Copy CRC D1CEF1F1
Accurately ripped (confidence 28) [A1CE03D0] (AR v2)
Copy OK

Track 4

Filename E:\RRCLtd Rip\04-Always.wav

Peak level 95.7 %
Extraction speed 3.5 X
Track quality 100.0 %
Test CRC 773A28F0
Copy CRC 773A28F0
Accurately ripped (confidence 28) [DC75C949] (AR v2)
Copy OK

Track 5

Filename E:\RRCLtd Rip\05-Ship Of Fools.wav

Peak level 95.7 %
Extraction speed 3.7 X
Track quality 100.0 %
Test CRC D031B854
Copy CRC D031B854
Accurately ripped (confidence 28) [0FC055C9] (AR v2)
Copy OK

Track 6

Filename E:\RRCLtd Rip\06-Victim Of Love.wav

Peak level 95.8 %
Extraction speed 3.0 X
Track quality 99.9 %
Test CRC D6E20F0B
Copy CRC D6E20F0B
Accurately ripped (confidence 28) [504A23A3] (AR v2)
Copy OK

Track 7

Filename E:\RRCLtd Rip\07-Breathe.wav

Peak level 95.8 %
Extraction speed 3.3 X
Track quality 99.9 %
Test CRC C994D771
Copy CRC C994D771
Accurately ripped (confidence 28) [E36B35FD] (AR v2)
Copy OK

Track 8

Filename E:\RRCLtd Rip\08-Chains Of Love.wav

Peak level 95.7 %
Extraction speed 4.4 X
Track quality 100.0 %
Test CRC F3434D12
Copy CRC F3434D12
Accurately ripped (confidence 28) [747B9DF3] (AR v2)
Copy OK

Track 9

Filename E:\RRCLtd Rip\09-Sometimes.wav

Peak level 95.8 %
Extraction speed 4.5 X
Track quality 100.0 %
Test CRC 2531D28C
Copy CRC 2531D28C
Accurately ripped (confidence 28) [3F514244] (AR v2)
Copy OK

Track 10

Filename E:\RRCLtd Rip\10-Blue Savannah.wav

Peak level 95.8 %
Extraction speed 4.7 X
Track quality 100.0 %
Test CRC 256B8173
Copy CRC 256B8173
Accurately ripped (confidence 28) [383D2059] (AR v2)
Copy OK

Track 11

Filename E:\RRCLtd Rip\11-A Little Respect.wav

Peak level 95.7 %
Extraction speed 4.7 X
Track quality 100.0 %
Test CRC 2EC3F7D3
Copy CRC 2EC3F7D3
Accurately ripped (confidence 27) [570FA472] (AR v2)
Copy OK


All tracks accurately ripped

No errors occurred

End of status report

–– CUETools DB Plugin V2.1.6

[CTDB TOCID: NYE6iofNIi4ICjhzSLxehlT3LaA-] found
Submit result: already submitted
Track | CTDB Status
1 | ( 97/100) Accurately ripped
2 | ( 97/100) Accurately ripped
3 | ( 97/100) Accurately ripped
4 | ( 97/100) Accurately ripped
5 | ( 97/100) Accurately ripped
6 | ( 97/100) Accurately ripped
7 | ( 96/100) Accurately ripped
8 | ( 97/100) Accurately ripped
9 | ( 97/100) Accurately ripped
10 | ( 97/100) Accurately ripped
11 | ( 92/100) Accurately ripped, or (4/100) differs in 8237 samples @03:26:35-03:26:42


==== Log checksum 2A291AF94E3579569F9D7C6A1CFE8F57E5A1E9760AFCFBD58FE1EE489472A45B ====

[CUETools log; Date: 06.03.2020 19:55:20; Version: 2.1.4]
[CTDB TOCID: NYE6iofNIi4ICjhzSLxehlT3LaA-] found.
Track | CTDB Status
1 | (104/107) Accurately ripped
2 | (104/107) Accurately ripped
3 | (104/107) Accurately ripped
4 | (104/107) Accurately ripped
5 | (104/107) Accurately ripped
6 | (104/107) Accurately ripped
7 | (103/107) Accurately ripped
8 | (104/107) Accurately ripped
9 | (104/107) Accurately ripped
10 | (104/107) Accurately ripped
11 | ( 99/107) Accurately ripped, or (4/107) differs in 8237 samples @03:26:35-03:26:42
[AccurateRip ID: 00122f7b-009d907a-8a0a470b] found.
Track [ CRC | V2 ] Status
01 [e0807602|7fe46d81] (03+31/54) Accurately ripped
02 [7d7e3722|d00b9625] (03+31/54) Accurately ripped
03 [1866c492|a1ce03d0] (03+31/54) Accurately ripped
04 [458fcfaf|dc75c949] (03+31/54) Accurately ripped
05 [ec49e852|0fc055c9] (03+31/54) Accurately ripped
06 [6fb371cf|504a23a3] (03+31/54) Accurately ripped
07 [a308ec03|e36b35fd] (03+31/54) Accurately ripped
08 [fa4d4ec5|747b9df3] (03+31/54) Accurately ripped
09 [78976bfc|3f514244] (03+31/54) Accurately ripped
10 [477376d3|383d2059] (03+31/54) Accurately ripped
11 [b37ce7ce|570fa472] (03+30/53) Accurately ripped
Offsetted by -6:
01 [db6feb6b] (00/54) No match (V2 was not tested)
02 [4315fc1e] (00/54) No match (V2 was not tested)
03 [f993189f] (00/54) No match (V2 was not tested)
04 [6bb1bf86] (00/54) No match (V2 was not tested)
05 [ee3fb77a] (00/54) No match (V2 was not tested)
06 [0b77e0b4] (00/54) No match (V2 was not tested)
07 [01982d6f] (00/54) No match (V2 was not tested)
08 [0928555c] (00/54) No match (V2 was not tested)
09 [edbc7825] (00/54) No match (V2 was not tested)
10 [1045b3c1] (00/54) No match (V2 was not tested)
11 [91d3fb0c] (00/53) No match (V2 was not tested)

Track Peak [ CRC32 ] [W/O NULL] [ LOG ]
– 95,8 [B379C873] [6B552817]
01 95,7 [66F5948A] [BC7C7FFF] CRC32
02 95,7 [4282B605] [50A0F690] CRC32
03 95,7 [D1CEF1F1] [7C1CB2BD] CRC32
04 95,7 [773A28F0] [0B616B66] CRC32
05 95,7 [D031B854] [D5ACCBA7] CRC32
06 95,8 [D6E20F0B] [454948D5] CRC32
07 95,8 [C994D771] [E6AEF1C7] CRC32
08 95,7 [F3434D12] [A0D8F64E] CRC32
09 95,8 [2531D28C] [7B2F4C30] CRC32
10 95,8 [256B8173] [7C21FE55] CRC32
11 95,7 [2EC3F7D3] [2747C758] CRC32

Exact Audio Copy V1.3 from 2. September 2016

EAC extraction logfile from 10. August 2019, 13:10

Erasure / The Violet Flame Remixed

Used drive : PIONEER DVD-RW DVR-221L Adapter: 1 ID: 1

Read mode : Secure
Utilize accurate stream : Yes
Defeat audio cache : Yes
Make use of C2 pointers : No

Read offset correction : 6
Overread into Lead-In and Lead-Out : No
Fill up missing offset samples with silence : Yes
Delete leading and trailing silent blocks : No
Null samples used in CRC calculations : Yes
Used interface : Native Win32 interface for Win NT & 2000
Gap handling : Appended to previous track

Used output format : User Defined Encoder
Selected bitrate : 1024 kBit/s
Quality : High
Add ID3 tag : No
Command line compressor : C:\Program Files (x86)\Exact Audio Copy\FLAC\FLAC.EXE
Additional command line options : -6 -V -T "COMMENT=Ripped by RRC" -T "ARTIST=%artist%" -T "TITLE=%title%" -T "ALBUM=%albumtitle%" -T "DATE=%year%" -T "TRACKNUMBER=%tracknr%" -T "GENRE=%genre%" -T "BAND=%albuminterpret%" -T "ALBUMARTIST=%albuminterpret%" -T "COMPOSER=%composer%" %haslyrics%–tag-from-file=LYRICS="%lyricsfile%"%haslyrics% -T "DISCNUMBER=%cdnumber%" -T "TOTALDISCS=%totalcds%" -T "TOTALTRACKS=%numtracks%" %hascover%–picture="%coverfile%"%hascover% %source%


TOC of the extracted CD

Track | Start | Length | Start sector | End sector
––––––––––––––––––––––––––––-
1 | 0:00.00 | 6:02.72 | 0 | 27221
2 | 6:02.72 | 7:11.35 | 27222 | 59581
3 | 13:14.32 | 4:17.65 | 59582 | 78921
4 | 17:32.22 | 6:01.43 | 78922 | 106039
5 | 23:33.65 | 5:02.64 | 106040 | 128753
6 | 28:36.54 | 5:41.10 | 128754 | 154338
7 | 34:17.64 | 5:32.05 | 154339 | 179243
8 | 39:49.69 | 4:42.33 | 179244 | 200426
9 | 44:32.27 | 5:41.46 | 200427 | 226047
10 | 50:13.73 | 5:13.63 | 226048 | 249585


Track 1

Filename E:\RRCLtd Rip\01-Dead Of Night (Wawa’s In The Dark Club Mix).wav

Pre-gap length 0:00:02.00

Peak level 97.7 %
Extraction speed 2.9 X
Track quality 100.0 %
Test CRC FF611920
Copy CRC FF611920
Accurately ripped (confidence 4) [1C36DF22] (AR v2)
Copy OK

Track 2

Filename E:\RRCLtd Rip\02-Elevation (BT Remix).wav

Pre-gap length 0:00:02.00

Peak level 95.7 %
Extraction speed 3.5 X
Track quality 100.0 %
Test CRC FD835050
Copy CRC FD835050
Accurately ripped (confidence 4) [9BED7F4D] (AR v2)
Copy OK

Track 3

Filename E:\RRCLtd Rip\03-Reason (Carter Tutti Remix Edit).wav

Pre-gap length 0:00:02.00

Peak level 95.7 %
Extraction speed 3.6 X
Track quality 100.0 %
Test CRC FA1B5740
Copy CRC FA1B5740
Accurately ripped (confidence 4) [9AC6DC69] (AR v2)
Copy OK

Track 4

Filename E:\RRCLtd Rip\04-Promises (Astrolith Remix).wav

Pre-gap length 0:00:02.00

Peak level 95.8 %
Extraction speed 4.1 X
Track quality 100.0 %
Test CRC 59C178EF
Copy CRC 59C178EF
Accurately ripped (confidence 4) [66F875B3] (AR v2)
Copy OK

Track 5

Filename E:\RRCLtd Rip\05-Be The One (Paul Humphreys Remix).wav

Pre-gap length 0:00:01.74

Peak level 98.8 %
Extraction speed 4.3 X
Track quality 100.0 %
Test CRC BE0477DC
Copy CRC BE0477DC
Accurately ripped (confidence 4) [65DCF492] (AR v2)
Copy OK

Track 6

Filename E:\RRCLtd Rip\06-Sacred (Daniel Miller Mix Edit).wav

Pre-gap length 0:00:02.00

Peak level 95.8 %
Extraction speed 4.6 X
Track quality 100.0 %
Test CRC 465ED45C
Copy CRC 465ED45C
Accurately ripped (confidence 4) [665AF077] (AR v2)
Copy OK

Track 7

Filename E:\RRCLtd Rip\07-Under The Wave (Parralox Extended Mix).wav

Pre-gap length 0:00:02.01

Peak level 95.8 %
Extraction speed 4.9 X
Track quality 100.0 %
Test CRC CC36B543
Copy CRC CC36B543
Accurately ripped (confidence 4) [8462FA2D] (AR v2)
Copy OK

Track 8

Filename E:\RRCLtd Rip\08-Smoke and Mirror (Atatika Remix).wav

Pre-gap length 0:00:02.00

Peak level 95.7 %
Extraction speed 4.9 X
Track quality 100.0 %
Test CRC 4B78BDD5
Copy CRC 4B78BDD5
Accurately ripped (confidence 4) [3252B5E1] (AR v2)
Copy OK

Track 9

Filename E:\RRCLtd Rip\09-Paradise (Black Light Odyssey Remix).wav

Pre-gap length 0:00:01.74

Peak level 95.8 %
Extraction speed 4.3 X
Track quality 99.9 %
Test CRC 35B3054E
Copy CRC 35B3054E
Accurately ripped (confidence 4) [3654E750] (AR v2)
Copy OK

Track 10

Filename E:\RRCLtd Rip\10-Stayed A Little Late Tonight (Koishii & Hush vs. Scott Remix).wav

Pre-gap length 0:00:02.01

Peak level 89.1 %
Extraction speed 5.5 X
Track quality 100.0 %
Test CRC 543406B0
Copy CRC 543406B0
Accurately ripped (confidence 4) [F1BAEB26] (AR v2)
Copy OK


All tracks accurately ripped

No errors occurred

End of status report

–– CUETools DB Plugin V2.1.6

[CTDB TOCID: 1QK2vFef55VJipbwSW1YdM89rY4-] found
Submit result: already submitted
Track | CTDB Status
1 | (11/11) Accurately ripped
2 | (11/11) Accurately ripped
3 | (11/11) Accurately ripped
4 | (11/11) Accurately ripped
5 | (11/11) Accurately ripped
6 | (11/11) Accurately ripped
7 | (11/11) Accurately ripped
8 | (11/11) Accurately ripped
9 | (10/11) Accurately ripped
10 | (11/11) Accurately ripped


==== Log checksum 5A1DDCB8EF173552062191DB437EA7EB38E0DC271A175A01294BBAC5D85B0F14 ====

[CUETools log; Date: 06.03.2020 19:55:53; Version: 2.1.4]
[CTDB TOCID: 1QK2vFef55VJipbwSW1YdM89rY4-] found.
Track | CTDB Status
1 | (11/11) Accurately ripped
2 | (11/11) Accurately ripped
3 | (11/11) Accurately ripped
4 | (11/11) Accurately ripped
5 | (11/11) Accurately ripped
6 | (11/11) Accurately ripped
7 | (11/11) Accurately ripped
8 | (11/11) Accurately ripped
9 | (10/11) Accurately ripped
10 | (11/11) Accurately ripped
[AccurateRip ID: 00158474-00aa8711-860cff0a] found.
Track [ CRC | V2 ] Status
01 [b0255f25|1c36df22] (0+6/6) Accurately ripped
02 [042ef92a|9bed7f4d] (0+6/6) Accurately ripped
03 [e271163c|9ac6dc69] (0+6/6) Accurately ripped
04 [a793f316|66f875b3] (0+6/6) Accurately ripped
05 [18e12628|65dcf492] (0+6/6) Accurately ripped
06 [5c5ae1d3|665af077] (0+6/6) Accurately ripped
07 [cf8207df|8462fa2d] (0+6/6) Accurately ripped
08 [0f28cce1|3252b5e1] (0+6/6) Accurately ripped
09 [a80792d6|3654e750] (0+6/6) Accurately ripped
10 [7a771257|f1baeb26] (0+6/6) Accurately ripped

Track Peak [ CRC32 ] [W/O NULL] [ LOG ]
– 98,8 [AF1B6810] [FACFA9E0]
01 97,7 [FF611920] [373EF776] CRC32
02 95,7 [FD835050] [3B4838D6] CRC32
03 95,7 [FA1B5740] [42ADE622] CRC32
04 95,8 [59C178EF] [F7F3B3F7] CRC32
05 98,8 [BE0477DC] [A003C668] CRC32
06 95,7 [465ED45C] [5A3AF87F] CRC32
07 95,8 [CC36B543] [CE69495A] CRC32
08 95,7 [4B78BDD5] [37DC3B4D] CRC32
09 95,8 [35B3054E] [299DF427] CRC32
10 89,1 [543406B0] [8B121ED7] CRC32

Thanks to RRC

See also:
Erasure - Wild! (1989) [2CD Deluxe 30th Anniversary Edition 2019]
Erasure - Chorus (1991) [3CD Deluxe Edition 2020]