Subcategories
Tags
Language
Tags

Erasure - Wild! (1989) [2CD Deluxe 30th Anniversary Edition 2019]

Posted By: gribovar
Erasure - Wild! (1989) [2CD Deluxe 30th Anniversary Edition 2019]

Erasure - Wild! (1989) [2CD Deluxe 30th Anniversary Edition 2019]
EAC Rip | FLAC (tracks+.cue+log) - 762 MB | Covers - 129 MB
Genre: Synthpop | RAR 3% Rec. | Label: Mute Records/BMG (LCDSTUMM75)

Originally released in October 1989, the classic Erasure album Wild! is the band’s fourth album and their 2nd UK number one. Featuring the four hit singles 'Drama!', 'You Surround Me', 'Blue Savannah' and 'Star' the album is re-mastered and re-issued as a deluxe 2CD version in a hard back media book format with rare images, original photography by Pierre et Gilles and brand new sleeve notes. An exclusive bonus disc features five unreleased tracks including a brand new remix by Richard Norris (The Grid / Beyond The Wizard's Sleeve), a recently discovered unreleased mix of 'How Many Times?', rare 12" remixes by Mark Saunders, Gareth Jones and Mute supremo Daniel Miller (with Phil Legg), cover versions (including the fan favourite 'Supernature') and exclusive live tracks recorded at London Arena, Docklands in December 1989.
CD 1 Tracklist (Wild!):
01. Piano Song (Instrumental)
02. Blue Savannah
03. Drama!
04. How Many Times?
05. Star
06. La Gloria
07. You Surround Me
08. Brother and Sister
09. 2,000 Miles
10. Crown Of Thorns
11. Piano Song

Total time: 38:18

CD 2 Tracklist (B-sides, Remixes and Rarities):
01. Sweet, Sweet Baby (The Moo Moo Mix)
02. Drama! (Richard Norris Mix)
03. Blue Savannah (Mark Saunders 12" Mix)
04. Piano Song (Live At The London Arena)
05. Runaround On The Underground (Remix)
06. How Many Times? (Alternative Mix)
07. Supernature (Daniel Miller and Phil Legg Remix)
08. Star (Soul Mix)
09. No G.D.M. (Unfinished Mix)
10. Drama! (Act 2)
11. Brother And Sister (Live At The London Arena)
12. Dreamlike State (7" A Cappella Mix)
13. You Surround Me (Gareth Jones Mix)
14. 91 Steps (6 Pianos Mix)

Total time: 01:13:42

Exact Audio Copy V1.3 from 2. September 2016

EAC extraction logfile from 22. July 2019, 21:09

Erasure / Wild! (30 Anniversary Edition)

Used drive : PIONEER DVD-RW DVR-221L Adapter: 1 ID: 1

Read mode : Secure
Utilize accurate stream : Yes
Defeat audio cache : Yes
Make use of C2 pointers : No

Read offset correction : 6
Overread into Lead-In and Lead-Out : No
Fill up missing offset samples with silence : Yes
Delete leading and trailing silent blocks : No
Null samples used in CRC calculations : Yes
Used interface : Native Win32 interface for Win NT & 2000
Gap handling : Appended to previous track

Used output format : User Defined Encoder
Selected bitrate : 1024 kBit/s
Quality : High
Add ID3 tag : No
Command line compressor : C:\Program Files (x86)\Exact Audio Copy\FLAC\FLAC.EXE
Additional command line options : -6 -V -T "COMMENT=Ripped by RRC for new-team org" -T "ARTIST=%artist%" -T "TITLE=%title%" -T "ALBUM=%albumtitle%" -T "DATE=%year%" -T "TRACKNUMBER=%tracknr%" -T "GENRE=%genre%" -T "BAND=%albuminterpret%" -T "ALBUMARTIST=%albuminterpret%" -T "COMPOSER=%composer%" %haslyrics%–tag-from-file=LYRICS="%lyricsfile%"%haslyrics% -T "DISCNUMBER=%cdnumber%" -T "TOTALDISCS=%totalcds%" -T "TOTALTRACKS=%numtracks%" %hascover%–picture="%coverfile%"%hascover% %source%


TOC of the extracted CD

Track | Start | Length | Start sector | End sector
––––––––––––––––––––––––––––-
1 | 0:00.00 | 1:09.15 | 0 | 5189
2 | 1:09.15 | 4:27.20 | 5190 | 25234
3 | 5:36.35 | 4:04.62 | 25235 | 43596
4 | 9:41.22 | 3:17.50 | 43597 | 58421
5 | 12:58.72 | 3:53.68 | 58422 | 75964
6 | 16:52.65 | 3:10.57 | 75965 | 90271
7 | 20:03.47 | 3:57.48 | 90272 | 108094
8 | 24:01.20 | 3:24.50 | 108095 | 123444
9 | 27:25.70 | 3:38.30 | 123445 | 139824
10 | 31:04.25 | 3:59.52 | 139825 | 157801
11 | 35:04.02 | 3:13.61 | 157802 | 172337


Track 1

Filename E:\RRCLtd Rip\01-Piano Song (Instrumental).wav

Pre-gap length 0:00:02.00

Peak level 72.0 %
Extraction speed 1.8 X
Track quality 100.0 %
Test CRC 992A9DFB
Copy CRC 992A9DFB
Accurately ripped (confidence 15) [C69CD8C6] (AR v2)
Copy OK

Track 2

Filename E:\RRCLtd Rip\02-Blue Savannah.wav

Peak level 94.3 %
Extraction speed 2.2 X
Track quality 99.9 %
Test CRC 903FCF9E
Copy CRC 903FCF9E
Accurately ripped (confidence 15) [860850DD] (AR v2)
Copy OK

Track 3

Filename E:\RRCLtd Rip\03-Drama!.wav

Peak level 94.3 %
Extraction speed 3.0 X
Track quality 100.0 %
Test CRC 7567495B
Copy CRC 7567495B
Accurately ripped (confidence 15) [A50449B3] (AR v2)
Copy OK

Track 4

Filename E:\RRCLtd Rip\04-How Many Times.wav

Peak level 90.9 %
Extraction speed 3.2 X
Track quality 100.0 %
Test CRC 10C2D4B3
Copy CRC 10C2D4B3
Accurately ripped (confidence 15) [04545AE6] (AR v2)
Copy OK

Track 5

Filename E:\RRCLtd Rip\05-Star.wav

Peak level 94.3 %
Extraction speed 3.4 X
Track quality 100.0 %
Test CRC 7159208F
Copy CRC 7159208F
Accurately ripped (confidence 15) [4F6174FA] (AR v2)
Copy OK

Track 6

Filename E:\RRCLtd Rip\06-La Gloria.wav

Peak level 94.3 %
Extraction speed 3.5 X
Track quality 100.0 %
Test CRC DBC9BD0E
Copy CRC DBC9BD0E
Accurately ripped (confidence 15) [253CB1E7] (AR v2)
Copy OK

Track 7

Filename E:\RRCLtd Rip\07-You Surround Me.wav

Peak level 94.3 %
Extraction speed 3.5 X
Track quality 100.0 %
Test CRC 6FF76E74
Copy CRC 6FF76E74
Accurately ripped (confidence 15) [268A0102] (AR v2)
Copy OK

Track 8

Filename E:\RRCLtd Rip\08-Brother and Sister.wav

Peak level 94.3 %
Extraction speed 3.9 X
Track quality 100.0 %
Test CRC 39ECD8A2
Copy CRC 39ECD8A2
Accurately ripped (confidence 15) [6C480FF1] (AR v2)
Copy OK

Track 9

Filename E:\RRCLtd Rip\09-2,000 Miles.wav

Peak level 94.3 %
Extraction speed 4.1 X
Track quality 100.0 %
Test CRC 7EB68947
Copy CRC 7EB68947
Accurately ripped (confidence 15) [71805AB7] (AR v2)
Copy OK

Track 10

Filename E:\RRCLtd Rip\10-Crown Of Thorns.wav

Peak level 94.3 %
Extraction speed 3.3 X
Track quality 99.9 %
Test CRC 04688947
Copy CRC 04688947
Accurately ripped (confidence 15) [BF4842A4] (AR v2)
Copy OK

Track 11

Filename E:\RRCLtd Rip\11-Piano Song.wav

Peak level 68.7 %
Extraction speed 4.3 X
Track quality 100.0 %
Test CRC 432AE899
Copy CRC 432AE899
Accurately ripped (confidence 14) [D937DDB1] (AR v2)
Copy OK


All tracks accurately ripped

No errors occurred

End of status report

–– CUETools DB Plugin V2.1.6

[CTDB TOCID: bxoAHcLml6asO96M_06TCX68DDI-] found
Submit result: bxoAHcLml6asO96M_06TCX68DDI- has been confirmed
Track | CTDB Status
1 | (42/43) Accurately ripped
2 | (43/43) Accurately ripped
3 | (43/43) Accurately ripped
4 | (43/43) Accurately ripped
5 | (43/43) Accurately ripped
6 | (43/43) Accurately ripped
7 | (43/43) Accurately ripped
8 | (43/43) Accurately ripped
9 | (43/43) Accurately ripped
10 | (42/43) Accurately ripped
11 | (40/43) Accurately ripped, or (2/43) differs in 2838 samples @03:13:39-03:13:42


==== Log checksum 5EE938BA6DAEEA1B7E8BA0E915CC15B78B9E3ED1F4EE7C30B51DFE43F627AA78 ====

[CUETools log; Date: 04.03.2020 22:20:58; Version: 2.1.4]
[CTDB TOCID: bxoAHcLml6asO96M_06TCX68DDI-] found.
Track | CTDB Status
1 | (59/60) Accurately ripped
2 | (60/60) Accurately ripped
3 | (60/60) Accurately ripped
4 | (60/60) Accurately ripped
5 | (60/60) Accurately ripped
6 | (60/60) Accurately ripped
7 | (60/60) Accurately ripped
8 | (60/60) Accurately ripped
9 | (60/60) Accurately ripped
10 | (59/60) Accurately ripped
11 | (55/60) Accurately ripped, or (3/60) differs in 2838 samples @03:13:39-03:13:42
[AccurateRip ID: 000f42fa-00868dfb-8108f90b] found.
Track [ CRC | V2 ] Status
01 [9ff82d82|c69cd8c6] (00+22/22) Accurately ripped
02 [7abcc2bd|860850dd] (00+22/22) Accurately ripped
03 [5ebfd6bf|a50449b3] (00+22/22) Accurately ripped
04 [9bb372f9|04545ae6] (00+22/22) Accurately ripped
05 [c8dfb3d6|4f6174fa] (00+22/22) Accurately ripped
06 [e300f1a0|253cb1e7] (00+22/22) Accurately ripped
07 [708d14fd|268a0102] (00+22/22) Accurately ripped
08 [c837604c|6c480ff1] (00+22/22) Accurately ripped
09 [d92264aa|71805ab7] (00+22/22) Accurately ripped
10 [b26b98fe|bf4842a4] (00+22/22) Accurately ripped
11 [39facaa1|d937ddb1] (00+21/21) Accurately ripped

Track Peak [ CRC32 ] [W/O NULL] [ LOG ]
– 94,3 [77AB967D] [4442D83D]
01 72,0 [992A9DFB] [BF8479F1] CRC32
02 94,3 [903FCF9E] [B0050677] CRC32
03 94,3 [7567495B] [E59C48CC] CRC32
04 90,9 [10C2D4B3] [7C7C4790] CRC32
05 94,3 [7159208F] [893453F5] CRC32
06 94,3 [DBC9BD0E] [C5F47AB9] CRC32
07 94,3 [6FF76E74] [1B22BCA6] CRC32
08 94,3 [39ECD8A2] [88C96A0B] CRC32
09 94,3 [7EB68947] [A983D040] CRC32
10 94,3 [04688947] [7ED77CD4] CRC32
11 68,7 [432AE899] [71393A79] CRC32

Exact Audio Copy V1.3 from 2. September 2016

EAC extraction logfile from 22. July 2019, 22:11

Erasure / Wild! (30 Anniversary Edition) (CD2)

Used drive : PIONEER DVD-RW DVR-215 Adapter: 1 ID: 2

Read mode : Secure
Utilize accurate stream : Yes
Defeat audio cache : Yes
Make use of C2 pointers : No

Read offset correction : 48
Overread into Lead-In and Lead-Out : No
Fill up missing offset samples with silence : Yes
Delete leading and trailing silent blocks : No
Null samples used in CRC calculations : Yes
Used interface : Native Win32 interface for Win NT & 2000
Gap handling : Appended to previous track

Used output format : User Defined Encoder
Selected bitrate : 1024 kBit/s
Quality : High
Add ID3 tag : No
Command line compressor : C:\Program Files (x86)\Exact Audio Copy\FLAC\FLAC.EXE
Additional command line options : -6 -V -T "COMMENT=Ripped by RRC for new-team org" -T "ARTIST=%artist%" -T "TITLE=%title%" -T "ALBUM=%albumtitle%" -T "DATE=%year%" -T "TRACKNUMBER=%tracknr%" -T "GENRE=%genre%" -T "BAND=%albuminterpret%" -T "ALBUMARTIST=%albuminterpret%" -T "COMPOSER=%composer%" %haslyrics%–tag-from-file=LYRICS="%lyricsfile%"%haslyrics% -T "DISCNUMBER=%cdnumber%" -T "TOTALDISCS=%totalcds%" -T "TOTALTRACKS=%numtracks%" %hascover%–picture="%coverfile%"%hascover% %source%


TOC of the extracted CD

Track | Start | Length | Start sector | End sector
––––––––––––––––––––––––––––-
1 | 0:00.00 | 5:12.18 | 0 | 23417
2 | 5:12.18 | 6:39.07 | 23418 | 53349
3 | 11:51.25 | 6:51.21 | 53350 | 84195
4 | 18:42.46 | 3:34.11 | 84196 | 100256
5 | 22:16.57 | 6:38.31 | 100257 | 130137
6 | 28:55.13 | 3:16.57 | 130138 | 144894
7 | 32:11.70 | 6:52.68 | 144895 | 175862
8 | 39:04.63 | 5:52.03 | 175863 | 202265
9 | 44:56.66 | 4:24.43 | 202266 | 222108
10 | 49:21.34 | 5:37.45 | 222109 | 247428
11 | 54:59.04 | 3:32.69 | 247429 | 263397
12 | 58:31.73 | 3:29.02 | 263398 | 279074
13 | 62:01.00 | 6:17.16 | 279075 | 307365
14 | 68:18.16 | 5:24.04 | 307366 | 331669


Track 1

Filename E:\RRCLtd Rip\01-Sweet, Sweet Baby (The Moo-Moo Mix).wav

Pre-gap length 0:00:02.00

Peak level 69.1 %
Extraction speed 4.7 X
Track quality 100.0 %
Test CRC 7F2E6488
Copy CRC 7F2E6488
Accurately ripped (confidence 12) [A9A51AA4] (AR v2)
Copy OK

Track 2

Filename E:\RRCLtd Rip\02-Drama (Richard Norris Remix).wav

Pre-gap length 0:00:00.17

Peak level 94.3 %
Extraction speed 5.5 X
Track quality 100.0 %
Test CRC C1BCA76E
Copy CRC C1BCA76E
Accurately ripped (confidence 12) [AC79FD9D] (AR v2)
Copy OK

Track 3

Filename E:\RRCLtd Rip\03-Blue Savannah (Mark Saunders 12'' Remix).wav

Pre-gap length 0:00:01.16

Peak level 84.1 %
Extraction speed 6.2 X
Track quality 100.0 %
Test CRC 63E24A51
Copy CRC 63E24A51
Accurately ripped (confidence 12) [6B326AAF] (AR v2)
Copy OK

Track 4

Filename E:\RRCLtd Rip\04-Piano Song (Live at the London Arena).wav

Pre-gap length 0:00:00.70

Peak level 88.0 %
Extraction speed 5.3 X
Track quality 99.9 %
Test CRC 2457131F
Copy CRC 2457131F
Accurately ripped (confidence 12) [A1D51890] (AR v2)
Copy OK

Track 5

Filename E:\RRCLtd Rip\05-Runaround On The Underground (Remix).wav

Pre-gap length 0:00:01.58

Peak level 88.0 %
Extraction speed 6.4 X
Track quality 99.9 %
Test CRC C34349A7
Copy CRC C34349A7
Accurately ripped (confidence 12) [820FDCCE] (AR v2)
Copy OK

Track 6

Filename E:\RRCLtd Rip\06-How Many Times (Alternative Mix).wav

Pre-gap length 0:00:01.06

Peak level 94.3 %
Extraction speed 6.7 X
Track quality 100.0 %
Test CRC 877BBCB6
Copy CRC 877BBCB6
Accurately ripped (confidence 12) [51AC6100] (AR v2)
Copy OK

Track 7

Filename E:\RRCLtd Rip\07-Supernature (Daniel Miller and Phil Legg Mix).wav

Pre-gap length 0:00:01.40

Peak level 81.2 %
Extraction speed 7.6 X
Track quality 100.0 %
Test CRC 3A2BD6C2
Copy CRC 3A2BD6C2
Accurately ripped (confidence 12) [FF4CD701] (AR v2)
Copy OK

Track 8

Filename E:\RRCLtd Rip\08-Star (Soul Mix).wav

Pre-gap length 0:00:01.39

Peak level 73.2 %
Extraction speed 7.9 X
Track quality 100.0 %
Test CRC EA43068D
Copy CRC EA43068D
Accurately ripped (confidence 12) [4984B274] (AR v2)
Copy OK

Track 9

Filename E:\RRCLtd Rip\09-No G.D.M. (Unfinished Mix).wav

Pre-gap length 0:00:00.55

Peak level 83.1 %
Extraction speed 7.1 X
Track quality 99.9 %
Test CRC 195DC57F
Copy CRC 195DC57F
Accurately ripped (confidence 12) [148C9E18] (AR v2)
Copy OK

Track 10

Filename E:\RRCLtd Rip\10-Drama! (Act 2).wav

Pre-gap length 0:00:01.47

Peak level 79.4 %
Extraction speed 8.4 X
Track quality 100.0 %
Test CRC 61B94975
Copy CRC 61B94975
Accurately ripped (confidence 12) [A80799A2] (AR v2)
Copy OK

Track 11

Filename E:\RRCLtd Rip\11-Brother and Sister (Live at the London Arena).wav

Pre-gap length 0:00:01.11

Peak level 74.9 %
Extraction speed 8.1 X
Track quality 100.0 %
Test CRC E52030A1
Copy CRC E52030A1
Accurately ripped (confidence 12) [00DE9776] (AR v2)
Copy OK

Track 12

Filename E:\RRCLtd Rip\12-Dreamlike State (7'' Acappella Mix).wav

Pre-gap length 0:00:01.40

Peak level 94.3 %
Extraction speed 0.9 X
Track quality 100.0 %
Test CRC 53B300FC
Copy CRC 53B300FC
Accurately ripped (confidence 12) [A98ED38F] (AR v2)
Copy OK

Track 13

Filename E:\RRCLtd Rip\13-You Surround Me (Gareth Jones Mix).wav

Pre-gap length 0:00:01.02

Peak level 94.3 %
Extraction speed 1.0 X
Track quality 100.0 %
Test CRC 9F519D77
Copy CRC 9F519D77
Accurately ripped (confidence 12) [36A3A149] (AR v2)
Copy OK

Track 14

Filename E:\RRCLtd Rip\14-91 Steps (6 Pianos Mix).wav

Pre-gap length 0:00:00.45

Peak level 94.3 %
Extraction speed 0.9 X
Track quality 99.9 %
Test CRC 3BEF74C7
Copy CRC 3BEF74C7
Accurately ripped (confidence 13) [6BC85A3E] (AR v2)
Copy OK


All tracks accurately ripped

No errors occurred

End of status report

–– CUETools DB Plugin V2.1.6

[CTDB TOCID: 7.1hd2T6vFZPQnGpT11J.LXW0Cg-] found
Submit result: 7.1hd2T6vFZPQnGpT11J.LXW0Cg- has been confirmed
Track | CTDB Status
1 | (38/38) Accurately ripped
2 | (38/38) Accurately ripped
3 | (38/38) Accurately ripped
4 | (38/38) Accurately ripped
5 | (38/38) Accurately ripped
6 | (38/38) Accurately ripped
7 | (38/38) Accurately ripped
8 | (38/38) Accurately ripped
9 | (38/38) Accurately ripped
10 | (38/38) Accurately ripped
11 | (38/38) Accurately ripped
12 | (38/38) Accurately ripped
13 | (37/38) Accurately ripped
14 | (37/38) Accurately ripped


==== Log checksum 90214DDB4CD8E3F9722BD865B1FB4595A8633F227D8DCD8EF8A8456DB3E65A2A ====

[CUETools log; Date: 04.03.2020 22:23:10; Version: 2.1.4]
[CTDB TOCID: 7.1hd2T6vFZPQnGpT11J.LXW0Cg-] found.
Track | CTDB Status
1 | (52/52) Accurately ripped
2 | (52/52) Accurately ripped
3 | (52/52) Accurately ripped
4 | (52/52) Accurately ripped
5 | (52/52) Accurately ripped
6 | (52/52) Accurately ripped
7 | (52/52) Accurately ripped
8 | (52/52) Accurately ripped
9 | (52/52) Accurately ripped
10 | (52/52) Accurately ripped
11 | (52/52) Accurately ripped
12 | (52/52) Accurately ripped
13 | (51/52) Accurately ripped
14 | (51/52) Accurately ripped
[AccurateRip ID: 00272536-019d29d9-b111460e] found.
Track [ CRC | V2 ] Status
01 [151ecdf7|a9a51aa4] (00+18/18) Accurately ripped
02 [1b6c48d9|ac79fd9d] (00+18/18) Accurately ripped
03 [cf1ca186|6b326aaf] (00+18/18) Accurately ripped
04 [d0e4c003|a1d51890] (00+18/18) Accurately ripped
05 [f94aae59|820fdcce] (00+18/18) Accurately ripped
06 [6256882a|51ac6100] (00+18/18) Accurately ripped
07 [2b5b92bb|ff4cd701] (00+18/18) Accurately ripped
08 [de9ada4a|4984b274] (00+18/18) Accurately ripped
09 [256ff88d|148c9e18] (00+18/18) Accurately ripped
10 [3a063cdb|a80799a2] (00+18/18) Accurately ripped
11 [9a4c9174|00de9776] (00+18/18) Accurately ripped
12 [b92e0269|a98ed38f] (00+18/18) Accurately ripped
13 [3124cc09|36a3a149] (00+18/18) Accurately ripped
14 [055942ad|6bc85a3e] (00+19/19) Accurately ripped

Track Peak [ CRC32 ] [W/O NULL] [ LOG ]
– 94,3 [198AA5AE] [C0173A4E]
01 69,1 [7F2E6488] [85467DC0] CRC32
02 94,3 [C1BCA76E] [7124BBFE] CRC32
03 84,1 [63E24A51] [5F88983D] CRC32
04 88,0 [2457131F] [0D2A899E] CRC32
05 88,0 [C34349A7] [F218ED43] CRC32
06 94,3 [877BBCB6] [E2414FD7] CRC32
07 81,2 [3A2BD6C2] [D295399F] CRC32
08 73,2 [EA43068D] [3F5DFBEC] CRC32
09 83,1 [195DC57F] [B9179E5F] CRC32
10 79,4 [61B94975] [5C562492] CRC32
11 74,9 [E52030A1] [255CEB55] CRC32
12 94,3 [53B300FC] [580669B8] CRC32
13 94,3 [9F519D77] [45ADDE09] CRC32
14 94,3 [3BEF74C7] [2B8DE6F5] CRC32

Thanks to RRC