Subcategories

Eric Burdon & The Animals - When I Was Young (2020) [5CD Box Set]

Posted By: v3122
Eric Burdon & The Animals - When I Was Young (2020) [5CD Box Set]

Eric Burdon & The Animals - When I Was Young (2020)
EAC | Flac(Image) + Cue + Log & MP3 CBR 320Kbps
Esoteric, ECLEC52700 | ~ 1617 or 703 Mb | Artwork(png) -> 915 Mb
Rock / Blues / Blues Rock

Five CD set featuring all of the albums recorded by Eric Burdon & the Animals for the MGM Records label issued between October 1967 and December 1968. Eric Burdon & the Animals came together in December 1966 when the original Animals had ground to a halt. Vocalist Eric Burdon recruited Vic Briggs (guitar, piano), John Weider (guitar, violin, bass), Danny McCulloch (bass) and Barry Jenkins (drums) to form a new group which changed direction away from raucous rhythm and blues and embraced psychedelic rock and the influences of the emerging counter-culture. Signing to MGM Records in the USA (where he became based) and teaming up with producer Tom Wilson, the band's debut single "When I Was Young" was released in April 1967 and was a powerful statement, featuring Weider's violin and Briggs' fuzzed guitar, becoming a hit in Europe, Australia and the USA. The band's debut album, Winds Of Change was issued in October 1967. The album The Twain Shall Meet was recorded in December 1967 but not issued until May 1968. Incredibly, 1968 would see a further two album releases by the group in the USA and Europe; Every One Of Us, recorded in June and issued in August of that year. By the time of it's release, Vic Briggs had departed to be replaced by Andy Summers. This line-up recorded the double album Love Is in Los Angeles in October 1968, issued only as a single LP in the UK. Released in December 1968, it was to be the final album by the group. Burdon remained in the United States and joined forces with the group WAR in 1969. This box features the albums Winds Of Change (both stereo and mono versions), The Twain Shall Meet, Every One Of Us and Love Is, all newly remastered from the original master tapes, along with ten bonus tracks drawn from the band's single releases.
Eric Burdon & The Animals - When I Was Young (2020) [5CD Box Set]

Eric Burdon & The Animals - When I Was Young (2020):

Eric Burdon & The Animals - When I Was Young (2020) [5CD Box Set]

Tracklist CD1 - 1967 Wind Of Change Stereo:

01 Winds Of Change
02 Poem By The Sea
03 Paint It Black
04 The Black Plague
05 Yes, I Am Experienced
06 San Francisco Nights
07 Man - Woman
08 Hotel Hell
09 Good Times
10 Anything
11 It's All Meat
Bonus Tracks
12 When I Was Young
13 A Girl Named Sandoz
14 Ain't That So
15 Gratefully Dead
16 Anything (Single Version)

Exact Audio Copy V1.3 from 2. September 2016

EAC extraction logfile from 19. March 2020, 20:23

Eric Burdon & The Animals / Winds Of Change (Stereo)

Used drive : PLEXTOR BD-R PX-B950SA Adapter: 1 ID: 1

Read mode : Secure
Utilize accurate stream : Yes
Defeat audio cache : Yes
Make use of C2 pointers : No

Read offset correction : 6
Overread into Lead-In and Lead-Out : No
Fill up missing offset samples with silence : Yes
Delete leading and trailing silent blocks : No
Null samples used in CRC calculations : Yes
Used interface : Native Win32 interface for Win NT & 2000

Used output format : Internal WAV Routines
Sample format : 44.100 Hz; 16 Bit; Stereo


TOC of the extracted CD

Track | Start | Length | Start sector | End sector
––––––––––––––––––––––––––––-
1 | 0:00.00 | 4:00.43 | 0 | 18042
2 | 4:00.43 | 2:15.45 | 18043 | 28212
3 | 6:16.13 | 5:58.23 | 28213 | 55085
4 | 12:14.36 | 5:58.19 | 55086 | 81954
5 | 18:12.55 | 3:40.03 | 81955 | 98457
6 | 21:52.58 | 3:19.28 | 98458 | 113410
7 | 25:12.11 | 5:28.43 | 113411 | 138053
8 | 30:40.54 | 4:48.61 | 138054 | 159714
9 | 35:29.40 | 2:59.63 | 159715 | 173202
10 | 38:29.28 | 3:21.15 | 173203 | 188292
11 | 41:50.43 | 2:07.68 | 188293 | 197885
12 | 43:58.36 | 3:03.46 | 197886 | 211656
13 | 47:02.07 | 3:07.25 | 211657 | 225706
14 | 50:09.32 | 3:26.64 | 225707 | 241220
15 | 53:36.21 | 4:04.16 | 241221 | 259536
16 | 57:40.37 | 2:53.60 | 259537 | 272571


Range status and errors

Selected range

Filename C:\Users\Alex\Desktop\ALLexxess\The Animals\2020 When I Was Young (5CD Box Set Esoteric Records)\CD1 1967 Wind Of Change\Eric Burdon & The Animals - Winds Of Change (Stereo).wav

Peak level 100.0 %
Extraction speed 7.3 X
Range quality 100.0 %
Test CRC A47765BF
Copy CRC A47765BF
Copy OK

No errors occurred


AccurateRip summary

Track 1 not present in database
Track 2 not present in database
Track 3 not present in database
Track 4 not present in database
Track 5 not present in database
Track 6 not present in database
Track 7 not present in database
Track 8 not present in database
Track 9 not present in database
Track 10 not present in database
Track 11 not present in database
Track 12 not present in database
Track 13 not present in database
Track 14 not present in database
Track 15 not present in database
Track 16 not present in database

None of the tracks are present in the AccurateRip database

End of status report

–– CUETools DB Plugin V2.1.6

[CTDB TOCID: KfmYC263qt_TZ.ZxPkYTrtLoBrA-] found
Submit result: KfmYC263qt_TZ.ZxPkYTrtLoBrA- has been confirmed
Track | CTDB Status
1 | (8/8) Accurately ripped
2 | (8/8) Accurately ripped
3 | (8/8) Accurately ripped
4 | (8/8) Accurately ripped
5 | (8/8) Accurately ripped
6 | (8/8) Accurately ripped
7 | (8/8) Accurately ripped
8 | (8/8) Accurately ripped
9 | (8/8) Accurately ripped
10 | (8/8) Accurately ripped
11 | (8/8) Accurately ripped
12 | (8/8) Accurately ripped
13 | (8/8) Accurately ripped
14 | (8/8) Accurately ripped
15 | (8/8) Accurately ripped
16 | (8/8) Accurately ripped


==== Log checksum 910E644B9BA9F594684BC95B5391954F9C2D73F41E41AE2F58F64B8EA97BC15A ====


Eric Burdon & The Animals - When I Was Young (2020) [5CD Box Set]

Tracklist CD2 - 1968 The Twain Shall Meet:

01 Monterey
02 Just The Thought
03 Closer To The Truth
04 No Self Pity
05 Orange And Red Beams
06 Sky Pilot
07 We Love You Lil
08 All Is One
Bonus Tracks
09 Sky Pilot (Part One) / Single Version
10 Sky Pilot (Part Two) / Single Version
11 Monterey (Mono Single Version)

Exact Audio Copy V1.3 from 2. September 2016

EAC extraction logfile from 19. March 2020, 19:48

Eric Burdon & The Animals / The Twain Shall Meet

Used drive : PLEXTOR BD-R PX-B950SA Adapter: 1 ID: 1

Read mode : Secure
Utilize accurate stream : Yes
Defeat audio cache : Yes
Make use of C2 pointers : No

Read offset correction : 6
Overread into Lead-In and Lead-Out : No
Fill up missing offset samples with silence : Yes
Delete leading and trailing silent blocks : No
Null samples used in CRC calculations : Yes
Used interface : Native Win32 interface for Win NT & 2000

Used output format : Internal WAV Routines
Sample format : 44.100 Hz; 16 Bit; Stereo


TOC of the extracted CD

Track | Start | Length | Start sector | End sector
––––––––––––––––––––––––––––-
1 | 0:00.01 | 4:41.59 | 1 | 21134
2 | 4:41.60 | 3:49.37 | 21135 | 38346
3 | 8:31.22 | 4:35.28 | 38347 | 58999
4 | 13:06.50 | 4:54.23 | 59000 | 81072
5 | 18:00.73 | 3:46.36 | 81073 | 98058
6 | 21:47.34 | 7:35.59 | 98059 | 132242
7 | 29:23.18 | 6:54.69 | 132243 | 163361
8 | 36:18.12 | 7:51.40 | 163362 | 198726
9 | 44:09.52 | 3:08.66 | 198727 | 212892
10 | 47:18.43 | 4:36.16 | 212893 | 233608
11 | 51:54.59 | 4:27.38 | 233609 | 253671


Range status and errors

Selected range

Filename C:\Users\Alex\Desktop\ALLexxess\The Animals\2020 When I Was Young (5CD Box Set Esoteric Records)\CD2 1968 The Twain Shall Meet\Eric Burdon & The Animals - The Twain Shall Meet.wav

Peak level 98.8 %
Extraction speed 7.2 X
Range quality 100.0 %
Test CRC E0698D35
Copy CRC E0698D35
Copy OK

No errors occurred


AccurateRip summary

Track 1 not present in database
Track 2 not present in database
Track 3 not present in database
Track 4 not present in database
Track 5 not present in database
Track 6 not present in database
Track 7 not present in database
Track 8 not present in database
Track 9 not present in database
Track 10 not present in database
Track 11 not present in database

None of the tracks are present in the AccurateRip database

End of status report

–– CUETools DB Plugin V2.1.6

[CTDB TOCID: nvdH2AiTAGnYg2MdGrdRQ19LBfs-] found
Submit result: nvdH2AiTAGnYg2MdGrdRQ19LBfs- has been confirmed
Track | CTDB Status
1 | (8/8) Accurately ripped
2 | (8/8) Accurately ripped
3 | (8/8) Accurately ripped
4 | (8/8) Accurately ripped
5 | (8/8) Accurately ripped
6 | (8/8) Accurately ripped
7 | (8/8) Accurately ripped
8 | (8/8) Accurately ripped
9 | (8/8) Accurately ripped
10 | (8/8) Accurately ripped
11 | (8/8) Accurately ripped


==== Log checksum BA2BFDF2252843461C0B3CD6FD965F3EC7A515ABC25540D3F047ACD0B681FD46 ====


Eric Burdon & The Animals - When I Was Young (2020) [5CD Box Set]

Tracklist CD3 - 1968 Everyone Of Us:

Uppers And Downers
03 Serenade To A Sweet Lady
04 The Immigrant Lad
05 Year Of The Guru
06 St. James Infirmary
07 New York 1963 - America 1968
Bonus Track
08 White Houses (Single Version)

Exact Audio Copy V1.3 from 2. September 2016

EAC extraction logfile from 19. March 2020, 16:23

Eric Burdon & The Animals / Every One Of Us

Used drive : PLEXTOR BD-R PX-B950SA Adapter: 1 ID: 1

Read mode : Secure
Utilize accurate stream : Yes
Defeat audio cache : Yes
Make use of C2 pointers : No

Read offset correction : 6
Overread into Lead-In and Lead-Out : No
Fill up missing offset samples with silence : Yes
Delete leading and trailing silent blocks : No
Null samples used in CRC calculations : Yes
Used interface : Native Win32 interface for Win NT & 2000

Used output format : Internal WAV Routines
Sample format : 44.100 Hz; 16 Bit; Stereo


TOC of the extracted CD

Track | Start | Length | Start sector | End sector
––––––––––––––––––––––––––––-
1 | 0:00.00 | 3:46.46 | 0 | 16995
2 | 3:46.46 | 0:24.46 | 16996 | 18841
3 | 4:11.17 | 6:13.66 | 18842 | 46882
4 | 10:25.08 | 6:13.33 | 46883 | 74890
5 | 16:38.41 | 5:24.13 | 74891 | 99203
6 | 22:02.54 | 5:03.12 | 99204 | 121940
7 | 27:05.66 | 18:53.66 | 121941 | 206981
8 | 45:59.57 | 3:05.13 | 206982 | 220869


Range status and errors

Selected range

Filename C:\Users\Alex\Desktop\ALLexxess\The Animals\2020 When I Was Young (5CD Box Set Esoteric Records)\CD3 1968 Everyone Of Us\Eric Burdon & The Animals - Every One Of Us.wav

Peak level 98.8 %
Extraction speed 6.9 X
Range quality 100.0 %
Test CRC 13B36D79
Copy CRC 13B36D79
Copy OK

No errors occurred


AccurateRip summary

Track 1 not present in database
Track 2 not present in database
Track 3 not present in database
Track 4 not present in database
Track 5 not present in database
Track 6 not present in database
Track 7 not present in database
Track 8 not present in database

None of the tracks are present in the AccurateRip database

End of status report

–– CUETools DB Plugin V2.1.6

[CTDB TOCID: CP3g7U6ll77ah6pqsd1l96OsOjo-] found
Submit result: CP3g7U6ll77ah6pqsd1l96OsOjo- has been confirmed
Track | CTDB Status
1 | (8/8) Accurately ripped
2 | (8/8) Accurately ripped
3 | (8/8) Accurately ripped
4 | (8/8) Accurately ripped
5 | (8/8) Accurately ripped
6 | (8/8) Accurately ripped
7 | (8/8) Accurately ripped
8 | (8/8) Accurately ripped


==== Log checksum DFFBACE62FD2FE2B0293DB1A4CF32BA8D720513B94974F16B2CDDFB15689C0BE ====


Eric Burdon & The Animals - When I Was Young (2020) [5CD Box Set]

Tracklist CD4 - 1968 Love Is:

01 River Deep, Mountain High
02 I'm An Animal
03 I'm Dying, Or Am I?
04 Ring Of Fire
05 Coloured Rain
06 To Love Somebody
07 As The Years Go Passing By
08 Gemini
09 The Madman (Running Through The Fields)
Bonus Track
10 River Deep, Mountain High (Single Version)

Exact Audio Copy V1.3 from 2. September 2016

EAC extraction logfile from 18. March 2020, 21:08

Eric Burdon & The Animals / Love Is

Used drive : Optiarc DVD RW AD-7280S Adapter: 1 ID: 0

Read mode : Secure
Utilize accurate stream : Yes
Defeat audio cache : Yes
Make use of C2 pointers : No

Read offset correction : 48
Overread into Lead-In and Lead-Out : No
Fill up missing offset samples with silence : Yes
Delete leading and trailing silent blocks : No
Null samples used in CRC calculations : Yes
Used interface : Native Win32 interface for Win NT & 2000

Used output format : Internal WAV Routines
Sample format : 44.100 Hz; 16 Bit; Stereo


TOC of the extracted CD

Track | Start | Length | Start sector | End sector
––––––––––––––––––––––––––––-
1 | 0:00.04 | 7:23.51 | 4 | 33279
2 | 7:23.55 | 5:33.65 | 33280 | 58319
3 | 12:57.45 | 4:29.17 | 58320 | 78511
4 | 17:26.62 | 5:00.31 | 78512 | 101042
5 | 22:27.18 | 9:30.40 | 101043 | 143832
6 | 31:57.58 | 6:54.33 | 143833 | 174915
7 | 38:52.16 | 10:11.23 | 174916 | 220763
8 | 49:03.39 | 11:08.10 | 220764 | 270873
9 | 60:11.49 | 6:11.30 | 270874 | 298728
10 | 66:23.04 | 7:31.12 | 298729 | 332565


Range status and errors

Selected range

Filename C:\Users\Alex\Desktop\ALLexxess\The Animals\2020 When I Was Young (5CD Box Set Esoteric Records)\CD4 1968 Love Is\Eric Burdon & The Animals - Love Is.wav

Peak level 98.8 %
Extraction speed 4.4 X
Range quality 99.9 %
Test CRC 6596E0B5
Copy CRC 6596E0B5
Copy OK

No errors occurred


AccurateRip summary

Track 1 not present in database
Track 2 not present in database
Track 3 not present in database
Track 4 not present in database
Track 5 not present in database
Track 6 not present in database
Track 7 not present in database
Track 8 not present in database
Track 9 not present in database
Track 10 not present in database

None of the tracks are present in the AccurateRip database

End of status report

–– CUETools DB Plugin V2.1.6

[CTDB TOCID: Io3T5vkYpmQaOkxnBacK.j4NS4Q-] found
Submit result: Io3T5vkYpmQaOkxnBacK.j4NS4Q- has been confirmed
Track | CTDB Status
1 | (7/7) Accurately ripped
2 | (7/7) Accurately ripped
3 | (7/7) Accurately ripped
4 | (7/7) Accurately ripped
5 | (7/7) Accurately ripped
6 | (7/7) Accurately ripped
7 | (7/7) Accurately ripped
8 | (7/7) Accurately ripped
9 | (7/7) Accurately ripped
10 | (6/7) Accurately ripped


==== Log checksum FC85E596368DA4DC3A6FB6F104CB965C9D7A4CFAFF641BCA73553DDFC0C7D3B8 ====


Eric Burdon & The Animals - When I Was Young (2020) [5CD Box Set]

Tracklist CD5 - 1967 Wind Of Change Mono:

01 Winds Of Change
02 Poem By The Sea
03 Paint It Black
04 The Black Plague
05 Yes, I Am Experienced
06 San Francisco Nights
07 Man - Woman
08 Hotel Hell
09 Good Times
10 Anything
11 It's All Meat

Exact Audio Copy V1.3 from 2. September 2016

EAC extraction logfile from 16. March 2020, 18:29

Eric Burdon & The Animals / Winds Of Change (Mono)

Used drive : PLEXTOR BD-R PX-B950SA Adapter: 1 ID: 1

Read mode : Secure
Utilize accurate stream : Yes
Defeat audio cache : Yes
Make use of C2 pointers : No

Read offset correction : 6
Overread into Lead-In and Lead-Out : No
Fill up missing offset samples with silence : Yes
Delete leading and trailing silent blocks : No
Null samples used in CRC calculations : Yes
Used interface : Native Win32 interface for Win NT & 2000

Used output format : Internal WAV Routines
Sample format : 44.100 Hz; 16 Bit; Stereo


TOC of the extracted CD

Track | Start | Length | Start sector | End sector
––––––––––––––––––––––––––––-
1 | 0:00.00 | 3:57.32 | 0 | 17806
2 | 3:57.32 | 2:10.16 | 17807 | 27572
3 | 6:07.48 | 5:54.35 | 27573 | 54157
4 | 12:02.08 | 6:00.39 | 54158 | 81196
5 | 18:02.47 | 3:50.33 | 81197 | 98479
6 | 21:53.05 | 3:18.31 | 98480 | 113360
7 | 25:11.36 | 5:21.71 | 113361 | 137506
8 | 30:33.32 | 4:44.37 | 137507 | 158843
9 | 35:17.69 | 3:03.62 | 158844 | 172630
10 | 38:21.56 | 3:26.04 | 172631 | 188084
11 | 41:47.60 | 2:05.34 | 188085 | 197493


Range status and errors

Selected range

Filename C:\Users\Alex\Desktop\ALLexxess\The Animals\2020 When I Was Young (5CD Box Set Esoteric Records)\CD5 1967 Wind Of Change (Mono)\Eric Burdon & The Animals - Winds Of Change (Mono).wav

Peak level 98.8 %
Extraction speed 6.7 X
Range quality 100.0 %
Test CRC 84EB1B11
Copy CRC 84EB1B11
Copy OK

No errors occurred


AccurateRip summary

Track 1 not present in database
Track 2 not present in database
Track 3 not present in database
Track 4 not present in database
Track 5 not present in database
Track 6 not present in database
Track 7 not present in database
Track 8 not present in database
Track 9 not present in database
Track 10 not present in database
Track 11 not present in database

None of the tracks are present in the AccurateRip database

End of status report

–– CUETools DB Plugin V2.1.6

[CTDB TOCID: Czd9_9akJlYPJshynnykFFhgCD8-] found
Submit result: Czd9_9akJlYPJshynnykFFhgCD8- has been confirmed
Track | CTDB Status
1 | (7/7) Accurately ripped
2 | (7/7) Accurately ripped
3 | (7/7) Accurately ripped
4 | (7/7) Accurately ripped
5 | (7/7) Accurately ripped
6 | (7/7) Accurately ripped
7 | (7/7) Accurately ripped
8 | (7/7) Accurately ripped
9 | (7/7) Accurately ripped
10 | (7/7) Accurately ripped
11 | (7/7) Accurately ripped


==== Log checksum 03142DA627E0141C823C5A6ECBB027856066FE9221522E12624E290F128DD11E ====


Eric Burdon & The Animals - When I Was Young (2020) [5CD Box Set]

All thanks go to ALLexxess

Eric Burdon in my Blog

Download Eric Burdon & The Animals - When I Was Young (2020):