Subcategories

Eric Clapton - Complete Clapton (2007)

Posted By: popsakov
Eric Clapton - Complete Clapton (2007)

Eric Clapton - Complete Clapton (2007)
2CD | EAC Rip | FLAC (Img) + Cue + Log ~ 1,1 Gb | MP3 CBR320 ~ 400 Mb
Full Scans | RAR 5% Recovery
Classic Rock, Blues, Blues Rock | Polydor #1746193

Complete Clapton is a greatest hits collection by British rock musician Eric Clapton, released on 9 October 2007 to accompany Clapton's official autobiography. An exclusive edition sold through Barnes & Noble bookstores in the United States included a bonus compact disc with four additional tracks. As with The Rolling Stones' Forty Licks, each disc has been compiled by different record companies: disc one, virtually identical to The Cream of Clapton by Polydor, and disc two by Warner Bros. Records. Clapton helped to promote the album by being interviewed by Matt Lauer on the Today Show in 2007. The compilation debuted at number 14 on the U.S. Billboard 200. It also peaked at number two on the British albums chart, compiled by the Official Charts Company.

Disregard the title of this 2007 compilation: there is no way that any double-disc, 36-track set could be called The Complete Clapton, not when Eric Clapton has had a career that's spanned over four decades. This doesn't even attempt to cover as much ground as his landmark four-disc 1988 box set Crossroads, which began with his first band the Yardbirds and then followed his winding journeys through John Mayall's Bluesbreakers, Cream, Blind Faith, Delaney & Bonnie, and Derek & the Dominos before settling into his solo records. Of course, The Complete Clapton covers the nearly 20 years that have elapsed since the release of Crossroads, a time frame which includes the blockbuster success of his 1992 Unplugged, its all-blues 1994 follow-up From the Cradle, and many soft adult contemporary hits from the late '90s. All these phases are touched upon on The Complete Clapton, but the set lops off all of Clapton's earliest recordings, beginning with five Cream staples ("I Feel Free," "Sunshine of Your Love," "White Room," "Crossroads," "Badge") and Blind Faith's "Presence of the Lord" before delving into his solo career. This turns The Complete Clapton into a portrait of Clapton the classic rocker, as it focuses almost entirely on radio staples – including tracks like "I've Got a Rock & Roll Heart," "Forever Man," and "It's in the Way That You Use It" that didn't make the cut on Crossroads – that still are played frequently years after their original release. As such, this set doesn't pack many surprises, but it does hit the obvious highlights well and serves as a good hits package for the casual and curious fan, and in that sense, it works as a good companion piece to Clapton's autobiography, which was published the same week this was released in October 2007.

~ Stephen Thomas Erlewine, All Music

***************

Track List CD1:

01. Cream / I Feel Free (1966) [0:02:54.52]
02. Cream / Sunshine of Your Love (1967) [0:04:11.70]
03. Cream / White Room (1968) [0:04:59.25]
04. Cream / Crossroads (Cross Road Blues) [Live at Winterland] (1968) [0:04:08.24]
05. Cream / Badge (1969) [0:02:42.56]
06. Blind Faith / Presence of the Lord (1969) [0:04:49.18]
07. After Midnight (1970) [0:03:08.67]
08. Let It Rain (1970) [0:05:06.55]
09. Derek & The Dominos / Bell Bottom Blues (1970) [0:05:01.70]
10. Derek & The Dominos / Layla (1970) [0:07:09.39]
11. Let It Grow (1974) [0:04:57.13]
12. I Shot the Sheriff (1974) [0:04:22.39]
13. Knockin' On Heaven's Door (1975) [0:04:24.23]
14. Hello, Old Friend (1976) [0:03:34.57]
15. Cocaine (1977) [0:03:35.46]
16. Lay Down, Sally (1977) [0:03:49.66]
17. Wonderful Tonight (1977) [0:03:41.36]
18. Promises (1978) [0:02:59.68]
19. I Can't Stand It (1981) [0:04:08.31]

Exact Audio Copy V1.3 from 2. September 2016

EAC extraction logfile from 4. May 2019, 20:19

Eric Clapton / Complete Clapton (CD1)

Used drive : PIONEER DVD-RW DVR-220L Adapter: 1 ID: 0

Read mode : Secure
Utilize accurate stream : Yes
Defeat audio cache : Yes
Make use of C2 pointers : No

Read offset correction : 6
Overread into Lead-In and Lead-Out : No
Fill up missing offset samples with silence : Yes
Delete leading and trailing silent blocks : No
Null samples used in CRC calculations : Yes
Used interface : Installed external ASPI interface

Used output format : User Defined Encoder
Selected bitrate : 1024 kBit/s
Quality : High
Add ID3 tag : No
Command line compressor : C:\Program Files (x86)\Exact Audio Copy\Flac\flac.exe
Additional command line options : -6 -V -T "ARTIST=%artist%" -T "TITLE=%title%" -T "ALBUM=%albumtitle%" -T "DATE=%year%" -T "TRACKNUMBER=%tracknr%" -T "GENRE=%genre%" -T "COMMENT=%comment%" -T "BAND=%albuminterpret%" -T "ALBUMARTIST=%albuminterpret%" -T "COMPOSER=%composer%" %haslyrics%–tag-from-file=LYRICS="%lyricsfile%"%haslyrics% -T "DISCNUMBER=%cdnumber%" -T "TOTALDISCS=%totalcds%" -T "TOTALTRACKS=%numtracks%" %hascover%–picture="%coverfile%"%hascover% %source% -o %dest%


TOC of the extracted CD

Track | Start | Length | Start sector | End sector
––––––––––––––––––––––––––––-
1 | 0:00.00 | 2:54.52 | 0 | 13101
2 | 2:54.52 | 4:11.70 | 13102 | 31996
3 | 7:06.47 | 4:59.25 | 31997 | 54446
4 | 12:05.72 | 4:08.24 | 54447 | 73070
5 | 16:14.21 | 2:42.56 | 73071 | 85276
6 | 18:57.02 | 4:49.18 | 85277 | 106969
7 | 23:46.20 | 3:08.67 | 106970 | 121136
8 | 26:55.12 | 5:06.55 | 121137 | 144141
9 | 32:01.67 | 5:01.70 | 144142 | 166786
10 | 37:03.62 | 7:09.39 | 166787 | 199000
11 | 44:13.26 | 4:57.13 | 199001 | 221288
12 | 49:10.39 | 4:22.39 | 221289 | 240977
13 | 53:33.03 | 4:24.23 | 240978 | 260800
14 | 57:57.26 | 3:34.57 | 260801 | 276907
15 | 61:32.08 | 3:35.46 | 276908 | 293078
16 | 65:07.54 | 3:49.66 | 293079 | 310319
17 | 68:57.45 | 3:41.36 | 310320 | 326930
18 | 72:39.06 | 2:59.68 | 326931 | 340423
19 | 75:38.74 | 4:08.31 | 340424 | 359054


Range status and errors

Selected range

Filename C:\mm\Eric Clapton\2007 - Complete Clapton {2xCD}[1746193]\Eric Clapton - Complete Clapton (CD1).wav

Peak level 98.8 %
Extraction speed 8.7 X
Range quality 100.0 %
Test CRC ADF5BA85
Copy CRC ADF5BA85
Copy OK

No errors occurred


AccurateRip summary

Track 1 accurately ripped (confidence 78) [299FA6E8] (AR v2)
Track 2 accurately ripped (confidence 79) [8C156BFB] (AR v2)
Track 3 accurately ripped (confidence 77) [F93F0E02] (AR v2)
Track 4 accurately ripped (confidence 77) [D7A85B6C] (AR v2)
Track 5 accurately ripped (confidence 76) [71927400] (AR v2)
Track 6 accurately ripped (confidence 76) [E2271419] (AR v2)
Track 7 accurately ripped (confidence 78) [D9CC9161] (AR v2)
Track 8 accurately ripped (confidence 75) [16580709] (AR v2)
Track 9 accurately ripped (confidence 74) [BEF7EA3F] (AR v2)
Track 10 accurately ripped (confidence 77) [3A13F9ED] (AR v2)
Track 11 accurately ripped (confidence 74) [B4017A80] (AR v2)
Track 12 accurately ripped (confidence 77) [932022A5] (AR v2)
Track 13 accurately ripped (confidence 75) [FEBF1743] (AR v2)
Track 14 accurately ripped (confidence 75) [47ACCC52] (AR v2)
Track 15 accurately ripped (confidence 75) [AFC709F8] (AR v2)
Track 16 accurately ripped (confidence 75) [E91453E8] (AR v2)
Track 17 accurately ripped (confidence 75) [C89B74EF] (AR v2)
Track 18 accurately ripped (confidence 75) [44137172] (AR v2)
Track 19 accurately ripped (confidence 73) [E2440AD3] (AR v2)

All tracks accurately ripped

End of status report

Track List CD2:

01. I've Got A Rock 'N' Roll Heart (1983) [0:03:16.31]
02. She's Waiting (1985) [0:04:56.48]
03. Forever Man (1985) [0:03:14.46]
04. It's In The Way That You Use It (1986) [0:04:13.39]
05. Miss You (1986) [0:05:07.49]
06. Pretending (1989) [0:04:43.21]
07. Bad Love (1989) [0:05:08.56]
08. Tears In Heaven (1992) [0:04:35.18]
09. Layla [Unplugged] (1992) [0:04:39.05]
10. Running On Faith [Unplugged] (1992) [0:06:12.54]
11. Motherless Child (1994) [0:02:59.22]
12. Change The World (1996) [0:03:56.20]
13. My Father's Eyes (1998) [0:05:24.61]
14. Eric Clapton with B.B. King / Riding With The King (2000) [0:04:25.08]
15. Sweet Home Chicago (2004) [0:05:17.24]
16. If I Had Possession Over Judgement Day (2004) [0:03:27.65]
17. Eric Clapton with J.J. Cale / Ride The River (2006) [0:04:35.39]

Exact Audio Copy V1.3 from 2. September 2016

EAC extraction logfile from 4. May 2019, 22:30

Eric Clapton / Complete Clapton (CD2)

Used drive : PIONEER DVD-RW DVR-220L Adapter: 1 ID: 0

Read mode : Secure
Utilize accurate stream : Yes
Defeat audio cache : Yes
Make use of C2 pointers : No

Read offset correction : 6
Overread into Lead-In and Lead-Out : No
Fill up missing offset samples with silence : Yes
Delete leading and trailing silent blocks : No
Null samples used in CRC calculations : Yes
Used interface : Installed external ASPI interface

Used output format : User Defined Encoder
Selected bitrate : 1024 kBit/s
Quality : High
Add ID3 tag : No
Command line compressor : C:\Program Files (x86)\Exact Audio Copy\Flac\flac.exe
Additional command line options : -6 -V -T "ARTIST=%artist%" -T "TITLE=%title%" -T "ALBUM=%albumtitle%" -T "DATE=%year%" -T "TRACKNUMBER=%tracknr%" -T "GENRE=%genre%" -T "COMMENT=%comment%" -T "BAND=%albuminterpret%" -T "ALBUMARTIST=%albuminterpret%" -T "COMPOSER=%composer%" %haslyrics%–tag-from-file=LYRICS="%lyricsfile%"%haslyrics% -T "DISCNUMBER=%cdnumber%" -T "TOTALDISCS=%totalcds%" -T "TOTALTRACKS=%numtracks%" %hascover%–picture="%coverfile%"%hascover% %source% -o %dest%


TOC of the extracted CD

Track | Start | Length | Start sector | End sector
––––––––––––––––––––––––––––-
1 | 0:00.00 | 3:16.31 | 0 | 14730
2 | 3:16.31 | 4:56.48 | 14731 | 36978
3 | 8:13.04 | 3:14.46 | 36979 | 51574
4 | 11:27.50 | 4:13.39 | 51575 | 70588
5 | 15:41.14 | 5:07.49 | 70589 | 93662
6 | 20:48.63 | 4:43.21 | 93663 | 114908
7 | 25:32.09 | 5:08.56 | 114909 | 138064
8 | 30:40.65 | 4:35.18 | 138065 | 158707
9 | 35:16.08 | 4:39.05 | 158708 | 179637
10 | 39:55.13 | 6:12.54 | 179638 | 207591
11 | 46:07.67 | 2:59.22 | 207592 | 221038
12 | 49:07.14 | 3:56.20 | 221039 | 238758
13 | 53:03.34 | 5:24.61 | 238759 | 263119
14 | 58:28.20 | 4:25.08 | 263120 | 283002
15 | 62:53.28 | 5:17.24 | 283003 | 306801
16 | 68:10.52 | 3:27.65 | 306802 | 322391
17 | 71:38.42 | 4:35.39 | 322392 | 343055


Range status and errors

Selected range

Filename C:\mm\Eric Clapton\2007 - Complete Clapton {2xCD}[1746193]\Eric Clapton - Complete Clapton (CD2).wav

Peak level 100.0 %
Extraction speed 8.5 X
Range quality 100.0 %
Test CRC 5051D241
Copy CRC 5051D241
Copy OK

No errors occurred


AccurateRip summary

Track 1 accurately ripped (confidence 75) [70312716] (AR v2)
Track 2 accurately ripped (confidence 75) [BF54F5C4] (AR v2)
Track 3 accurately ripped (confidence 72) [6FA70C9E] (AR v2)
Track 4 accurately ripped (confidence 75) [C92FB192] (AR v2)
Track 5 accurately ripped (confidence 73) [118B2C90] (AR v2)
Track 6 accurately ripped (confidence 72) [189C0FE2] (AR v2)
Track 7 accurately ripped (confidence 74) [6F04D9F7] (AR v2)
Track 8 accurately ripped (confidence 74) [B6156D82] (AR v2)
Track 9 accurately ripped (confidence 74) [C4FCEAE4] (AR v2)
Track 10 accurately ripped (confidence 73) [5C7330B6] (AR v2)
Track 11 accurately ripped (confidence 71) [40995F1B] (AR v2)
Track 12 accurately ripped (confidence 70) [DFD6996E] (AR v2)
Track 13 accurately ripped (confidence 72) [6AD924A7] (AR v2)
Track 14 accurately ripped (confidence 73) [60F84D6C] (AR v2)
Track 15 accurately ripped (confidence 72) [0312C7A4] (AR v2)
Track 16 accurately ripped (confidence 71) [A78BEDA1] (AR v2)
Track 17 accurately ripped (confidence 74) [C5894F8D] (AR v2)

All tracks accurately ripped

End of status report

Eric Clapton - Complete Clapton (2007)

All thanks go to sergych

>>> Eric Clapton in my Blog <<<

Download from icerbox.com: