Subcategories

Eric Clapton - E.C. Was Here (1975)

Posted By: v3122
Eric Clapton - E.C. Was Here (1975)

Eric Clapton - E.C. Was Here (1975)
EAC | Flac(Image) + Cue + Log & MP3 CBR 320Kbps
1996 | PolyGram, 31453 1823-2 | ~ 243 or 113 Mb | Covers
Blues Rock / Classic Rock

Following Eric Clapton's recovery from heroin addition in 1974 and subsequent comeback (announced by 461 Ocean Boulevard), the guitar legend retained his fine band and toured extensively, and this live album is a souvenir of that period. Despite having such pop-oriented hits as "I Shot the Sheriff," E.C. Was Here makes it clear that Clapton was and always would be a blues man. The opening cut, "Have You Ever Loved a Woman," clearly illustrates this, and underlines the fact that Clapton had a firm grasp on his blues guitar ability, with some sterling, emotionally charged and sustained lines and riffs. A short version of "Drifting Blues" also drives the point home, with a lazy, Delta blues feel that is intoxicating. Aside from these standout blues workouts, Clapton provides a surprise with two songs from his Blind Faith period. "Presence of the Lord" and Steve Winwood's classic "Can't Find My Way Home" are given great readings here and highlight Clapton's fine touring band, particularly co-vocalist Yvonne Elliman, whose singing adds a mellifluousness to Clapton's blues vocal inflections. The market was a bit oversaturated with Clapton and Cream reissue products at the time, and this fine record got lost in the shuffle, but it remains an excellent document of the period.

by Matthew Greenwald, allmusic
Eric Clapton - E.C. Was Here (1975)


Eric Clapton - E.C. Was Here (1975):

Eric Clapton - E.C. Was Here (1975)

Tracklist:

01. Have You Ever Loved A Woman [07:52]
02. Presence Of The Lord [06:42]
03. Drifting Blues [11:32]
04. Can't Find My Way Home [05:18]
05. Rambling On My Mind [07:29]
06. Further On Up The Road [07:40]

Exact Audio Copy V0.99 prebeta 5 from 4. May 2009

EAC extraction logfile from 11. February 2015, 1:00

ERIC CLAPTON / E.C. Was Here ( 31453 1823-2 )

Used drive : ASUS DRW-24B3ST Adapter: 1 ID: 0

Read mode : Secure
Utilize accurate stream : Yes
Defeat audio cache : Yes
Make use of C2 pointers : No

Read offset correction : 6
Overread into Lead-In and Lead-Out : No
Fill up missing offset samples with silence : Yes
Delete leading and trailing silent blocks : No
Null samples used in CRC calculations : Yes
Used interface : Native Win32 interface for Win NT & 2000

Used output format : User Defined Encoder
Selected bitrate : 1024 kBit/s
Quality : High
Add ID3 tag : No
Command line compressor : C:\Program Files (x86)\EAC\WV\wavpack.exe
Additional command line options : -h -hh -m %s %d


TOC of the extracted CD

Track | Start | Length | Start sector | End sector
––––––––––––––––––––––––––––-
1 | 0:00.33 | 7:52.57 | 33 | 35489
2 | 7:53.15 | 6:42.65 | 35490 | 65704
3 | 14:36.05 | 11:32.13 | 65705 | 117617
4 | 26:08.18 | 5:18.22 | 117618 | 141489
5 | 31:26.40 | 7:29.53 | 141490 | 175217
6 | 38:56.18 | 7:40.67 | 175218 | 209784


Range status and errors

Selected range

Filename W:\ERIC CLAPTON\ERIC CLAPTON - E.C. Was Here (1975) (US 1996 PolyGram International Music B.V. • 31453 1823-2)\ERIC CLAPTON - E.C. Was Here ( 31453 1823-2 ).wav

Peak level 100.0 %
Range quality 99.8 %
Test CRC DCEC6A11
Copy CRC DCEC6A11
Copy OK

No errors occurred


AccurateRip summary

Track 1 accurately ripped (confidence 41) [20168290]
Track 2 accurately ripped (confidence 40) [0CE83E19]
Track 3 accurately ripped (confidence 39) [6965FEAA]
Track 4 accurately ripped (confidence 40) [64D1B921]
Track 5 accurately ripped (confidence 39) [DF086FE9]
Track 6 accurately ripped (confidence 41) [3349AC77]

All tracks accurately ripped

End of status report

foobar2000 1.2.9 / Dynamic Range Meter 1.1.1
log date: 2016-11-29 20:36:38

––––––––––––––––––––––––––––––––––––––––
Analyzed: ERIC CLAPTON / E.C. Was Here ( 31453 1823-2 )
––––––––––––––––––––––––––––––––––––––––

DR Peak RMS Duration Track
––––––––––––––––––––––––––––––––––––––––
DR13 -0.64 dB -19.91 dB 7:53 01-Have You Ever Loved A Woman
DR12 -0.50 dB -17.77 dB 6:43 02-Presence Of The Lord
DR14 0.00 dB -18.67 dB 11:32 03-Drifting Blues
DR12 -2.21 dB -20.51 dB 5:18 04-Can't Find My Way Home
DR12 -1.57 dB -17.82 dB 7:30 05-Rambling On My Mind
DR13 -1.85 dB -17.28 dB 7:41 06-Further On Up The Road
––––––––––––––––––––––––––––––––––––––––

Number of tracks: 6
Official DR value: DR13

Samplerate: 44100 Hz
Channels: 2
Bits per sample: 16
Bitrate: 698 kbps
Codec: FLAC

[CUETools log; Date: 29.11.2016 20:36:25; Version: 2.1.4]
Pregap length 00:00:33.
[CTDB TOCID: sndLrabiaYWsNia9FREXPhrMXMk-] found.
Track | CTDB Status
1 | (49/50) Accurately ripped
2 | (49/50) Accurately ripped
3 | (49/50) Accurately ripped
4 | (49/50) Accurately ripped
5 | (47/50) Accurately ripped
6 | (49/50) Accurately ripped
[AccurateRip ID: 000b5f7b-003c839d-5f0aed06] found.
Track [ CRC | V2 ] Status
01 [20168290|72782ed7] (41+47/91) Accurately ripped
02 [0ce83e19|d3228205] (40+47/90) Accurately ripped
03 [6965feaa|4c6bff62] (39+47/89) Accurately ripped
04 [64d1b921|a03b8399] (40+47/90) Accurately ripped
05 [df086fe9|085ff4ba] (39+46/88) Accurately ripped
06 [3349ac77|c8f72dad] (41+44/88) Accurately ripped
Offsetted by -905:
01 [a1018fe6] (03/91) Accurately ripped
02 [105c84fe] (03/90) Accurately ripped
03 [58248880] (03/89) Accurately ripped
04 [7a7add0e] (03/90) Accurately ripped
05 [c5eb16b2] (03/88) Accurately ripped
06 [fe8c4f7a] (03/88) Accurately ripped
Offsetted by -92:
01 [1fc72bf9] (00/91) No match (V2 was not tested)
02 [3eb16f69] (00/90) No match (V2 was not tested)
03 [0984b6d4] (00/89) No match (V2 was not tested)
04 [b88d0051] (00/90) No match (V2 was not tested)
05 [6294c34e] (00/88) No match (V2 was not tested)
06 [41494afb] (00/88) No match (V2 was not tested)

Track Peak [ CRC32 ] [W/O NULL] [ LOG ]
– 100,0 [DCEC6A11] [3BA0AFB8] CRC32
01 92,9 [26EE0BC9] [48B48BE4]
02 94,3 [2C01B531] [DB41ECC5]
03 100,0 [E815CF69] [A271CEB6]
04 77,5 [CA2F8662] [24ECDC2F]
05 83,4 [0AEF5369] [B047ED35]
06 80,7 [96BE4281] [A43EB0F0]

Eric Clapton - E.C. Was Here (1975)

All thanks go to the original releaser

Eric Clapton in my Blog

Download Eric Clapton - E.C. Was Here (1975):