Subcategories

Eric Clapton & Guests - Crossroads Revisited (2016) {3CD Box Set}

Posted By: popsakov
Eric Clapton & Guests - Crossroads Revisited (2016) {3CD Box Set}

Eric Clapton & Guests - Crossroads Revisited (2016) {3CD Box Set}
EAC Rip | FLAC (Img) + Cue + Log ~ 1,59 Gb | MP3 CBR320 ~ 559 Mb
Covers Included | RAR 5% Recovery
Blues, Rock, Country | Rhino #081227950675

Nearly four hours of live performances from Eric Clapton's acclaimed Crossroads Guitar Festival are coming to CD for the first time. This 3 disc collection feature 41 tracks of landmark performances from all four Crossroads Guitar Festivals, which were held in 2004, 2007, 2010 and 2013. Founded in 2004 by the legendary guitarist, the Crossroads Guitar Festival has given fans an opportunity to witness truly historic performances by some of the world's greatest guitarists. While fans have been able to relive those magical moments thanks to a series of successful DVD and Blu-ray compilations, only a few of those performances have made their way to CD. A veritable "Who's Who" of guitar music can be heard on this set, including Clapton, Jeff Beck, Gary Clark Jr., Robert Cray, Billy F Gibbons, Vince Gill, Buddy Guy, B.B. King, John Mayer, Carlos Santana, Joe Walsh, Ronnie Wood, and Jimmie Vaughn, just to name a few. Naturally, the all-star jams deliver some of the collection s most unforgettable moments. Held every three years since 2004, the Crossroads Guitar Festival raises funds for the Crossroads Centre in Antigua, a treatment and education facility that Clapton founded in 1998 to help people suffering from chemical dependency.

Eric Clapton instituted the Crossroads Guitar Festival in 1999 as a way to raise funds for his Crossroads Centre Antigua, a rehab facility he founded in 1998. Over the next 14 years, the Crossroads Guitar Festival became a semi-regular thing, always featuring a Slowhand-curated crop of guitarists. Barring the 1999 fest, each of these years – 2004, 2007, 2010, and 2013 – were recorded and released as CDs and DVDs, which makes the 2016 triple-disc Crossroads Revisited: Selections from the Crossroads Guitar Festivals a sampler of these particular records. Although Jeff Beck relies heavily on his 1989 album Jeff Beck's Guitar Shop, there are no surprises either in artists or song selections, although the execution can occasionally take a left turn; ZZ Top's heavy, churning "Waiting for the Bus/Jesus Just Left Chicago" is entirely instrumental. Time has shifted the tenor of some of the selections, too: B.B. King, Hubert Sumlin, and J.J. Cale have all passed since their appearances at Crossroads, so their presence carries some poignancy. Generally, though, this is big, bright shiny stadium guitar music, a proud showcase for chops whose interest relies entirely on how much the listener likes blues-based rock guitar solos. There are some exceptions to this rule – Sheryl Crow was here to sing country songs in 2010, while 2004 saw Vince Gill and Jerry Douglas stop by and Joe Walsh playing "Steam Roller" with James Taylor, but this is a place where John Mayer and Gary Clark, Jr. are the new guns – although this festival was designed so that Albert Lee, Derek Trucks, Robert Cray, Beck, and Clapton himself could stretch out, which they do repeatedly. Not necessarily performances for the ages but solid all the same.

~ Stephen Thomas Erlewine, All Music

***************

Eric Clapton & Guests - Crossroads Revisited (2016) {3CD Box Set}

Track List CD1:

01. Eric Clapton, Robert Cray, Buddy Guy, Hubert Sumlin & Jimmie Vaughan - Sweet Home Chicago [05:26]
02. Eric Clapton, Buddy Guy, B.B. King & Jimmie Vaughan - Rock Me Baby [06:10]
03. James Taylor - Steamroller [04:53]
04. Vince Gill - What The Cowgirls Do [05:36]
05. J.J. Cale - After Midnight [04:44]
06. Doyle Bramhall II - Green Light Girl [05:20]
07. Sonny Landreth - Hell At Home [05:21]
08. John Mayer - City Love [04:56]
09. Joe Walsh - Funk #49 [03:28]
10. Carlos Santana - Drums Of Passion [07:38]
11. Jeff Beck - Cause We've Ended As Lovers [03:55]
12. Eric Clapton - Have You Ever Loved A Woman [13:48]
13. Eric Clapton - Layla [06:04]

Exact Audio Copy V1.1 from 23. June 2015

EAC extraction logfile from 1. July 2016, 17:57

Eric Clapton and Guests / Crossroads Revisted (CD1)

Used drive : HL-DT-STDVDRAM GH24NSD1 Adapter: 0 ID: 0

Read mode : Secure
Utilize accurate stream : Yes
Defeat audio cache : Yes
Make use of C2 pointers : No

Read offset correction : 6
Overread into Lead-In and Lead-Out : No
Fill up missing offset samples with silence : Yes
Delete leading and trailing silent blocks : No
Null samples used in CRC calculations : Yes
Used interface : Installed external ASPI interface

Used output format : Internal WAV Routines
Sample format : 44.100 Hz; 16 Bit; Stereo


TOC of the extracted CD

Track | Start | Length | Start sector | End sector
––––––––––––––––––––––––––––-
1 | 0:00.00 | 5:25.52 | 0 | 24426
2 | 5:25.52 | 6:09.56 | 24427 | 52157
3 | 11:35.33 | 4:52.51 | 52158 | 74108
4 | 16:28.09 | 5:35.24 | 74109 | 99257
5 | 22:03.33 | 4:43.45 | 99258 | 120527
6 | 26:47.03 | 5:19.54 | 120528 | 144506
7 | 32:06.57 | 5:20.51 | 144507 | 168557
8 | 37:27.33 | 4:55.37 | 168558 | 190719
9 | 42:22.70 | 3:27.43 | 190720 | 206287
10 | 45:50.38 | 7:37.39 | 206288 | 240601
11 | 53:28.02 | 3:54.50 | 240602 | 258201
12 | 57:22.52 | 13:47.34 | 258202 | 320260
13 | 71:10.11 | 6:03.33 | 320261 | 347518


Range status and errors

Selected range

Filename H:\SPOTNET\Clapton & Guests - Crossroads Revisted (EAC)\CD1\Eric Clapton and Guests - Crossroads Revisted (CD1).wav

Peak level 97.0 %
Extraction speed 8.6 X
Range quality 100.0 %
Test CRC 09015625
Copy CRC 09015625
Copy OK

No errors occurred


AccurateRip summary

Track 1 not present in database
Track 2 not present in database
Track 3 not present in database
Track 4 not present in database
Track 5 not present in database
Track 6 not present in database
Track 7 not present in database
Track 8 not present in database
Track 9 not present in database
Track 10 not present in database
Track 11 not present in database
Track 12 not present in database
Track 13 not present in database

None of the tracks are present in the AccurateRip database

End of status report

[CUETools log; Date: 27.09.2019 13:35:39; Version: 2.1.6]
[CTDB TOCID: Lb7UsYIgtl_ai69rGNp77mWv8v0-] found.
Track | CTDB Status
1 | (530/532) Accurately ripped
2 | (517/532) Accurately ripped
3 | (517/532) Accurately ripped
4 | (516/532) Accurately ripped
5 | (516/532) Accurately ripped
6 | (515/532) Accurately ripped
7 | (516/532) Accurately ripped
8 | (516/532) Accurately ripped
9 | (517/532) Accurately ripped
10 | (513/532) Accurately ripped
11 | (513/532) Accurately ripped
12 | (511/532) Accurately ripped
13 | (508/532) Accurately ripped
[AccurateRip ID: 002249e1-01595f3d-b912190d] found.
Track [ CRC | V2 ] Status
01 [a3932c65|f21921c4] (005+125/149) Accurately ripped
02 [efaab05d|2610b60c] (005+124/148) Accurately ripped
03 [123414fc|651f0e0e] (005+126/150) Accurately ripped
04 [d8b45b3b|1bdd1ab9] (005+124/148) Accurately ripped
05 [7e500744|ca7b2f44] (005+126/150) Accurately ripped
06 [d65baec9|17a8962c] (005+125/149) Accurately ripped
07 [8702a495|2b7bbcee] (005+126/150) Accurately ripped
08 [82b0541e|8c777004] (005+125/149) Accurately ripped
09 [37a2dd6e|ca70312e] (005+126/150) Accurately ripped
10 [7b1efb76|cbaf1e03] (005+124/148) Accurately ripped
11 [412cd1bb|6f0c398c] (005+126/150) Accurately ripped
12 [805b4d83|60e55c53] (005+121/145) Accurately ripped
13 [e2bc3263|e5efdde6] (004+119/142) Accurately ripped
Offsetted by -12:
01 [63ce6151] (000/149) No match (V2 was not tested)
02 [ca0d2718] (000/148) No match (V2 was not tested)
03 [6cac4198] (000/150) No match (V2 was not tested)
04 [b6b35999] (000/148) No match (V2 was not tested)
05 [1306cd20] (000/150) No match (V2 was not tested)
06 [83607a74] (000/149) No match (V2 was not tested)
07 [8ef4177e] (000/150) No match (V2 was not tested)
08 [37964c96] (000/149) No match (V2 was not tested)
09 [b8bb7969] (000/150) No match (V2 was not tested)
10 [7dc24bcf] (000/148) No match (V2 was not tested)
11 [c82e13a7] (000/150) No match (V2 was not tested)
12 [02bb609c] (000/145) No match (V2 was not tested)
13 [37e5cb60] (000/142) No match (V2 was not tested)
Offsetted by -6:
01 [adaf5139] (000/149) No match (V2 was not tested)
02 [267d413d] (000/148) No match (V2 was not tested)
03 [5ac01fae] (000/150) No match (V2 was not tested)
04 [d7b42b33] (000/148) No match (V2 was not tested)
05 [1b11d879] (000/150) No match (V2 was not tested)
06 [5f3b7366] (000/149) No match (V2 was not tested)
07 [c1b9249a] (000/150) No match (V2 was not tested)
08 [f0eb1bf6] (000/149) No match (V2 was not tested)
09 [d202d36f] (000/150) No match (V2 was not tested)
10 [212375b6] (000/148) No match (V2 was not tested)
11 [9ddb9381] (000/150) No match (V2 was not tested)
12 [0f3afc41] (000/145) No match (V2 was not tested)
13 [6f2fbd2f] (000/142) No match (V2 was not tested)

Track Peak [ CRC32 ] [W/O NULL] [ LOG ]
– 97,0 [09015625] [AB02C113] CRC32
01 97,0 [254A23D1] [C21ADD21]
02 96,3 [999B8A84] [415009B1]
03 95,8 [9332B917] [7C950D09]
04 95,5 [F106744A] [218F8B3E]
05 94,5 [F169FFE7] [B2DA2691]
06 95,5 [502B96F9] [7D80220E]
07 96,1 [1056284B] [CFA5992C]
08 95,9 [2DE237B1] [B1B2C4A0]
09 95,8 [BED20CCF] [EBB4D98E]
10 96,3 [22535E0E] [F251ED1E]
11 81,3 [D8801B53] [82B751DC]
12 96,0 [321DB473] [11177665]
13 95,5 [122DB040] [F9920C88]

Eric Clapton & Guests - Crossroads Revisited (2016) {3CD Box Set}

Track List CD2:

01. Susan Tedeschi - Little By Little [05:22]
02. The Robert Cray Band - Poor Johnny [05:54]
03. B. B. King - Paying The Cost To Be The Boss [04:02]
04. Sheryl Crow - Tulsa Time [03:45]
05. Willie Nelson - On The Road Again [02:13]
06. Eric Clapton - Isn't It A Pity [06:02]
07. John Mayer - Belief [05:58]
08. Los Lobos - Mas Y Mas [05:57]
09. Jeff Beck - Big Block [05:24]
10. Steve Winwood and Eric Clapton - Presence Of The Lord [05:18]
11. Eric Clapton - Cocaine [05:06]
12. ZZ Top - Waiting For The Bus/Jesus Just Left Chicago [07:22]
13. Gary Clark Jr. - Don't Owe You A Thing [03:44]
14. Gary Clark Jr. - Bright Lights [07:25]

Exact Audio Copy V1.1 from 23. June 2015

EAC extraction logfile from 1. July 2016, 18:31

Eric Clapton and Guests / Crossroads Revisited (CD2)

Used drive : HL-DT-STDVDRAM GH24NSD1 Adapter: 0 ID: 0

Read mode : Secure
Utilize accurate stream : Yes
Defeat audio cache : Yes
Make use of C2 pointers : No

Read offset correction : 6
Overread into Lead-In and Lead-Out : No
Fill up missing offset samples with silence : Yes
Delete leading and trailing silent blocks : No
Null samples used in CRC calculations : Yes
Used interface : Installed external ASPI interface

Used output format : Internal WAV Routines
Sample format : 44.100 Hz; 16 Bit; Stereo


TOC of the extracted CD

Track | Start | Length | Start sector | End sector
––––––––––––––––––––––––––––-
1 | 0:00.00 | 5:21.31 | 0 | 24105
2 | 5:21.31 | 5:53.51 | 24106 | 50631
3 | 11:15.07 | 4:01.28 | 50632 | 68734
4 | 15:16.35 | 3:44.20 | 68735 | 85554
5 | 19:00.55 | 2:12.43 | 85555 | 95497
6 | 21:13.23 | 6:01.35 | 95498 | 122607
7 | 27:14.58 | 5:57.46 | 122608 | 149428
8 | 33:12.29 | 5:56.30 | 149429 | 176158
9 | 39:08.59 | 5:23.42 | 176159 | 200425
10 | 44:32.26 | 5:17.62 | 200426 | 224262
11 | 49:50.13 | 5:05.37 | 224263 | 247174
12 | 54:55.50 | 7:21.36 | 247175 | 280285
13 | 62:17.11 | 3:43.16 | 280286 | 297026
14 | 66:00.27 | 7:24.23 | 297027 | 330349


Range status and errors

Selected range

Filename H:\SPOTNET\Clapton & Guests - Crossroads Revisted (EAC)\CD2\Eric Clapton and Guests - Crossroads Revisited (CD2).wav

Peak level 98.8 %
Extraction speed 5.2 X
Range quality 99.9 %
Test CRC C81B4EF1
Copy CRC C81B4EF1
Copy OK

No errors occurred


AccurateRip summary

Track 1 not present in database
Track 2 not present in database
Track 3 not present in database
Track 4 not present in database
Track 5 not present in database
Track 6 not present in database
Track 7 not present in database
Track 8 not present in database
Track 9 not present in database
Track 10 not present in database
Track 11 not present in database
Track 12 not present in database
Track 13 not present in database
Track 14 not present in database

None of the tracks are present in the AccurateRip database

End of status report

[CUETools log; Date: 27.09.2019 13:36:53; Version: 2.1.6]
[CTDB TOCID: KuLAMc3fjjpk.6ebEANN7.Pz.yk-] found.
Track | CTDB Status
1 | (489/511) Accurately ripped, or (10/511) differs in 12 samples @05:21:30-05:21:31, or (3/511) differs in 2 samples @02:25:74
2 | (498/511) Accurately ripped, or (10/511) differs in 1176 samples @00:00:00,05:53:50-05:53:51
3 | (499/511) Accurately ripped, or (10/511) differs in 1175 samples @00:00:00,04:01:27-04:01:28
4 | (498/511) Accurately ripped, or (10/511) differs in 1175 samples @00:00:00,03:44:19-03:44:20
5 | (499/511) Accurately ripped, or (10/511) differs in 1176 samples @00:00:00,02:12:42-02:12:43
6 | (497/511) Accurately ripped, or (10/511) differs in 1176 samples @00:00:00,06:01:34-06:01:35
7 | (498/511) Accurately ripped, or (10/511) differs in 1176 samples @00:00:00,05:57:45-05:57:46
8 | (499/511) Accurately ripped, or (10/511) differs in 1176 samples @00:00:00,05:56:29-05:56:30
9 | (499/511) Accurately ripped, or (10/511) differs in 1176 samples @00:00:00,05:23:41-05:23:42
10 | (498/511) Accurately ripped, or (10/511) differs in 1175 samples @00:00:00,05:17:61-05:17:62
11 | (496/511) Accurately ripped, or (10/511) differs in 1176 samples @00:00:00,05:05:36-05:05:37
12 | (496/511) Accurately ripped, or (10/511) differs in 1176 samples @00:00:00,07:21:35-07:21:36
13 | (494/511) Accurately ripped, or (10/511) differs in 1175 samples @00:00:00,03:43:15-03:43:16
14 | (481/511) Accurately ripped, or (10/511) differs in 1164 samples @00:00:00
[AccurateRip ID: 0023e479-0182315a-e011340e] found.
Track [ CRC | V2 ] Status
01 [705bfd37|5f3bec5f] (004+127/149) Accurately ripped
02 [aa176607|bf22961e] (004+130/152) Accurately ripped
03 [6f27782b|cf30d8e9] (004+130/152) Accurately ripped
04 [fa0747e4|87441ff1] (004+129/151) Accurately ripped
05 [20b4147e|eef22661] (004+130/152) Accurately ripped
06 [6f6a5e96|fa2d55c5] (004+130/152) Accurately ripped
07 [126fff72|3c018c7b] (004+129/151) Accurately ripped
08 [5e495766|d91c6186] (004+130/152) Accurately ripped
09 [c089427c|a45ce01f] (004+131/153) Accurately ripped
10 [72d2cfba|4d19b4a4] (004+131/153) Accurately ripped
11 [b21d73a7|b4cea206] (004+130/152) Accurately ripped
12 [36e9e7c9|9c83bb46] (004+128/150) Accurately ripped
13 [ae903163|aef5d45a] (004+129/151) Accurately ripped
14 [5960eab5|e8278de6] (003+123/144) Accurately ripped
Offsetted by -12:
01 [33fc986f] (000/149) No match (V2 was not tested)
02 [493c14ec] (000/152) No match (V2 was not tested)
03 [98ae4f3c] (000/152) No match (V2 was not tested)
04 [4d984ccf] (000/151) No match (V2 was not tested)
05 [70831214] (000/152) No match (V2 was not tested)
06 [44de18c3] (000/152) No match (V2 was not tested)
07 [02b42f3c] (000/151) No match (V2 was not tested)
08 [1f97bdcd] (000/152) No match (V2 was not tested)
09 [25ed77b4] (000/153) No match (V2 was not tested)
10 [f8ef5184] (000/153) No match (V2 was not tested)
11 [52dd2bfd] (000/152) No match (V2 was not tested)
12 [75fb5fc0] (000/150) No match (V2 was not tested)
13 [e4819f9d] (000/151) No match (V2 was not tested)
14 [55c6183e] (000/144) No match (V2 was not tested)
Offsetted by -6:
01 [77cc074c] (000/149) No match (V2 was not tested)
02 [68cb516e] (000/152) No match (V2 was not tested)
03 [40d1376a] (000/152) No match (V2 was not tested)
04 [04408547] (000/151) No match (V2 was not tested)
05 [1f8e610d] (000/152) No match (V2 was not tested)
06 [b5f4f20c] (000/152) No match (V2 was not tested)
07 [2016255e] (000/151) No match (V2 was not tested)
08 [22d3f2b7] (000/152) No match (V2 was not tested)
09 [25dab651] (000/153) No match (V2 was not tested)
10 [1777cac5] (000/153) No match (V2 was not tested)
11 [ff6a23c9] (000/152) No match (V2 was not tested)
12 [895de276] (000/150) No match (V2 was not tested)
13 [f2668572] (000/151) No match (V2 was not tested)
14 [bad96940] (000/144) No match (V2 was not tested)

Track Peak [ CRC32 ] [W/O NULL] [ LOG ]
– 98,8 [C81B4EF1] [51B5307B] CRC32
01 96,9 [37ABEF3D] [358CB7AF]
02 95,4 [642F00DA] [B26A06B4]
03 97,0 [107CE0D8] [149AD195]
04 95,1 [4C5DE628] [68468F57]
05 96,4 [EC29A302] [BF18D522]
06 97,9 [98531DEF] [F1F80E4E]
07 97,2 [8C1E177B] [3BAE0EBD]
08 96,7 [EC373D71] [289EF926]
09 98,8 [00A85280] [8614836E]
10 96,3 [C5D4E676] [EF588FC8]
11 97,1 [2BAD5729] [3325FF76]
12 95,5 [B610EFDC] [02486BFC]
13 96,8 [8B3F95E1] [5CC8398D]
14 95,2 [C21C5F72] [E334EBCF]

Eric Clapton & Guests - Crossroads Revisited (2016) {3CD Box Set}

Track List CD3:

01. Sheryl Crow - Our Love Is Fading [06:37]
02. Vince Gill - Lay Down Sally [05:11]
03. Derek Trucks & Susan Tedeschi Band - Space Captain [05:35]
04. Jeff Beck - Hammerhead [04:37]
05. Buddy Guy - Five Long Years [06:38]
06. Doyle Bramhall II - Hear My Train A Comin' [03:24]
07. Steve Winwood and Eric Clapton - Dear Mr. Fantasy [07:09]
08. Booker T. - Born Under A Bad Sign [05:11]
09. The Robert Cray Band - Everyday I Have The Blues [04:38]
10. Gary Clark Jr. - Please Come Home [06:34]
11. Vince Gill - Tumbling Dice [05:11]
12. Eric Clapton - I Shot The Sherrif [08:26]
13. Eric Clapton - Crossroads [04:52]

Exact Audio Copy V1.1 from 23. June 2015

EAC extraction logfile from 1. July 2016, 18:52

Eric Clapton and Guests / Crossroads Revisited (CD3)

Used drive : HL-DT-STDVDRAM GH24NSD1 Adapter: 0 ID: 0

Read mode : Secure
Utilize accurate stream : Yes
Defeat audio cache : Yes
Make use of C2 pointers : No

Read offset correction : 6
Overread into Lead-In and Lead-Out : No
Fill up missing offset samples with silence : Yes
Delete leading and trailing silent blocks : No
Null samples used in CRC calculations : Yes
Used interface : Installed external ASPI interface

Used output format : Internal WAV Routines
Sample format : 44.100 Hz; 16 Bit; Stereo


TOC of the extracted CD

Track | Start | Length | Start sector | End sector
––––––––––––––––––––––––––––-
1 | 0:00.00 | 6:36.72 | 0 | 29771
2 | 6:36.72 | 5:10.62 | 29772 | 53083
3 | 11:47.59 | 5:34.56 | 53084 | 78189
4 | 17:22.40 | 4:36.38 | 78190 | 98927
5 | 21:59.03 | 6:37.26 | 98928 | 128728
6 | 28:36.29 | 3:23.19 | 128729 | 143972
7 | 31:59.48 | 7:08.32 | 143973 | 176104
8 | 39:08.05 | 5:10.17 | 176105 | 199371
9 | 44:18.22 | 4:37.04 | 199372 | 220150
10 | 48:55.26 | 6:33.27 | 220151 | 249652
11 | 55:28.53 | 5:10.65 | 249653 | 272967
12 | 60:39.43 | 8:25.17 | 272968 | 310859
13 | 69:04.60 | 4:51.28 | 310860 | 332712


Range status and errors

Selected range

Filename H:\SPOTNET\Clapton & Guests - Crossroads Revisted (EAC)\CD3\Eric Clapton and Guests - Crossroads Revisited (CD3).wav

Peak level 99.3 %
Extraction speed 8.4 X
Range quality 99.9 %
Test CRC CC14AA6C
Copy CRC CC14AA6C
Copy OK

No errors occurred


AccurateRip summary

Track 1 not present in database
Track 2 not present in database
Track 3 not present in database
Track 4 not present in database
Track 5 not present in database
Track 6 not present in database
Track 7 not present in database
Track 8 not present in database
Track 9 not present in database
Track 10 not present in database
Track 11 not present in database
Track 12 not present in database
Track 13 not present in database

None of the tracks are present in the AccurateRip database

End of status report

[CUETools log; Date: 27.09.2019 13:38:39; Version: 2.1.6]
[CTDB TOCID: L83ZssSL5NIESkiZasDEtKeNUWk-] found.
Track | CTDB Status
1 | (514/524) Accurately ripped, or (10/524) differs in 12 samples @06:36:71-06:36:72
2 | (513/524) Accurately ripped, or (10/524) differs in 1176 samples @00:00:00,05:10:61-05:10:62
3 | (513/524) Accurately ripped, or (10/524) differs in 1176 samples @00:00:00,05:34:55-05:34:56
4 | (513/524) Accurately ripped, or (10/524) differs in 1176 samples @00:00:00,04:36:37-04:36:38
5 | (512/524) Accurately ripped, or (10/524) differs in 1176 samples @00:00:00,06:37:25-06:37:26
6 | (513/524) Accurately ripped, or (10/524) differs in 1176 samples @00:00:00,03:23:18-03:23:19
7 | (513/524) Accurately ripped, or (10/524) differs in 1176 samples @00:00:00,07:08:31-07:08:32
8 | (513/524) Accurately ripped, or (10/524) differs in 1176 samples @00:00:00,05:10:16-05:10:17
9 | (511/524) Accurately ripped, or (10/524) differs in 1176 samples @00:00:00,04:37:03-04:37:04
10 | (513/524) Accurately ripped, or (10/524) differs in 1176 samples @00:00:00,06:33:26-06:33:27
11 | (512/524) Accurately ripped, or (10/524) differs in 1176 samples @00:00:00,05:10:64-05:10:65
12 | (511/524) Accurately ripped, or (10/524) differs in 1176 samples @00:00:00,08:25:16-08:25:17
13 | (500/524) Accurately ripped, or (10/524) differs in 1164 samples @00:00:00
[AccurateRip ID: 002302e2-015dea49-a711540d] found.
Track [ CRC | V2 ] Status
01 [0a82d5f9|e4e8b457] (004+128/149) Accurately ripped
02 [5e8b2304|171a5587] (004+128/149) Accurately ripped
03 [8e4e6f61|23422cf6] (004+128/149) Accurately ripped
04 [bc1d0134|4ada445a] (004+129/150) Accurately ripped
05 [e8171747|c5b2b8ae] (004+128/149) Accurately ripped
06 [044e1c5b|71a84bf0] (004+128/149) Accurately ripped
07 [58452ef0|9a7eba8f] (004+128/149) Accurately ripped
08 [4916ad1b|09e0106a] (004+128/149) Accurately ripped
09 [18db02cd|9f2e9c61] (004+126/147) Accurately ripped
10 [deddb5a7|6a974239] (004+128/149) Accurately ripped
11 [bd6d05ec|bbbf2dfd] (004+128/149) Accurately ripped
12 [c4003a13|cc93d3c8] (004+129/150) Accurately ripped
13 [730306d2|2c8fcd51] (003+123/143) Accurately ripped
Offsetted by -12:
01 [05b67f39] (000/149) No match (V2 was not tested)
02 [2d45417a] (000/149) No match (V2 was not tested)
03 [f85a3e78] (000/149) No match (V2 was not tested)
04 [af3d3702] (000/150) No match (V2 was not tested)
05 [32ca67a9] (000/149) No match (V2 was not tested)
06 [31143043] (000/149) No match (V2 was not tested)
07 [cedce046] (000/149) No match (V2 was not tested)
08 [10ca3668] (000/149) No match (V2 was not tested)
09 [4c1c804b] (000/147) No match (V2 was not tested)
10 [9fbf8c94] (000/149) No match (V2 was not tested)
11 [430dfd62] (000/149) No match (V2 was not tested)
12 [bcc09049] (000/150) No match (V2 was not tested)
13 [6a55ec03] (000/143) No match (V2 was not tested)
Offsetted by -6:
01 [919a0def] (000/149) No match (V2 was not tested)
02 [b7503f48] (000/149) No match (V2 was not tested)
03 [5ef12d5c] (000/149) No match (V2 was not tested)
04 [419eb6e5] (000/150) No match (V2 was not tested)
05 [ecb965be] (000/149) No match (V2 was not tested)
06 [a28c1bbb] (000/149) No match (V2 was not tested)
07 [92b0110f] (000/149) No match (V2 was not tested)
08 [7ced05fe] (000/149) No match (V2 was not tested)
09 [608e1191] (000/147) No match (V2 was not tested)
10 [63489bfc] (000/149) No match (V2 was not tested)
11 [0bb36873] (000/149) No match (V2 was not tested)
12 [52609ddf] (000/150) No match (V2 was not tested)
13 [115775b3] (000/143) No match (V2 was not tested)

Track Peak [ CRC32 ] [W/O NULL] [ LOG ]
– 99,3 [CC14AA6C] [5534C569] CRC32
01 96,2 [496E7ED3] [B63359D5]
02 95,6 [36C3DB32] [10EAD850]
03 96,1 [B23D34D2] [3BF6A2D7]
04 95,7 [714223A8] [D3280F93]
05 95,3 [F0F79124] [469AA196]
06 79,2 [A96C59BA] [53A56145]
07 95,8 [C7A8B062] [9C3AA309]
08 99,3 [BFBC1B78] [A4A1FF49]
09 95,1 [9CB5CD63] [7962984E]
10 94,8 [5A562BFE] [C6E43159]
11 95,0 [27E729CA] [DAB31038]
12 96,5 [7C630BB2] [7B78736A]
13 97,5 [CC005C9E] [970FC767]

Eric Clapton & Guests - Crossroads Revisited (2016) {3CD Box Set}


All thanks go to the original ripper(s) …

>>> Eric Clapton in my Blog <<<

DOWNLOAD: