Subcategories

Eric Clapton - Journeyman (1989) [ Audio Fidelity, AFZ 180]

Posted By: v3122
Eric Clapton - Journeyman (1989) [ Audio Fidelity, AFZ 180]

Eric Clapton - Journeyman (1989)
EAC | Flac(Image) + Cue + Log & MP3 CBR 320Kbps
2014 | Audio Fidelity, AFZ 180 | ~ 345 or 135 Mb | Scans(jpg) -> 93 Mb
Blues Rock / Classic Rock

For most of the '80s, Eric Clapton seemed rather lost, uncertain of whether he should return to his blues roots or pander to AOR radio. By the mid-'80s, he appeared to have made the decision to revamp himself as a glossy mainstream rocker, working with synthesizers and drum machines. Instead of expanding his audience, it only reduced it. Then came the career retrospective Crossroads, which helped revitalize his career, not only commercially, but also creatively, as Journeyman – the first album he recorded after the success of Crossroads – proved. Although Journeyman still suffers from an overly slick production, Clapton sounds more convincing than he has since the early '70s. Not only is his guitar playing muscular and forceful, his singing is soulful and gritty. Furthermore, the songwriting is consistently strong, alternating between fine mainstream rock originals ("Pretending") and covers ("Before You Accuse Me," "Hound Dog"). Like any of Clapton's best albums, there is no grandstanding to be found on Journeyman – it's simply a laid-back and thoroughly engaging display of Clapton's virtuosity. On the whole, it's the best studio album he's released since Slowhand.

by Stephen Thomas Erlewine, allmusic
Eric Clapton - Journeyman (1989) [ Audio Fidelity, AFZ 180]


Eric Clapton - Journeyman (1989):

Eric Clapton - Journeyman (1989) [ Audio Fidelity, AFZ 180]

Tracklist:

01. Pretending [04:45]
02. Anything For Your Love [04:12]
03. Bad Love [05:15]
04. Running On Faith [05:33]
05. Hard Times [03:14]
06. Hound Dog [02:30]
07. No Alibis [05:39]
08. Run So Far [04:08]
09. Old Love [06:24]
10. Breaking Point [05:32]
11. Lead Me On [05:52]
12. Before You Accuse Me [03:57]

Exact Audio Copy V0.99 prebeta 5 from 4. May 2009

EAC extraction logfile from 10. February 2015, 14:48

ERIC CLAPTON / Journeyman ( AFZ 180 )

Used drive : ASUS DRW-24B3ST Adapter: 0 ID: 0

Read mode : Secure
Utilize accurate stream : Yes
Defeat audio cache : Yes
Make use of C2 pointers : No

Read offset correction : 6
Overread into Lead-In and Lead-Out : No
Fill up missing offset samples with silence : Yes
Delete leading and trailing silent blocks : No
Null samples used in CRC calculations : Yes
Used interface : Native Win32 interface for Win NT & 2000

Used output format : User Defined Encoder
Selected bitrate : 1024 kBit/s
Quality : High
Add ID3 tag : No
Command line compressor : C:\Program Files (x86)\EAC\WV\wavpack.exe
Additional command line options : -h -hh -m %s %d


TOC of the extracted CD

Track | Start | Length | Start sector | End sector
––––––––––––––––––––––––––––-
1 | 0:00.00 | 4:45.42 | 0 | 21416
2 | 4:45.42 | 4:12.73 | 21417 | 40389
3 | 8:58.40 | 5:15.41 | 40390 | 64055
4 | 14:14.06 | 5:33.64 | 64056 | 89094
5 | 19:47.70 | 3:14.26 | 89095 | 103670
6 | 23:02.21 | 2:30.55 | 103671 | 114975
7 | 25:33.01 | 5:39.39 | 114976 | 140439
8 | 31:12.40 | 4:08.55 | 140440 | 159094
9 | 35:21.20 | 6:24.70 | 159095 | 187964
10 | 41:46.15 | 5:32.61 | 187965 | 212925
11 | 47:19.01 | 5:52.12 | 212926 | 239337
12 | 53:11.13 | 3:57.52 | 239338 | 257164


Range status and errors

Selected range

Filename W:\ERIC CLAPTON\ERIC CLAPTON - Journeyman (1989) (AT SACD 2014 Audio Fidelity Records Inc. • AFZ 180)\ERIC CLAPTON - Journeyman ( AFZ 180 ).wav

Peak level 96.6 %
Range quality 100.0 %
Test CRC 7804F54A
Copy CRC 7804F54A
Copy OK

No errors occurred


AccurateRip summary

Track 1 cannot be verified as accurate (confidence 25) [C133D096], AccurateRip returned [4E873412]
Track 2 cannot be verified as accurate (confidence 25) [95D4CCC9], AccurateRip returned [C10C8D55]
Track 3 cannot be verified as accurate (confidence 25) [09E8BD28], AccurateRip returned [EC545CD6]
Track 4 cannot be verified as accurate (confidence 25) [2579E9B5], AccurateRip returned [9C6F8613]
Track 5 cannot be verified as accurate (confidence 25) [3FF2A1C3], AccurateRip returned [2E493D1E]
Track 6 cannot be verified as accurate (confidence 25) [FCFB8623], AccurateRip returned [0D149D12]
Track 7 cannot be verified as accurate (confidence 25) [C1E7EDA5], AccurateRip returned [2259FF54]
Track 8 cannot be verified as accurate (confidence 25) [759B1626], AccurateRip returned [16F7CCB2]
Track 9 cannot be verified as accurate (confidence 25) [5AD203E8], AccurateRip returned [89759B96]
Track 10 cannot be verified as accurate (confidence 25) [65910454], AccurateRip returned [8E1F9B77]
Track 11 cannot be verified as accurate (confidence 25) [56620667], AccurateRip returned [631E2543]
Track 12 cannot be verified as accurate (confidence 25) [2EC93FB7], AccurateRip returned [0B04A0DB]

No tracks could be verified as accurate
You may have a different pressing from the one(s) in the database

End of status report

foobar2000 1.2.9 / Dynamic Range Meter 1.1.1
log date: 2016-12-13 23:08:25

––––––––––––––––––––––––––––––––––––––––
Analyzed: ERIC CLAPTON / Journeyman ( AFZ 180 )
––––––––––––––––––––––––––––––––––––––––

DR Peak RMS Duration Track
––––––––––––––––––––––––––––––––––––––––
DR15 -0.51 dB -16.99 dB 4:46 01-Pretending
DR13 -0.30 dB -15.71 dB 4:13 02-Anything For Your Love
DR14 -0.78 dB -17.97 dB 5:16 03-Bad Love
DR13 -0.64 dB -17.49 dB 5:34 04-Running On Faith
DR13 -2.08 dB -19.82 dB 3:14 05-Hard Times
DR14 -1.04 dB -17.65 dB 2:31 06-Hound Dog
DR13 -1.64 dB -17.30 dB 5:40 07-No Alibis
DR13 -1.66 dB -17.51 dB 4:09 08-Run So Far
DR15 -1.14 dB -20.35 dB 6:25 09-Old Love
DR15 -1.77 dB -18.38 dB 5:33 10-Breaking Point
DR14 -0.70 dB -19.11 dB 5:52 11-Lead Me On
DR15 -0.30 dB -16.62 dB 3:58 12-Before You Accuse Me
––––––––––––––––––––––––––––––––––––––––

Number of tracks: 12
Official DR value: DR14

Samplerate: 44100 Hz
Channels: 2
Bits per sample: 16
Bitrate: 795 kbps
Codec: FLAC

[CUETools log; Date: 13.12.2016 23:08:15; Version: 2.1.4]
[CTDB TOCID: rL8CCsMS0LDonI0wwZ18nrCVj2g-] found.
Track | CTDB Status
1 | (22/22) Accurately ripped
2 | (22/22) Accurately ripped
3 | (22/22) Accurately ripped
4 | (22/22) Accurately ripped
5 | (22/22) Accurately ripped
6 | (22/22) Accurately ripped
7 | (22/22) Accurately ripped
8 | (22/22) Accurately ripped
9 | (22/22) Accurately ripped
10 | (22/22) Accurately ripped
11 | (22/22) Accurately ripped
12 | (22/22) Accurately ripped
[AccurateRip ID: 0018e146-00e93aee-aa0d640c] found.
Track [ CRC | V2 ] Status
01 [c133d096|4e873412] (00+31/31) Accurately ripped
02 [95d4ccc9|c10c8d55] (00+31/31) Accurately ripped
03 [09e8bd28|ec545cd6] (00+31/31) Accurately ripped
04 [2579e9b5|9c6f8613] (00+31/31) Accurately ripped
05 [3ff2a1c3|2e493d1e] (00+31/31) Accurately ripped
06 [fcfb8623|0d149d12] (00+31/31) Accurately ripped
07 [c1e7eda5|2259ff54] (00+31/31) Accurately ripped
08 [759b1626|16f7ccb2] (00+31/31) Accurately ripped
09 [5ad203e8|89759b96] (00+31/31) Accurately ripped
10 [65910454|8e1f9b77] (00+31/31) Accurately ripped
11 [56620667|631e2543] (00+31/31) Accurately ripped
12 [2ec93fb7|0b04a0db] (00+31/31) Accurately ripped

Track Peak [ CRC32 ] [W/O NULL] [ LOG ]
– 96,6 [7804F54A] [43154D08] CRC32
01 94,3 [1418F557] [A466989D]
02 96,6 [FFDE4FD6] [E2BAC146]
03 91,4 [0C5DA7DE] [E11D71D0]
04 92,9 [06237C55] [E67A98A9]
05 78,7 [1CA9ADEC] [A5C73D1D]
06 88,7 [CE2DAF00] [5B6060F9]
07 82,7 [7402DBEB] [A8D2154B]
08 82,6 [9F8E0297] [CA028344]
09 87,6 [A51B2815] [F319FA4E]
10 81,5 [2EAFA8CC] [EAE65B9B]
11 92,3 [4BE58328] [911E7E5E]
12 96,6 [2D7D4B12] [06D4E839]

Eric Clapton - Journeyman (1989) [ Audio Fidelity, AFZ 180]

All thanks go to the original releaser

Eric Clapton in my Blog

Download Eric Clapton - Journeyman (1989):