Subcategories

Eric Clapton - Journeyman (1989)

Posted By: popsakov
Eric Clapton - Journeyman (1989)

Eric Clapton - Journeyman (1989)
EAC Rip | FLAC (Img) + Cue + Log ~ 360 Mb | MP3 CBR320 ~ 137 Mb
Scans (JPG, 600 dpi) ~ 46 Mb | RAR 5% Recovery
Blues, Soft Rock, Pop Rock, Classic Rock | Duck Records / Reprise Records #9 26074-2

Journeyman is the eleventh studio album by blues/rock musician Eric Clapton, released in 1989. The album was heralded as a return to form for Clapton, who had struggled with alcohol addiction in the mid-1980s and had recently found sobriety. Much of it has an electronic sound, mostly influenced by the 1980s rock scene, but it also includes blues songs like "Before You Accuse Me," "Running on Faith," and "Hard Times." While the album was only a moderate commercial success at the time, reaching number 16 on the Billboard 200 chart, it went on to become his first solo studio album to go double platinum. This is one of Eric Clapton's favourite albums.
~ Wiki


For most of the '80s, Eric Clapton seemed rather lost, uncertain of whether he should return to his blues roots or pander to AOR radio. By the mid-'80s, he appeared to have made the decision to revamp himself as a glossy mainstream rocker, working with synthesizers and drum machines. Instead of expanding his audience, it only reduced it. Then came the career retrospective Crossroads, which helped revitalize his career, not only commercially, but also creatively, as Journeyman – the first album he recorded after the success of Crossroads – proved. Although Journeyman still suffers from an overly slick production, Clapton sounds more convincing than he has since the early '70s. Not only is his guitar playing muscular and forceful, his singing is soulful and gritty. Furthermore, the songwriting is consistently strong, alternating between fine mainstream rock originals ("Pretending") and covers ("Before You Accuse Me," "Hound Dog"). Like any of Clapton's best albums, there is no grandstanding to be found on Journeyman – it's simply a laid-back and thoroughly engaging display of Clapton's virtuosity. On the whole, it's the best studio album he's released since Slowhand.
~ Stephen Thomas Erlewine, All Music

***************

Eric Clapton - Journeyman (1989)

Track List:

01. Pretending [0:04:44.50]
02. Anything for Your Love [0:04:10.62]
03. Bad Love [0:05:14.28]
04. Running on Faith [0:05:33.67]
05. Hard Times [0:03:14.10]
06. Hound Dog [0:02:27.43]
07. No Alibis [0:05:38.62]
08. Run So Far [0:04:07.45]
09. Old Love [0:06:24.35]
10. Breaking Point [0:05:32.73]
11. Lead Me On [0:05:52.00]
12. Before You Accuse Me [0:03:57.00]

Exact Audio Copy V1.0 beta 3 from 29. August 2011

EAC extraction logfile from 11. February 2014, 11:56

Eric Clapton / Journeyman

Used drive : HL-DT-STDVDRAM GH22NS50 Adapter: 3 ID: 0

Read mode : Secure
Utilize accurate stream : Yes
Defeat audio cache : Yes
Make use of C2 pointers : No

Read offset correction : 667
Overread into Lead-In and Lead-Out : No
Fill up missing offset samples with silence : Yes
Delete leading and trailing silent blocks : No
Null samples used in CRC calculations : Yes
Used interface : Installed external ASPI interface

Used output format : User Defined Encoder
Selected bitrate : 1024 kBit/s
Quality : High
Add ID3 tag : No
Command line compressor : C:\MMProgram\Exact Audio Copy\FLAC\FLAC.EXE
Additional command line options : -6 -V -T "ARTIST=%artist%" -T "TITLE=%title%" -T "ALBUM=%albumtitle%" -T "DATE=%year%" -T "TRACKNUMBER=%tracknr%" -T "GENRE=%genre%" -T "COMMENT=%comment%" -T "BAND=%albuminterpret%" -T "ALBUMARTIST=%albuminterpret%" -T "COMPOSER=%composer%" %haslyrics%–tag-from-file=LYRICS="%lyricsfile%"%haslyrics% -T "DISCNUMBER=%cdnumber%" -T "TOTALDISCS=%totalcds%" -T "TOTALTRACKS=%numtracks%" %hascover%–picture="%coverfile%"%hascover% %source% -o %dest%


TOC of the extracted CD

Track | Start | Length | Start sector | End sector
––––––––––––––––––––––––––––-
1 | 0:00.33 | 4:44.50 | 33 | 21382
2 | 4:45.08 | 4:10.62 | 21383 | 40194
3 | 8:55.70 | 5:14.28 | 40195 | 63772
4 | 14:10.23 | 5:33.67 | 63773 | 88814
5 | 19:44.15 | 3:14.10 | 88815 | 103374
6 | 22:58.25 | 2:27.43 | 103375 | 114442
7 | 25:25.68 | 5:38.62 | 114443 | 139854
8 | 31:04.55 | 4:07.45 | 139855 | 158424
9 | 35:12.25 | 6:24.35 | 158425 | 187259
10 | 41:36.60 | 5:32.73 | 187260 | 212232
11 | 47:09.58 | 5:52.00 | 212233 | 238632
12 | 53:01.58 | 3:57.00 | 238633 | 256407


Range status and errors

Selected range

Filename D:\mm\Eric Clapton\1989 - Journeyman [9 26074-2]\Eric Clapton - Journeyman.wav

Peak level 100.0 %
Extraction speed 1.3 X
Range quality 100.0 %
Test CRC 1C13F7F7
Copy CRC 1C13F7F7
Copy OK

No errors occurred


AccurateRip summary

Track 1 accurately ripped (confidence 80) [5E3D4FB6] (AR v2)
Track 2 accurately ripped (confidence 87) [DD878C99] (AR v2)
Track 3 accurately ripped (confidence 87) [DAD2960C] (AR v2)
Track 4 accurately ripped (confidence 87) [AB710B0C] (AR v2)
Track 5 accurately ripped (confidence 86) [D475AEFE] (AR v2)
Track 6 accurately ripped (confidence 88) [04FFB185] (AR v2)
Track 7 accurately ripped (confidence 85) [58F3193C] (AR v2)
Track 8 accurately ripped (confidence 84) [C6C5C7BD] (AR v2)
Track 9 accurately ripped (confidence 84) [752E989C] (AR v2)
Track 10 accurately ripped (confidence 87) [2764521A] (AR v2)
Track 11 accurately ripped (confidence 81) [D836ECE3] (AR v2)
Track 12 accurately ripped (confidence 83) [988447BE] (AR v2)

All tracks accurately ripped

End of status report

==== Log checksum E6E23B851001A0DA738896AF38F6A9C05CC0DF4BFC2219CFF888AF8224BA5B85 ====

foobar2000 1.2.6 / Dynamic Range Meter 1.1.1
log date: 2016-10-13 11:34:52

––––––––––––––––––––––––––––––––––––––––
Analyzed: Eric Clapton / Journeyman
––––––––––––––––––––––––––––––––––––––––

DR Peak RMS Duration Track
––––––––––––––––––––––––––––––––––––––––
DR14 0.00 dB -15.59 dB 4:45 01-Pretending
DR13 0.00 dB -14.97 dB 4:11 02-Anything for Your Love
DR13 0.00 dB -14.61 dB 5:14 03-Bad Love
DR13 0.00 dB -15.42 dB 5:34 04-Running on Faith
DR13 -1.15 dB -18.40 dB 3:14 05-Hard Times
DR14 0.00 dB -15.40 dB 2:28 06-Hound Dog
DR11 0.00 dB -13.77 dB 5:39 07-No Alibis
DR14 -0.27 dB -16.21 dB 4:08 08-Run So Far
DR14 0.00 dB -16.77 dB 6:24 09-Old Love
DR15 0.00 dB -15.98 dB 5:33 10-Breaking Point
DR14 -1.01 dB -18.27 dB 5:52 11-Lead Me On
DR14 0.00 dB -15.36 dB 3:57 12-Before You Accuse Me
––––––––––––––––––––––––––––––––––––––––

Number of tracks: 12
Official DR value: DR13

Samplerate: 44100 Hz
Channels: 2
Bits per sample: 16
Bitrate: 843 kbps
Codec: FLAC
================================================================================

[CUETools log; Date: 13.10.2016 11:34:59; Version: 2.1.5]
Pregap length 00:00:33.
[CTDB TOCID: _ZM8i3M_viZHayWuYTdJG73HKV4-] found.
Track | CTDB Status
1 | (238/252) Accurately ripped
2 | (242/252) Accurately ripped
3 | (228/252) Accurately ripped
4 | (239/252) Accurately ripped
5 | (240/252) Accurately ripped
6 | (243/252) Accurately ripped
7 | (242/252) Accurately ripped
8 | (242/252) Accurately ripped
9 | (241/252) Accurately ripped
10 | (232/252) Accurately ripped
11 | (227/252) Accurately ripped
12 | (221/252) Accurately ripped
[AccurateRip ID: 0018caff-00e86e76-ad0d5a0c] found.
Track [ CRC | V2 ] Status
01 [e08c476c|5e3d4fb6] (137+125/662) Accurately ripped
02 [e9382a5c|dd878c99] (144+133/676) Accurately ripped
03 [f69437b1|dad2960c] (145+133/673) Accurately ripped
04 [8597b443|ab710b0c] (144+132/668) Accurately ripped
05 [73c1cb68|d475aefe] (140+132/668) Accurately ripped
06 [2e1e335a|04ffb185] (140+134/676) Accurately ripped
07 [1cf1ffae|58f3193c] (140+132/674) Accurately ripped
08 [0241b7c0|c6c5c7bd] (139+132/671) Accurately ripped
09 [893c1d18|752e989c] (138+127/657) Accurately ripped
10 [dea72b92|2764521a] (134+130/653) Accurately ripped
11 [825cfdee|d836ece3] (134+124/635) Accurately ripped
12 [00a1b345|988447be] (132+125/633) Accurately ripped
Offsetted by -268:
01 [f3455e46] (064/662) Accurately ripped
02 [5db05e90] (059/676) Accurately ripped
03 [96a03110] (061/673) Accurately ripped
04 [e035af03] (062/668) Accurately ripped
05 [22efb0ea] (060/668) Accurately ripped
06 [e2b2ce5e] (060/676) Accurately ripped
07 [3a5a747a] (062/674) Accurately ripped
08 [1b5fa10b] (061/671) Accurately ripped
09 [aae48f61] (061/657) Accurately ripped
10 [b84c4cd8] (058/653) Accurately ripped
11 [8b813776] (057/635) Accurately ripped
12 [1c35370c] (055/633) Accurately ripped
Offsetted by 498:
01 [6b9e8419] (039/662) Accurately ripped
02 [a77ddd55] (043/676) Accurately ripped
03 [8bafafae] (042/673) Accurately ripped
04 [1cbbd354] (037/668) Accurately ripped
05 [b5c49056] (040/668) Accurately ripped
06 [711de93b] (041/676) Accurately ripped
07 [57aa0599] (040/674) Accurately ripped
08 [3983d6b1] (042/671) Accurately ripped
09 [29c932f3] (040/657) Accurately ripped
10 [2647a31e] (041/653) Accurately ripped
11 [e1a8c427] (039/635) Accurately ripped
12 [ce3e6e2d] (038/633) Accurately ripped
Offsetted by 1582:
01 [a9588bac] (029/662) Accurately ripped
02 [4ef72da6] (029/676) Accurately ripped
03 [b52e682b] (030/673) Accurately ripped
04 [67791561] (030/668) Accurately ripped
05 [40734258] (028/668) Accurately ripped
06 [268ad0c2] (030/676) Accurately ripped
07 [7c8ac507] (031/674) Accurately ripped
08 [31de7358] (028/671) Accurately ripped
09 [62517765] (029/657) Accurately ripped
10 [a518012c] (029/653) Accurately ripped
11 [04ddf43d] (027/635) Accurately ripped
12 [a87cc199] (029/633) Accurately ripped
Offsetted by 1609:
01 [f0aa0ae3] (061/662) Accurately ripped
02 [4f27495d] (061/676) Accurately ripped
03 [5592ba27] (060/673) Accurately ripped
04 [ee284992] (061/668) Accurately ripped
05 [b9aaa5f9] (063/668) Accurately ripped
06 [63c1ba9e] (064/676) Accurately ripped
07 [df913911] (062/674) Accurately ripped
08 [e9fb9679] (061/671) Accurately ripped
09 [066f8d25] (059/657) Accurately ripped
10 [666584f4] (059/653) Accurately ripped
11 [3ca0d00b] (058/635) Accurately ripped
12 [d9ce4265] (060/633) Accurately ripped
Offsetted by -661:
01 [d6a7980d] (000/662) No match (V2 was not tested)
02 [276e748c] (000/676) No match (V2 was not tested)
03 [5230900e] (000/673) No match (V2 was not tested)
04 [4ea7a506] (000/668) No match (V2 was not tested)
05 [186b67e6] (000/668) No match (V2 was not tested)
06 [5b2d660c] (000/676) No match (V2 was not tested)
07 [87334c45] (000/674) No match (V2 was not tested)
08 [88451854] (000/671) No match (V2 was not tested)
09 [24cec078] (000/657) No match (V2 was not tested)
10 [55c1c6aa] (000/653) No match (V2 was not tested)
11 [616c611c] (000/635) No match (V2 was not tested)
12 [32e042a2] (000/633) No match (V2 was not tested)
Offsetted by 6:
01 [e5171d61] (000/662) No match
02 [4aa990ff] (000/676) No match
03 [9d4422fe] (000/673) No match
04 [bfc16da5] (000/668) No match
05 [ad61c39a] (000/668) No match
06 [1ede521d] (000/676) No match
07 [f171d07d] (000/674) No match
08 [55d1a83d] (000/671) No match (V2 was not tested)
09 [4263d5e1] (002/657) Accurately ripped
10 [67bec6c2] (000/653) No match
11 [e7b377a9] (002/635) Accurately ripped
12 [557e3a05] (000/633) No match
Offsetted by 1358:
01 [76ab9a65] (023/662) Accurately ripped
02 [7dde56d8] (023/676) Accurately ripped
03 [80522d17] (000/673) No match (V2 was not tested)
04 [e1ab522e] (022/668) Accurately ripped
05 [1d287ccd] (021/668) Accurately ripped
06 [92928d8b] (023/676) Accurately ripped
07 [2f4660ad] (022/674) Accurately ripped
08 [1b7a1462] (023/671) Accurately ripped
09 [c8010f4d] (022/657) Accurately ripped
10 [2371f921] (022/653) Accurately ripped
11 [20e8c0ce] (021/635) Accurately ripped
12 [0094e96e] (021/633) Accurately ripped
Offsetted by 2880:
01 [036119ed] (000/662) No match (V2 was not tested)
02 [b28f3b46] (000/676) No match
03 [51826c61] (000/673) No match
04 [8b54858d] (000/668) No match
05 [edc57302] (000/668) No match
06 [d22ec011] (000/676) No match
07 [06447d27] (000/674) No match
08 [82f64a57] (000/671) No match
09 [4110ff43] (000/657) No match
10 [5a751bc3] (000/653) No match
11 [afb69fa7] (000/635) No match
12 [eb9f000f] (000/633) No match (V2 was not tested)

Track Peak [ CRC32 ] [W/O NULL] [ LOG ]
– 99,9 [1C13F7F7] [0E329708] CRC32
01 99,9 [B4A67E69] [0E0F36AD]
02 99,9 [CBECBAAF] [800CFE0C]
03 99,9 [B9C43FB4] [99EFF5BE]
04 99,9 [BEAE055B] [F1DD7A29]
05 87,5 [0B2F576E] [C2F34462]
06 99,9 [1AA07BD4] [71E720C8]
07 99,9 [8C12BD59] [3F6BA2E8]
08 96,9 [BB826B85] [8444BAF7]
09 99,9 [49D0EA5C] [7FB07E74]
10 99,9 [12800712] [71D54C6B]
11 88,9 [6A14F723] [A76D8EBF]
12 99,9 [64AF857C] [EA295E66]

Eric Clapton - Journeyman (1989)

Eric Clapton - Journeyman (1989)

All thanks go to sergych

> Eric Clapton in my blog <

Download: