Subcategories

Eric Clapton - Just One Night (1980) [MFSL, UDCD 608]

Posted By: v3122
Eric Clapton - Just One Night (1980) [MFSL, UDCD 608]

Eric Clapton - Just One Night (1980)
EAC | Flac(Image) + Cue + Log & MP3 CBR 320Kbps
1994 | MFSL, UDCD 608 | ~ 588 or 225 Mb | Scans Included
Blues Rock / Classic Rock

Although Eric Clapton has released a bevy of live albums, none of them have ever quite captured the guitarist's raw energy and dazzling virtuosity. The double live album Just One Night may have gotten closer to that elusive goal than most of its predecessors, but it is still lacking in many ways. The most notable difference between Just One Night and Clapton's other live albums is his backing band. Led by guitarist Albert Lee, the group is a collective of accomplished professionals who have managed to keep some grit in their playing. They help push Clapton along, forcing him to spit out crackling solos throughout the album. However, the performances aren't consistent on Just One Night – there are plenty of dynamic moments like "Double Trouble" and "Rambling on My Mind," but they are weighed down by pedestrian renditions of songs like "All Our Past Times." Nevertheless, more than any other Clapton live album, Just One Night suggests the guitarist's in-concert potential. It's just too bad that the recording didn't occur on a night when he did fulfill all of that potential.

by Stephen Thomas Erlewine, allmusic
Eric Clapton - Just One Night (1980) [MFSL, UDCD 608]


Eric Clapton - Just One Night (1980):

Eric Clapton - Just One Night (1980) [MFSL, UDCD 608]

Tracklist CD1:

01. Tulsa Time [04:00]
02. Early In The Morning [07:11]
03. Lay Down Sally [05:35]
04. Wonderful Tonight [04:42]
05. If I Don't Be There By Morning [04:26]
06. Worried Life Blues [08:28]
07. All Our Past Times [05:00]
08. After Midnight [05:38]

Exact Audio Copy V0.99 prebeta 5 from 4. May 2009

EAC extraction logfile from 13. November 2013, 10:21

ERIC CLAPTON / Just One Night ( UDCD 608-1 )

Used drive : ASUS DRW-24B3ST Adapter: 4 ID: 0

Read mode : Secure
Utilize accurate stream : Yes
Defeat audio cache : Yes
Make use of C2 pointers : No

Read offset correction : 6
Overread into Lead-In and Lead-Out : No
Fill up missing offset samples with silence : Yes
Delete leading and trailing silent blocks : No
Null samples used in CRC calculations : Yes
Used interface : Native Win32 interface for Win NT & 2000

Used output format : User Defined Encoder
Selected bitrate : 1024 kBit/s
Quality : High
Add ID3 tag : No
Command line compressor : C:\Program Files (x86)\EAC\WV\wavpack.exe
Additional command line options : -h -hh -m %s %d


TOC of the extracted CD

Track | Start | Length | Start sector | End sector
––––––––––––––––––––––––––––-
1 | 0:00.00 | 4:00.35 | 0 | 18034
2 | 4:00.35 | 7:11.47 | 18035 | 50406
3 | 11:12.07 | 5:35.18 | 50407 | 75549
4 | 16:47.25 | 4:42.60 | 75550 | 96759
5 | 21:30.10 | 4:26.15 | 96760 | 116724
6 | 25:56.25 | 8:28.67 | 116725 | 154891
7 | 34:25.17 | 5:00.48 | 154892 | 177439
8 | 39:25.65 | 5:38.17 | 177440 | 202806


Range status and errors

Selected range

Filename G:\{MFSL}\ERIC CLAPTON - 1980- Just One Night (US 2 x CD 1994 MFSL • UDCD 608)\ERIC CLAPTON - Just One Night ( UDCD 608-1 ).wav

Peak level 100.0 %
Range quality 100.0 %
Test CRC C45CB1E7
Copy CRC C45CB1E7
Copy OK

No errors occurred


AccurateRip summary

Track 1 accurately ripped (confidence 63) [CFE6F2A1]
Track 2 accurately ripped (confidence 64) [FB77931D]
Track 3 accurately ripped (confidence 62) [8CB83444]
Track 4 accurately ripped (confidence 63) [E5481CC7]
Track 5 accurately ripped (confidence 64) [7BEC1037]
Track 6 accurately ripped (confidence 63) [BB07B033]
Track 7 accurately ripped (confidence 64) [83DDE927]
Track 8 accurately ripped (confidence 63) [951BF420]

All tracks accurately ripped

End of status report


foobar2000 1.2.9 / Dynamic Range Meter 1.1.1
log date: 2016-12-08 19:10:44

––––––––––––––––––––––––––––––––––––––––
Analyzed: ERIC CLAPTON / Just One Night ( UDCD 608-1 )
––––––––––––––––––––––––––––––––––––––––

DR Peak RMS Duration Track
––––––––––––––––––––––––––––––––––––––––
DR11 0.00 dB -14.66 dB 4:00 01-Tulsa Time
DR14 0.00 dB -16.53 dB 7:12 02-Early In The Morning
DR13 -2.60 dB -17.08 dB 5:35 03-Lay Down Sally
DR14 -3.90 dB -19.82 dB 4:43 04-Wonderful Tonight
DR12 0.00 dB -13.83 dB 4:26 05-If I Don't Be There By Morning
DR15 0.00 dB -16.30 dB 8:29 06-Worried Life Blues
DR13 0.00 dB -15.22 dB 5:01 07-All Our Past Times
DR11 -0.26 dB -14.12 dB 5:38 08-After Midnight
––––––––––––––––––––––––––––––––––––––––

Number of tracks: 8
Official DR value: DR13

Samplerate: 44100 Hz
Channels: 2
Bits per sample: 16
Bitrate: 862 kbps
Codec: FLAC
================================================================================



[CUETools log; Date: 08.12.2016 19:10:31; Version: 2.1.4]
[CTDB TOCID: xetKybvmImsqUS6u_0Nakkp_F7k-] found.
Track | CTDB Status
1 | (307/309) Accurately ripped
2 | (299/309) Accurately ripped
3 | (305/309) Accurately ripped
4 | (306/309) Accurately ripped
5 | (300/309) Accurately ripped
6 | (301/309) Accurately ripped
7 | (303/309) Accurately ripped
8 | (304/309) Accurately ripped
[AccurateRip ID: 000d9ec8-005b97ed-670a9008] found.
Track [ CRC | V2 ] Status
01 [cfe6f2a1|a7952867] (065+062/313) Accurately ripped
02 [fb77931d|8eb04063] (067+060/309) Accurately ripped
03 [8cb83444|233f9b45] (064+062/312) Accurately ripped
04 [e5481cc7|2efc7acf] (066+061/312) Accurately ripped
05 [7bec1037|4f5971cc] (067+062/314) Accurately ripped
06 [bb07b033|2f107aaa] (066+061/310) Accurately ripped
07 [83dde927|ed59d232] (067+063/318) Accurately ripped
08 [951bf420|46728596] (066+062/315) Accurately ripped
Offsetted by -1326:
01 [203fa86f] (002/313) Accurately ripped
02 [e21dc184] (002/309) Accurately ripped
03 [482c92a2] (002/312) Accurately ripped
04 [85148384] (002/312) Accurately ripped
05 [5a367ba8] (002/314) Accurately ripped
06 [1e815cb8] (002/310) Accurately ripped
07 [6bb282f4] (002/318) Accurately ripped
08 [383f67d5] (002/315) Accurately ripped
Offsetted by -1324:
01 [eb6961ce] (005/313) Accurately ripped
02 [d04970ff] (005/309) Accurately ripped
03 [0136cb20] (005/312) Accurately ripped
04 [f9491421] (005/312) Accurately ripped
05 [193f12b7] (005/314) Accurately ripped
06 [6c82c3bf] (005/310) Accurately ripped
07 [3f556859] (005/318) Accurately ripped
08 [4fdfb7ad] (005/315) Accurately ripped
Offsetted by -1321:
01 [39e6bfd7] (004/313) Accurately ripped
02 [75d1e515] (004/309) Accurately ripped
03 [814e37e0] (004/312) Accurately ripped
04 [60dd14ff] (004/312) Accurately ripped
05 [171aa3c9] (004/314) Accurately ripped
06 [197d61c6] (004/310) Accurately ripped
07 [342622da] (004/318) Accurately ripped
08 [721da1b2] (004/315) Accurately ripped
Offsetted by -1030:
01 [5a1adb42] (004/313) Accurately ripped
02 [fc238125] (004/309) Accurately ripped
03 [da059c4b] (004/312) Accurately ripped
04 [ff60ad5b] (004/312) Accurately ripped
05 [0c11559c] (004/314) Accurately ripped
06 [eddca061] (004/310) Accurately ripped
07 [55b9ecae] (004/318) Accurately ripped
08 [606d7dfe] (004/315) Accurately ripped
Offsetted by -681:
01 [46203df7] (007/313) Accurately ripped
02 [d98455c3] (007/309) Accurately ripped
03 [8e2a029d] (007/312) Accurately ripped
04 [3d613bcd] (007/312) Accurately ripped
05 [bf5e3ba5] (007/314) Accurately ripped
06 [140f9935] (007/310) Accurately ripped
07 [7e26e802] (007/318) Accurately ripped
08 [b5fc0f9a] (007/315) Accurately ripped
Offsetted by -657:
01 [cbace6f0] (052/313) Accurately ripped
02 [aa2c454c] (049/309) Accurately ripped
03 [e2b2a793] (052/312) Accurately ripped
04 [9031d106] (051/312) Accurately ripped
05 [09ab87bf] (052/314) Accurately ripped
06 [f2dcedc0] (051/310) Accurately ripped
07 [1cb969ab] (052/318) Accurately ripped
08 [08d8ff97] (052/315) Accurately ripped
Offsetted by -400:
01 [24118c9d] (002/313) Accurately ripped
02 [86c5c8ca] (002/309) Accurately ripped
03 [dc392cde] (002/312) Accurately ripped
04 [e5095f2f] (002/312) Accurately ripped
05 [b1716637] (002/314) Accurately ripped
06 [f7eb0a37] (002/310) Accurately ripped
07 [2813933d] (002/318) Accurately ripped
08 [0463943b] (002/315) Accurately ripped
Offsetted by 6:
01 [e2971ccb] (000/313) No match (V2 was not tested)
02 [b8f645d6] (000/309) No match
03 [43f8c1ae] (000/312) No match
04 [cb1b0446] (000/312) No match
05 [1ceb20c8] (000/314) No match
06 [94fa95da] (000/310) No match
07 [576bf959] (000/318) No match (V2 was not tested)
08 [d4552dbe] (000/315) No match (V2 was not tested)

Track Peak [ CRC32 ] [W/O NULL] [ LOG ]
– 100,0 [C45CB1E7] [276481CC] CRC32
01 100,0 [16A452DA] [9B5848FE]
02 100,0 [B6EB88B1] [93E05856]
03 74,1 [A680895D] [D1888EC0]
04 63,8 [E22A2A37] [6DAE661A]
05 100,0 [D2ABF336] [863EF16C]
06 100,0 [6C62E42C] [8369EB02]
07 100,0 [AF122FA4] [F1023119]
08 97,0 [E903BF3C] [B78D657B]


Eric Clapton - Just One Night (1980) [MFSL, UDCD 608]

Tracklist CD2:

01. Double Trouble [08:12]
02. Setting Me Up [04:38]
03. Blues Power [07:19]
04. Rambling On My Mind [08:49]
05. Cocaine [07:39]
06. Further On Up The Road [07:21]

Exact Audio Copy V0.99 prebeta 5 from 4. May 2009

EAC extraction logfile from 13. November 2013, 10:21

ERIC CLAPTON / Just One Night ( UDCD 608-2 )

Used drive : ASUS DRW-24B3ST Adapter: 5 ID: 0

Read mode : Secure
Utilize accurate stream : Yes
Defeat audio cache : Yes
Make use of C2 pointers : No

Read offset correction : 6
Overread into Lead-In and Lead-Out : No
Fill up missing offset samples with silence : Yes
Delete leading and trailing silent blocks : No
Null samples used in CRC calculations : Yes
Used interface : Native Win32 interface for Win NT & 2000

Used output format : User Defined Encoder
Selected bitrate : 1024 kBit/s
Quality : High
Add ID3 tag : No
Command line compressor : C:\Program Files (x86)\EAC\WV\wavpack.exe
Additional command line options : -h -hh -m %s %d


TOC of the extracted CD

Track | Start | Length | Start sector | End sector
––––––––––––––––––––––––––––-
1 | 0:00.00 | 8:12.70 | 0 | 36969
2 | 8:12.70 | 4:38.10 | 36970 | 57829
3 | 12:51.05 | 7:19.72 | 57830 | 90826
4 | 20:11.02 | 8:49.68 | 90827 | 130569
5 | 29:00.70 | 7:39.10 | 130570 | 165004
6 | 36:40.05 | 7:21.32 | 165005 | 198111


Range status and errors

Selected range

Filename G:\{MFSL}\ERIC CLAPTON - 1980- Just One Night (US 2 x CD 1994 MFSL • UDCD 608)\ERIC CLAPTON - Just One Night ( UDCD 608-2 ).wav

Peak level 100.0 %
Range quality 100.0 %
Test CRC AD6F603F
Copy CRC AD6F603F
Copy OK

No errors occurred


AccurateRip summary

Track 1 cannot be verified as accurate (confidence 82) [DF611109], AccurateRip returned [A18C89B3]
Track 2 accurately ripped (confidence 80) [4816BF87]
Track 3 accurately ripped (confidence 80) [FE88B09B]
Track 4 accurately ripped (confidence 79) [2C2E2AA0]
Track 5 accurately ripped (confidence 81) [F4EBFE8A]
Track 6 accurately ripped (confidence 81) [4FED51C5]

5 track(s) accurately ripped
1 track(s) could not be verified as accurate

Some tracks could not be verified as accurate

End of status report

foobar2000 1.2.9 / Dynamic Range Meter 1.1.1
log date: 2016-12-08 19:11:01

––––––––––––––––––––––––––––––––––––––––
Analyzed: ERIC CLAPTON / Just One Night ( UDCD 608-2 )
––––––––––––––––––––––––––––––––––––––––

DR Peak RMS Duration Track
––––––––––––––––––––––––––––––––––––––––
DR15 0.00 dB -17.09 dB 8:13 01-Double Trouble
DR11 -3.37 dB -16.03 dB 4:38 02-Setting Me Up
DR11 0.00 dB -13.54 dB 7:20 03-Blues Power
DR12 -1.65 dB -16.83 dB 8:50 04-Rambling On My Mind
DR12 0.00 dB -14.98 dB 7:39 05-Cocaine
DR10 -2.53 dB -14.89 dB 7:21 06-Further On Up The Road
––––––––––––––––––––––––––––––––––––––––

Number of tracks: 6
Official DR value: DR12

Samplerate: 44100 Hz
Channels: 2
Bits per sample: 16
Bitrate: 858 kbps
Codec: FLAC
================================================================================



[CUETools log; Date: 08.12.2016 19:10:52; Version: 2.1.4]
[CTDB TOCID: RqTy6MHUS0Zer6gzxWee7DG_LLU-] found.
Track | CTDB Status
1 | ( 0/311) No match
2 | (276/311) Accurately ripped
3 | (274/311) Accurately ripped
4 | (275/311) Accurately ripped
5 | (277/311) Accurately ripped
6 | (276/311) Accurately ripped
[AccurateRip ID: 000a5d92-00378c53-3f0a5106] found.
Track [ CRC | V2 ] Status
01 [df611109|49aa1fec] (000+000/359) No match
02 [4816bf87|405f8981] (084+079/361) Accurately ripped
03 [fe88b09b|a6b6c9db] (084+078/356) Accurately ripped
04 [2c2e2aa0|ae6ca025] (081+079/357) Accurately ripped
05 [f4ebfe8a|b31b71ad] (085+076/357) Accurately ripped
06 [4fed51c5|971f906d] (084+075/354) Accurately ripped
Offsetted by -1421:
01 [68c0b5a5] (000/359) No match (V2 was not tested)
02 [59c8fa1a] (000/361) No match
03 [c8646020] (000/356) No match
04 [5b7b98e8] (000/357) No match
05 [3761f67b] (000/357) No match
06 [e72079e8] (000/354) No match
Offsetted by -1416:
01 [5d2e69c6] (000/359) No match (V2 was not tested)
02 [71689267] (000/361) No match
03 [8e12809f] (000/356) No match
04 [32e97133] (000/357) No match
05 [e2a9cf1a] (000/357) No match
06 [c16b0e2d] (000/354) No match
Offsetted by -1323:
01 [9296a058] (000/359) No match
02 [3bc7b0c7] (002/361) Accurately ripped
03 [5e32a6dc] (002/356) Accurately ripped
04 [0dbee32e] (002/357) Accurately ripped
05 [f36c1eac] (002/357) Accurately ripped
06 [0d4378cd] (002/354) Accurately ripped
Offsetted by -1318:
01 [c17a5e20] (000/359) No match
02 [56a123a2] (004/361) Accurately ripped
03 [0845d43e] (004/356) Accurately ripped
04 [c025ced5] (004/357) Accurately ripped
05 [3db21eec] (004/357) Accurately ripped
06 [dd4699f1] (004/354) Accurately ripped
Offsetted by -762:
01 [2ff1f5f9] (000/359) No match (V2 was not tested)
02 [991c0906] (000/361) No match
03 [b4493259] (000/356) No match
04 [7e057725] (000/357) No match
05 [dceb9a78] (000/357) No match
06 [720cdd25] (000/354) No match
Offsetted by -752:
01 [73f106d5] (000/359) No match (V2 was not tested)
02 [29aaa9ef] (000/361) No match
03 [e2121192] (000/356) No match
04 [b2d53c92] (000/357) No match
05 [03e63a55] (000/357) No match
06 [8145a671] (000/354) No match
Offsetted by -664:
01 [762272ad] (000/359) No match
02 [fe636d46] (019/361) Accurately ripped
03 [f6f6e8b1] (019/356) Accurately ripped
04 [7f08e9bb] (019/357) Accurately ripped
05 [f11e6a9e] (019/357) Accurately ripped
06 [435bb8d1] (019/354) Accurately ripped
Offsetted by -654:
01 [91ea398d] (000/359) No match
02 [26174276] (026/361) Accurately ripped
03 [e865829f] (026/356) Accurately ripped
04 [1fbbe19b] (026/357) Accurately ripped
05 [cb9c59d5] (026/357) Accurately ripped
06 [b2ebba04] (026/354) Accurately ripped
Offsetted by -98:
01 [889a16fe] (000/359) No match (V2 was not tested)
02 [ecd6cf3f] (000/361) No match
03 [1145227d] (000/356) No match
04 [29f28da6] (000/357) No match
05 [17a4c83c] (000/357) No match
06 [c26f6226] (000/354) No match

Track Peak [ CRC32 ] [W/O NULL] [ LOG ]
– 100,0 [AD6F603F] [CBEE0CD0] CRC32
01 100,0 [DB610FE0] [3E46503D]
02 67,8 [9A9B1197] [58E7C129]
03 100,0 [72D0C2E9] [11E6649C]
04 82,7 [622AE460] [27C985A8]
05 100,0 [D3E79F0F] [EC6F4123]
06 74,6 [7E172D45] [2F4384B8]


Eric Clapton - Just One Night (1980) [MFSL, UDCD 608]

All thanks go to the original releaser

Eric Clapton in my Blog

Download Eric Clapton - Just One Night (1980):