Subcategories

Eric Clapton - Me and Mr. Johnson (2004)

Posted By: v3122
Eric Clapton - Me and Mr. Johnson (2004)

Eric Clapton - Me and Mr. Johnson (2004)
EAC | Flac(Image) + Cue + Log & MP3 CBR 320Kbps
Reprise, 9362-48423-2 | ~ 352 or 128 Mb | Scans
Blues Rock / Classic Rock

Ten years after his first all-blues album, From the Cradle, Eric Clapton released Me and Mr. Johnson, an album-length tribute to his hero, the legendary bluesman Robert Johnson. Not that this is the first time Clapton has paid tribute to Johnson. Throughout his career, Clapton has not only drawn on Johnson for inspiration, but he has covered his songs at pivotal moments: "Ramblin' on My Mind" on his classic album with John Mayall, Bluesbreakers; "Four Until Late" on the first Cream album; and, most memorably, the rampaging cover of "Crossroads" on Wheels of Fire that became his anthem and arguably his defining moment. Considering this long history, perhaps a full-length tribute was inevitable, yet Me and Mr. Johnson still is welcome, in part because it's been a long time since this guitarist has sounded so comfortable and relaxed, as if he was having fun making music. With the possible exception of the spotty yet charming B.B. King duet album Riding With the King, this is simply the most enjoyable record he's made since From the Cradle, and in some respects it's a better blues album than that since it never sounds as doggedly serious as that guitar-heavy affair. Given the somber, sometimes chilling lyrics Johnson wrote – Clapton admits that "At first [his music] scared me in its intensity," an accurate summary of the haunting nature of those 29 sides the bluesman cut in the '30s – it's a little ironic that this tribute winds up being fun, not somber, but the light touch makes for a better album. That lightness comes from the deep love Clapton holds for this music, since the enthusiasm and enjoyment he and his band – all the old regulars like Andy Fairweather-Low plus Billy Preston on keyboards – give the performance results in the album's light, infectious feel. While that does result in versions of "If I Had Possession Over Judgement Day" and "Hell Hound on My Trail" that sound anything but haunted, they do sound nicely next to the up-tempo rave-ups of "They're Red Hot," "Last Fair Deal Gone Down," and "Stop Breaking Down Blues" since all of them sound like Clapton is having a hell of a good time. Some might take issue with this, and others may find the album too slickly produced – admittedly, blues albums should never boast a credit for Pro Tools, as this does – but this is a heartfelt tribute that's among Clapton's most purely enjoyable albums.

by Stephen Thomas Erlewine, allmusic
Eric Clapton - Me and Mr. Johnson (2004)


Eric Clapton - Me and Mr. Johnson (2004):

Eric Clapton - Me and Mr. Johnson (2004)

Tracklist:

01. When You Got A Good Friend [03:20]
02. Little Queen Of Spades [04:57]
03. They're Red Hot [03:25]
04. Me And The Devil Blues [02:56]
05. Traveling Riverside Blues [04:31]
06. Last Fair Deal Gone Down [02:35]
07. Stop Breakin Down Blues [02:30]
08. Milkcow's Calf Blues [03:18]
09. Kind Hearted Woman Blues [04:06]
10. Come On In My Kitchen [03:35]
11. If I Had Possession Over Judgement Day [03:27]
12. Love In Vain [04:02]
13. 32-20 Blues [02:58]
14. Hell Hound On My Trail [03:51]

Exact Audio Copy V0.99 prebeta 5 from 4. May 2009

EAC extraction logfile from 11. February 2015, 2:10

ERIC CLAPTON / Me And Mr Johnson ( 48423-2 )

Used drive : ASUS DRW-24B3ST Adapter: 1 ID: 0

Read mode : Secure
Utilize accurate stream : Yes
Defeat audio cache : Yes
Make use of C2 pointers : No

Read offset correction : 6
Overread into Lead-In and Lead-Out : No
Fill up missing offset samples with silence : Yes
Delete leading and trailing silent blocks : No
Null samples used in CRC calculations : Yes
Used interface : Native Win32 interface for Win NT & 2000

Used output format : User Defined Encoder
Selected bitrate : 1024 kBit/s
Quality : High
Add ID3 tag : No
Command line compressor : C:\Program Files (x86)\EAC\WV\wavpack.exe
Additional command line options : -h -hh -m %s %d


TOC of the extracted CD

Track | Start | Length | Start sector | End sector
––––––––––––––––––––––––––––-
1 | 0:00.00 | 3:20.32 | 0 | 15031
2 | 3:20.32 | 4:57.70 | 15032 | 37376
3 | 8:18.27 | 3:25.08 | 37377 | 52759
4 | 11:43.35 | 2:56.37 | 52760 | 65996
5 | 14:39.72 | 4:31.13 | 65997 | 86334
6 | 19:11.10 | 2:35.40 | 86335 | 97999
7 | 21:46.50 | 2:30.00 | 98000 | 109249
8 | 24:16.50 | 3:18.45 | 109250 | 124144
9 | 27:35.20 | 4:06.70 | 124145 | 142664
10 | 31:42.15 | 3:35.20 | 142665 | 158809
11 | 35:17.35 | 3:27.57 | 158810 | 174391
12 | 38:45.17 | 4:02.60 | 174392 | 192601
13 | 42:48.02 | 2:58.70 | 192602 | 206021
14 | 45:46.72 | 3:51.60 | 206022 | 223406


Range status and errors

Selected range

Filename W:\ERIC CLAPTON\ERIC CLAPTON - Me And Mr. Johnson (US 2004 Reprise Records • 48423-2)\ERIC CLAPTON - Me And Mr Johnson ( 48423-2 ).wav

Peak level 98.9 %
Range quality 99.8 %
Test CRC 6C62E973
Copy CRC 6C62E973
Copy OK

No errors occurred


AccurateRip summary

Track 1 accurately ripped (confidence 194) [1507CE30]
Track 2 accurately ripped (confidence 192) [469C52CF]
Track 3 accurately ripped (confidence 193) [7E09CAFA]
Track 4 accurately ripped (confidence 193) [FDFBD636]
Track 5 accurately ripped (confidence 193) [14B7742E]
Track 6 accurately ripped (confidence 193) [9FD6D37D]
Track 7 accurately ripped (confidence 193) [D38F7E7D]
Track 8 accurately ripped (confidence 193) [695C4241]
Track 9 accurately ripped (confidence 192) [781CB40E]
Track 10 accurately ripped (confidence 192) [B80F4AA2]
Track 11 accurately ripped (confidence 192) [E595B864]
Track 12 accurately ripped (confidence 189) [FF6B503F]
Track 13 accurately ripped (confidence 190) [0591E5B9]
Track 14 accurately ripped (confidence 184) [54F41631]

All tracks accurately ripped

End of status report

foobar2000 1.2.9 / Dynamic Range Meter 1.1.1
log date: 2016-12-23 22:02:41

––––––––––––––––––––––––––––––––––––––––
Analyzed: ERIC CLAPTON / Me And Mr Johnson ( 48423-2 )
––––––––––––––––––––––––––––––––––––––––

DR Peak RMS Duration Track
––––––––––––––––––––––––––––––––––––––––
DR7 -0.10 dB -8.25 dB 3:20 01-When You Got A Good Friend
DR6 -0.10 dB -8.91 dB 4:58 02-Little Queen Of Spades
DR7 -0.10 dB -8.41 dB 3:25 03-They're Red Hot
DR8 -0.10 dB -9.75 dB 2:56 04-Me And The Devil Blues
DR7 -0.55 dB -9.12 dB 4:31 05-Traveling Riverside Blues
DR6 -0.10 dB -7.25 dB 2:36 06-Last Fair Deal Gone Down
DR7 -0.10 dB -8.37 dB 2:30 07-Stop Breakin Down Blues
DR6 -0.10 dB -7.31 dB 3:19 08-Milkcow's Calf Blues
DR7 -0.10 dB -8.96 dB 4:07 09-Kind Hearted Woman Blues
DR8 -0.10 dB -9.27 dB 3:35 10-Come On In My Kitchen
DR7 -0.10 dB -8.55 dB 3:28 11-If I Had Possession Over Judgement Day
DR8 -0.10 dB -9.06 dB 4:03 12-Love In Vain
DR7 -0.10 dB -8.32 dB 2:59 13-32-20 Blues
DR7 -0.10 dB -8.92 dB 3:52 14-Hell Hound On My Trail
––––––––––––––––––––––––––––––––––––––––

Number of tracks: 14
Official DR value: DR7

Samplerate: 44100 Hz
Channels: 2
Bits per sample: 16
Bitrate: 940 kbps
Codec: FLAC

[CUETools log; Date: 23.12.2016 22:03:15; Version: 2.1.4]
[CTDB TOCID: htoiis3W5uMzt2Mh6IIYlGi_JKk-] found.
Track | CTDB Status
1 | (326/837) Accurately ripped
2 | (326/837) Accurately ripped
3 | (325/837) Accurately ripped
4 | (326/837) Accurately ripped
5 | (326/837) Accurately ripped
6 | (325/837) Accurately ripped
7 | (326/837) Accurately ripped
8 | (326/837) Accurately ripped
9 | (323/837) Accurately ripped
10 | (321/837) Accurately ripped
11 | (325/837) Accurately ripped
12 | (324/837) Accurately ripped
13 | (324/837) Accurately ripped
14 | (324/837) Accurately ripped
[AccurateRip ID: 0019bd0a-0110e387-af0ba20e] found.
Track [ CRC | V2 ] Status
01 [1507ce30|d50adc1a] (195+156/589) Accurately ripped
02 [469c52cf|c34512e2] (193+158/585) Accurately ripped
03 [7e09cafa|08885730] (194+157/586) Accurately ripped
04 [fdfbd636|f2410bea] (194+158/590) Accurately ripped
05 [14b7742e|ede19642] (194+159/587) Accurately ripped
06 [9fd6d37d|22a7f28f] (194+158/590) Accurately ripped
07 [d38f7e7d|fa16defd] (194+158/583) Accurately ripped
08 [695c4241|5db796e6] (194+160/586) Accurately ripped
09 [781cb40e|689baa39] (193+159/583) Accurately ripped
10 [b80f4aa2|1ead7a08] (193+156/575) Accurately ripped
11 [e595b864|a09bf8bf] (193+158/585) Accurately ripped
12 [ff6b503f|6c43fc7a] (190+158/575) Accurately ripped
13 [0591e5b9|d1b0f034] (191+159/588) Accurately ripped
14 [54f41631|e38ede99] (185+154/562) Accurately ripped
Offsetted by -1322:
01 [3b2c1478] (002/589) Accurately ripped
02 [5152a9ab] (002/585) Accurately ripped
03 [6492d1c0] (002/586) Accurately ripped
04 [8d7192c0] (002/590) Accurately ripped
05 [82f16f08] (002/587) Accurately ripped
06 [aa57cf3d] (002/590) Accurately ripped
07 [3fb9aa81] (002/583) Accurately ripped
08 [c7945cf9] (002/586) Accurately ripped
09 [6e693ebc] (002/583) Accurately ripped
10 [644215f8] (002/575) Accurately ripped
11 [5c29b2f0] (002/585) Accurately ripped
12 [67ab8fc1] (002/575) Accurately ripped
13 [a83f1a9d] (002/588) Accurately ripped
14 [c3e6baf3] (002/562) Accurately ripped
Offsetted by -1310:
01 [e0964188] (002/589) Accurately ripped
02 [be712723] (002/585) Accurately ripped
03 [a6a4f0ac] (002/586) Accurately ripped
04 [a1714774] (002/590) Accurately ripped
05 [61cc1d5c] (002/587) Accurately ripped
06 [cfd0a2bd] (002/590) Accurately ripped
07 [caf170c9] (002/583) Accurately ripped
08 [a4a481e9] (002/586) Accurately ripped
09 [f4808ff8] (002/583) Accurately ripped
10 [d3027f04] (002/575) Accurately ripped
11 [72b61ac8] (002/585) Accurately ripped
12 [301d9de5] (002/575) Accurately ripped
13 [2bff90a5] (002/588) Accurately ripped
14 [d8f84797] (002/562) Accurately ripped
Offsetted by -741:
01 [aeab6f94] (002/589) Accurately ripped
02 [74818f1d] (002/585) Accurately ripped
03 [0e2ad58d] (002/586) Accurately ripped
04 [6b0dffcb] (002/590) Accurately ripped
05 [5377e76b] (002/587) Accurately ripped
06 [55f1cf5d] (002/590) Accurately ripped
07 [3edb6a9f] (002/583) Accurately ripped
08 [d6b7595d] (002/586) Accurately ripped
09 [1ffcdbd5] (002/583) Accurately ripped
10 [8125f3fd] (002/575) Accurately ripped
11 [b537ac0a] (002/585) Accurately ripped
12 [25e86710] (002/575) Accurately ripped
13 [bde56d4b] (002/588) Accurately ripped
14 [7ff869a2] (002/562) Accurately ripped
Offsetted by -640:
01 [4993c030] (002/589) Accurately ripped
02 [8aecd9cf] (002/585) Accurately ripped
03 [64ee047a] (002/586) Accurately ripped
04 [28b630b6] (002/590) Accurately ripped
05 [51d322ae] (002/587) Accurately ripped
06 [26aac37d] (002/590) Accurately ripped
07 [7d462f7d] (002/583) Accurately ripped
08 [5b549041] (002/586) Accurately ripped
09 [ddebc78e] (002/583) Accurately ripped
10 [4ff96822] (002/575) Accurately ripped
11 [88556b64] (002/585) Accurately ripped
12 [925308bf] (002/575) Accurately ripped
13 [3d794eb9] (002/588) Accurately ripped
14 [f14c1eb1] (002/562) Accurately ripped
Offsetted by -92:
01 [762f1f60] (008/589) Accurately ripped
02 [0207e637] (008/585) Accurately ripped
03 [d8d4333e] (008/586) Accurately ripped
04 [0f536cd2] (008/590) Accurately ripped
05 [bd803baa] (008/587) Accurately ripped
06 [2b387dfd] (008/590) Accurately ripped
07 [fd8e8e55] (008/583) Accurately ripped
08 [ca8b2711] (008/586) Accurately ripped
09 [1ebf4542] (008/583) Accurately ripped
10 [bc4c2546] (008/575) Accurately ripped
11 [e36146ec] (008/585) Accurately ripped
12 [a956392b] (008/575) Accurately ripped
13 [68ce5cd1] (008/588) Accurately ripped
14 [b36d8a9d] (008/562) Accurately ripped
Offsetted by -5:
01 [a570e614] (003/589) Accurately ripped
02 [9924f3dd] (003/585) Accurately ripped
03 [37d7936d] (003/586) Accurately ripped
04 [e0514aeb] (003/590) Accurately ripped
05 [0d31ab8b] (003/587) Accurately ripped
06 [fae47b5d] (003/590) Accurately ripped
07 [eee2ebdf] (003/583) Accurately ripped
08 [cd4032dd] (003/586) Accurately ripped
09 [eae85235] (003/583) Accurately ripped
10 [5f3f1edd] (003/575) Accurately ripped
11 [c6db37ca] (003/585) Accurately ripped
12 [d6911fb0] (003/575) Accurately ripped
13 [a401b48b] (003/588) Accurately ripped
14 [8c2cc642] (003/562) Accurately ripped
Offsetted by 6:
01 [67bce4b8] (056/589) Accurately ripped
02 [7d2b918b] (056/585) Accurately ripped
03 [9f12da70] (057/586) Accurately ripped
04 [87fbb090] (056/590) Accurately ripped
05 [8424cb58] (056/587) Accurately ripped
06 [32933d3d] (057/590) Accurately ripped
07 [192b61a1] (055/583) Accurately ripped
08 [57e454b9] (054/586) Accurately ripped
09 [bb285cac] (056/583) Accurately ripped
10 [ef6f7f28] (055/575) Accurately ripped
11 [70dbec50] (055/585) Accurately ripped
12 [63a45751] (054/575) Accurately ripped
13 [477220bd] (056/588) Accurately ripped
14 [df7cdc83] (054/562) Accurately ripped
Offsetted by -1932:
01 [0d417720] (000/589) No match
02 [a66f6a57] (000/585) No match
03 [f0a4588e] (000/586) No match
04 [6a2b3102] (000/590) No match
05 [ed2fd15a] (000/587) No match
06 [0ed9cffd] (000/590) No match
07 [457bcb35] (000/583) No match
08 [62350751] (000/586) No match
09 [23729d52] (000/583) No match
10 [110d3a16] (000/575) No match
11 [b748698c] (000/585) No match
12 [efb06b9b] (000/575) No match (V2 was not tested)
13 [2987aab1] (000/588) No match (V2 was not tested)
14 [14eaa30d] (000/562) No match (V2 was not tested)
Offsetted by -1914:
01 [0560bab8] (000/589) No match (V2 was not tested)
02 [4a1d268b] (000/585) No match (V2 was not tested)
03 [53bf86f0] (000/586) No match (V2 was not tested)
04 [082ac010] (000/590) No match (V2 was not tested)
05 [3b77d6d8] (000/587) No match (V2 was not tested)
06 [c70f0d3d] (000/590) No match (V2 was not tested)
07 [164f74a1] (000/583) No match (V2 was not tested)
08 [2dcd3eb9] (000/586) No match (V2 was not tested)
09 [ec95972c] (000/583) No match (V2 was not tested)
10 [b72dd7a8] (000/575) No match (V2 was not tested)
11 [591b0550] (000/585) No match (V2 was not tested)
12 [1c5b80d1] (000/575) No match
13 [ef285bbd] (000/588) No match
14 [b484f603] (000/562) No match
Offsetted by -1816:
01 [f6ee8010] (000/589) No match (V2 was not tested)
02 [c540d1df] (000/585) No match (V2 was not tested)
03 [19fe2e22] (000/586) No match (V2 was not tested)
04 [80d303ce] (000/590) No match (V2 was not tested)
05 [021c6686] (000/587) No match (V2 was not tested)
06 [ce69cc7d] (000/590) No match (V2 was not tested)
07 [31ec47ed] (000/583) No match (V2 was not tested)
08 [bb266c61] (000/586) No match (V2 was not tested)
09 [88feae96] (000/583) No match (V2 was not tested)
10 [ea51318a] (000/575) No match (V2 was not tested)
11 [e695aab4] (000/585) No match (V2 was not tested)
12 [d6a99ef7] (000/575) No match (V2 was not tested)
13 [cdcc1fa9] (000/588) No match (V2 was not tested)
14 [e09447e9] (000/562) No match (V2 was not tested)
Offsetted by -1236:
01 [874facc0] (000/589) No match (V2 was not tested)
02 [5f57d787] (000/585) No match (V2 was not tested)
03 [e8bf5a06] (000/586) No match (V2 was not tested)
04 [f21a21ca] (000/590) No match (V2 was not tested)
05 [6abb5062] (000/587) No match (V2 was not tested)
06 [8c39bafd] (000/590) No match (V2 was not tested)
07 [d01eb785] (000/583) No match (V2 was not tested)
08 [77dd65b1] (000/586) No match (V2 was not tested)
09 [84bb04ea] (000/583) No match (V2 was not tested)
10 [28a506ce] (000/575) No match (V2 was not tested)
11 [d317f07c] (000/585) No match (V2 was not tested)
12 [59879fc3] (000/575) No match (V2 was not tested)
13 [03226881] (000/588) No match (V2 was not tested)
14 [dae48035] (000/562) No match (V2 was not tested)
Offsetted by -1188:
01 [1cf86100] (000/589) No match (V2 was not tested)
02 [13d1cd67] (000/585) No match (V2 was not tested)
03 [f107d5b6] (000/586) No match (V2 was not tested)
04 [4218f49a] (000/590) No match (V2 was not tested)
05 [e62609b2] (000/587) No match (V2 was not tested)
06 [221d08fd] (000/590) No match (V2 was not tested)
07 [fcfdd0a5] (000/583) No match (V2 was not tested)
08 [ec1df971] (000/586) No match (V2 was not tested)
09 [9d1849da] (000/583) No match (V2 was not tested)
10 [e3a6aafe] (000/575) No match (V2 was not tested)
11 [2d498fdc] (000/585) No match (V2 was not tested)
12 [7b4fd853] (000/575) No match (V2 was not tested)
13 [122440a1] (000/588) No match (V2 was not tested)
14 [2f2ab2c5] (000/562) No match (V2 was not tested)
Offsetted by -1176:
01 [c2628e10] (000/589) No match (V2 was not tested)
02 [80f04adf] (000/585) No match (V2 was not tested)
03 [3319f4a2] (000/586) No match (V2 was not tested)
04 [5618a94e] (000/590) No match (V2 was not tested)
05 [c500b806] (000/587) No match (V2 was not tested)
06 [4795dc7d] (000/590) No match (V2 was not tested)
07 [883596ed] (000/583) No match (V2 was not tested)
08 [c92e1e61] (000/586) No match (V2 was not tested)
09 [232f9b16] (000/583) No match (V2 was not tested)
10 [5267140a] (000/575) No match (V2 was not tested)
11 [43d5f7b4] (000/585) No match (V2 was not tested)
12 [43c1e677] (000/575) No match (V2 was not tested)
13 [95e4b6a9] (000/588) No match (V2 was not tested)
14 [443c3f69] (000/562) No match (V2 was not tested)
Offsetted by -1170:
01 [1517a498] (000/589) No match (V2 was not tested)
02 [b77f899b] (000/585) No match (V2 was not tested)
03 [54230418] (000/586) No match (V2 was not tested)
04 [e01883a8] (000/590) No match (V2 was not tested)
05 [346e0f30] (000/587) No match (V2 was not tested)
06 [da52463d] (000/590) No match (V2 was not tested)
07 [cdd17a11] (000/583) No match (V2 was not tested)
08 [b7b630d9] (000/586) No match (V2 was not tested)
09 [663b43b4] (000/583) No match (V2 was not tested)
10 [89c74890] (000/575) No match (V2 was not tested)
11 [cf1c2ba0] (000/585) No match (V2 was not tested)
12 [a7faed89] (000/575) No match (V2 was not tested)
13 [d7c4f1ad] (000/588) No match (V2 was not tested)
14 [cec505bb] (000/562) No match (V2 was not tested)
Offsetted by -693:
01 [445423d4] (000/589) No match (V2 was not tested)
02 [28fb84fd] (000/585) No match (V2 was not tested)
03 [1673513d] (000/586) No match (V2 was not tested)
04 [bb0cd29b] (000/590) No match (V2 was not tested)
05 [cee2a0bb] (000/587) No match (V2 was not tested)
06 [ebd51d5d] (000/590) No match (V2 was not tested)
07 [6bba83bf] (000/583) No match (V2 was not tested)
08 [4af7ed1d] (000/586) No match (V2 was not tested)
09 [385a20c5] (000/583) No match (V2 was not tested)
10 [3c27982d] (000/575) No match (V2 was not tested)
11 [0f694b6a] (000/585) No match (V2 was not tested)
12 [47b09fa0] (000/575) No match (V2 was not tested)
13 [cce7456b] (000/588) No match (V2 was not tested)
14 [d43e9c32] (000/562) No match (V2 was not tested)
Offsetted by -667:
01 [5564dacc] (000/589) No match (V2 was not tested)
02 [15683f81] (000/585) No match (V2 was not tested)
03 [50453ee7] (000/586) No match (V2 was not tested)
04 [bbb6da21] (000/590) No match (V2 was not tested)
05 [5c671a71] (000/587) No match (V2 was not tested)
06 [125ae79d] (000/590) No match (V2 was not tested)
07 [4408b15b] (000/583) No match (V2 was not tested)
08 [a9f03d25] (000/586) No match
09 [b03750c7] (000/583) No match
10 [d6c87bc7] (000/575) No match
11 [159981be] (000/585) No match
12 [4f5268ee] (000/575) No match
13 [95084527] (000/588) No match
14 [81e4a240] (000/562) No match
Offsetted by -96:
01 [e9b665b0] (000/589) No match (V2 was not tested)
02 [dda8670f] (000/585) No match (V2 was not tested)
03 [6d78d39a] (000/586) No match (V2 was not tested)
04 [5dfe3096] (000/590) No match (V2 was not tested)
05 [1de2018e] (000/587) No match (V2 was not tested)
06 [7410377d] (000/590) No match (V2 was not tested)
07 [79d14c3d] (000/583) No match (V2 was not tested)
08 [80db1ac1] (000/586) No match (V2 was not tested)
09 [47622a2e] (000/583) No match (V2 was not tested)
10 [420c0242] (000/575) No match (V2 was not tested)
11 [313279a4] (000/585) No match (V2 was not tested)
12 [bbdadf1f] (000/575) No match (V2 was not tested)
13 [e78e3579] (000/588) No match (V2 was not tested)
14 [ac67b111] (000/562) No match (V2 was not tested)
Offsetted by -6:
01 [c252b7a8] (000/589) No match (V2 was not tested)
02 [100d1413] (000/585) No match (V2 was not tested)
03 [5d00bb84] (000/586) No match (V2 was not tested)
04 [73fbfbdc] (000/590) No match (V2 was not tested)
05 [a54a1d04] (000/587) No match (V2 was not tested)
06 [0d1a69bd] (000/590) No match (V2 was not tested)
07 [8df39b59] (000/583) No match (V2 was not tested)
08 [7ad42fc9] (000/586) No match (V2 was not tested)
09 [35110b70] (000/583) No match (V2 was not tested)
10 [80af161c] (000/575) No match (V2 was not tested)
11 [5a4f8478] (000/585) No match (V2 was not tested)
12 [9b32492d] (000/575) No match (V2 was not tested)
13 [c3b1aab5] (000/588) No match (V2 was not tested)
14 [ca6b4fdf] (000/562) No match (V2 was not tested)

Track Peak [ CRC32 ] [W/O NULL] [ LOG ]
– 98,9 [6C62E973] [483984FB] CRC32
01 98,8 [6FB9F17C] [DBD9CA8F]
02 98,8 [4CAD0BBF] [C0A48A40]
03 98,8 [60179A60] [9132D336]
04 98,8 [FBAB3B18] [50C1A4C7]
05 93,9 [D8196EC8] [171E2FA0]
06 98,8 [C43F7A50] [CDA66B73]
07 98,9 [C6DA1B67] [8E2F2FCB]
08 98,8 [A00F07A9] [B2E2BB2F]
09 98,8 [02104F75] [83302126]
10 98,8 [861D3507] [B89FB3BC]
11 98,8 [12294EB4] [83AEFBDE]
12 98,8 [74812A6A] [D49E3F58]
13 98,8 [0DC1DC34] [6416DBF5]
14 98,8 [06041B81] [E99F7BC2]

Eric Clapton - Me and Mr. Johnson (2004)

All thanks go to the original releaser

Eric Clapton in my Blog

Download Eric Clapton - Me and Mr. Johnson (2004):