Subcategories

Eric Clapton - Music From The Motion Picture Soundtrack: Rush (1992) {2015, Japanese Reissue}

Posted By: popsakov
Eric Clapton - Music From The Motion Picture Soundtrack: Rush (1992) {2015, Japanese Reissue}

Eric Clapton - Music From The Motion Picture Soundtrack: Rush (1992) {2015, Japanese Reissue}
EAC Rip | FLAC (Img) + Cue + Log ~ 288 Mb | MP3 CBR320 ~ 135 Mb
Full Scans | RAR 5% Recovery
Reprise Records / Warner Music Japan #WPCR-80266
Blues / Rock / Jazz / Soundtrack

Music from the Motion Picture Soundtrack Rush is the soundtrack album for the 1991 film of the same name. Written and performed by Eric Clapton, the soundtrack album includes the song "Tears in Heaven," which won three Grammy awards in 1993.

Eric Clapton - Music From The Motion Picture Soundtrack: Rush (1992) {2015, Japanese Reissue}

Rush is an excellent dark blues score written by Eric Clapton (with help on the three songs) and performed by an augmented version of his band. This soundtrack album produced one big hit for Clapton with "Tears in Heaven," but it's a wonderfully intense piece of work all the way through, with some terrific guitar work from Clapton himself. Buddy Guy turns up to add lead vocals and guitar on the 11-minute version of Willie Dixon's "Don't Know Which Way to Go," and that's more than all right too. There's a very good chance that the dark intensity of this music was as much informed by the tragedies in Clapton's life ("Tears in Heaven" is about his son) as the film itself. Whatever the cause, this album has far more impact than you might expect from the score to a movie – there's a sense of the music here working something out in Clapton's heart, a sense given a lot of power thanks to the intense, heart-wrenching passion invoked by some of the turns taken here. At its best, Clapton's music can speak of the pain he feels – and Clapton has rarely been better than he is here.

~ Steven McDonald, All Music

***************

Eric Clapton - Music From The Motion Picture Soundtrack: Rush (1992) {2015, Japanese Reissue}

Eric Clapton - Music From The Motion Picture Soundtrack: Rush (1992) {2015, Japanese Reissue}

Track List:

01. New Recruit [0:01:32.30]
02. Tracks And Lines [0:03:01.68]
03. Realization [0:02:41.55]
04. Kristen And Jim [0:03:40.22]
05. Preludin Fugue [0:03:20.58]
06. Cold Turkey [0:02:24.70]
07. Will Gaines [0:03:50.25]
08. Help Me Up [0:05:53.35]
09. Don't Know Which Way To Go [0:10:48.50]
10. Tears In Heaven [0:04:32.40]

Exact Audio Copy V1.0 beta 3 from 29. August 2011

Отчёт EAC об извлечении, выполненном 16. июня 2016, 21:21

Eric Clapton / Rush

Дисковод: PLEXTOR DVDR PX-755A Adapter: 0 ID: 0

Режим чтения : Достоверность
Использование точного потока : Да
Отключение кэша аудио : Да
Использование указателей C2 : Нет

Коррекция смещения при чтении : 30
Способность читать области Lead-in и Lead-out : Нет
Заполнение пропущенных сэмплов тишиной : Да
Удаление блоков с тишиной в начале и конце : Нет
При вычислениях CRC использовались нулевые сэмплы : Да
Интерфейс : Встроенный Win32-интерфейс для Win NT/2000

Выходной формат : Пользовательский кодировщик
Выбранный битрейт : 1024 kBit/s
Качество : Высокий
Добавление ID3-тега : Нет
Утилита сжатия : C:\Program Files (x86)\Exact Audio Copy\Flac\flac.exe
Дополнительные параметры : -V -8 -T "Date=%year%" -T "Genre=%genre%" %source%


TOC извлечённого CD

Трек | Старт | Длительность | Начальный сектор | Конечный сектор
––––––––––––––––––––––––––––––––––-
1 | 0:00.00 | 1:32.30 | 0 | 6929
2 | 1:32.30 | 3:01.68 | 6930 | 20572
3 | 4:34.23 | 2:41.55 | 20573 | 32702
4 | 7:16.03 | 3:40.22 | 32703 | 49224
5 | 10:56.25 | 3:20.58 | 49225 | 64282
6 | 14:17.08 | 2:24.70 | 64283 | 75152
7 | 16:42.03 | 3:50.25 | 75153 | 92427
8 | 20:32.28 | 5:53.35 | 92428 | 118937
9 | 26:25.63 | 10:48.50 | 118938 | 167587
10 | 37:14.38 | 4:32.40 | 167588 | 188027


Характеристики диапазона извлечения и сообщения об ошибках

Выбранный диапазон

Имя файла E:\РАЗДАЧА\Eric Clapton RUSH (Japan)\Eric Clapton - Rush.wav

Пиковый уровень 100.0 %
Скорость извлечения 7.6 X
Качество диапазона 100.0 %
CRC теста 898ECB75
CRC копии 898ECB75
Копирование… OK

Ошибок не произошло


AccurateRip: сводка

Трек 1 отсутствует в базе данных
Трек 2 отсутствует в базе данных
Трек 3 отсутствует в базе данных
Трек 4 отсутствует в базе данных
Трек 5 отсутствует в базе данных
Трек 6 отсутствует в базе данных
Трек 7 отсутствует в базе данных
Трек 8 отсутствует в базе данных
Трек 9 отсутствует в базе данных
Трек 10 отсутствует в базе данных

Ни одного трека нет в базе AccurateRip

Конец отчёта

Eric Clapton - Music From The Motion Picture Soundtrack: Rush (1992) {2015, Japanese Reissue}


All thanks go to pishin

>>> Eric Clapton in my Blog <<<

DOWNLOAD: