Subcategories

Eric Clapton - No Reason To Cry (1976) {2001, Japanese Reissue, Remastered}

Posted By: popsakov
Eric Clapton - No Reason To Cry (1976) {2001, Japanese Reissue, Remastered}

Eric Clapton - No Reason To Cry (1976) {2001, Japanese Reissue, Remastered}
EAC Rip | FLAC (Img) + Cue + Log ~ 281 Mb | MP3 CBR320 ~ 112 Mb
Full Scans ~ 42 Mb | RAR 5% Recovery
Blues Rock, Classic Rock | Polydor / Universal Music / Victor Entertainment #UICY-9161

When he gave a speech inducting the Band into the Rock & Roll Hall of Fame, Eric Clapton said that after he heard their debut album, Music from Big Pink, he wanted to join the group, the fact that they already had a guitarist in Robbie Robertson notwithstanding. In the winter of 1975-1976, when he cut No Reason to Cry at the Band's Shangri-La Studio in Malibu, California, he came as close as he ever would to realizing that desire. Clapton is a musical chameleon; though some of No Reason to Cry is identifiable as the kind of pop/rock Clapton had been making since the start of his solo career (the best of it being "Hello Old Friend," which became his first Top 40 single in two years), the most memorable music on the album occurs when Clapton is collaborating with members of the Band and other guests. He duets with Band bassist Rick Danko on Danko's "All Our Past Times," and with Bob Dylan on Dylan's "Sign Language," as Robertson's distinctive lead guitar is heard rather than Clapton's. As a result, the album is a good purchase for fans of Bob Dylan and the Band, but not necessarily for those of Eric Clapton.

~ William Ruhlmann, All Music

***************

Eric Clapton - No Reason To Cry (1976) {2001, Japanese Reissue, Remastered}

Eric Clapton - No Reason To Cry (1976) {2001, Japanese Reissue, Remastered}

Track List:

01. Beautiful Thing [0:04:26.28]
02. Carnival [0:03:44.15]
03. Sign Language [0:02:58.15]
04. County Jail Blues [0:04:00.17]
05. All Our Past Times [0:04:40.45]
06. Hello Old Friend [0:03:36.20]
07. Double Trouble [0:04:23.05]
08. Innocent Times [0:04:11.58]
09. Hungry [0:04:39.55]
10. Black Summer Rain [0:04:55.42]
11. Last Night [0:04:52.73]

Exact Audio Copy V1.1 from 23. June 2015

EAC extraction logfile from 15. June 2016, 0:50

Eric Clapton / No Reason To Cry

Used drive : ATAPI iHAS124 D Adapter: 0 ID: 2

Read mode : Secure
Utilize accurate stream : Yes
Defeat audio cache : Yes
Make use of C2 pointers : No

Read offset correction : 6
Overread into Lead-In and Lead-Out : No
Fill up missing offset samples with silence : Yes
Delete leading and trailing silent blocks : No
Null samples used in CRC calculations : Yes
Used interface : Installed external ASPI interface

Used output format : User Defined Encoder
Selected bitrate : 1024 kBit/s
Quality : High
Add ID3 tag : Yes
Command line compressor : C:\Program Files (x86)\Exact Audio Copy\Flac\flac.exe
Additional command line options : -6 -V -T "ARTIST=%artist%" -T "TITLE=%title%" -T "ALBUM=%albumtitle%" -T "DATE=%year%" -T "TRACKNUMBER=%tracknr%" -T "GENRE=%genre%" -T "COMMENT=%comment%" -T "BAND=%albuminterpret%" -T "COMPOSER=%composer%" %haslyrics%–tag-from-file=LYRICS="%lyricsfile%"%haslyrics% -T "DISCNUMBER=%cdnumber%" -T "TOTALDISCS=%totalcds%" -T "TOTALTRACKS=%numtracks%" %hascover%–picture="%coverfile%"%hascover% %source% -o %dest%


TOC of the extracted CD

Track | Start | Length | Start sector | End sector
––––––––––––––––––––––––––––-
1 | 0:00.00 | 4:26.28 | 0 | 19977
2 | 4:26.28 | 3:44.15 | 19978 | 36792
3 | 8:10.43 | 2:58.15 | 36793 | 50157
4 | 11:08.58 | 4:00.17 | 50158 | 68174
5 | 15:09.00 | 4:40.45 | 68175 | 89219
6 | 19:49.45 | 3:36.20 | 89220 | 105439
7 | 23:25.65 | 4:23.05 | 105440 | 125169
8 | 27:48.70 | 4:11.58 | 125170 | 144052
9 | 32:00.53 | 4:39.55 | 144053 | 165032
10 | 36:40.33 | 4:55.42 | 165033 | 187199
11 | 41:36.00 | 4:52.73 | 187200 | 209172


Range status and errors

Selected range

Filename C:\mm\Eric Clapton\1976(2001) - No Reason To Cry {Paper Sleeve Collection. Advanced Edition} [UICY-9161]\Eric Clapton - No Reason To Cry.wav

Peak level 94.3 %
Extraction speed 8.3 X
Range quality 100.0 %
Test CRC 7F260D7A
Copy CRC 7F260D7A
Copy OK

No errors occurred


AccurateRip summary

Track 1 cannot be verified as accurate (confidence 6) [443EF599], AccurateRip returned [5B6FC8EC] (AR v2)
Track 2 cannot be verified as accurate (confidence 6) [FCADDF1C], AccurateRip returned [E60FD734] (AR v2)
Track 3 cannot be verified as accurate (confidence 6) [20492E80], AccurateRip returned [1FCF0ECA] (AR v2)
Track 4 cannot be verified as accurate (confidence 6) [B4B1A010], AccurateRip returned [F9585921] (AR v2)
Track 5 cannot be verified as accurate (confidence 6) [EAAF9AD9], AccurateRip returned [0497F977] (AR v2)
Track 6 cannot be verified as accurate (confidence 6) [8FD59911], AccurateRip returned [3475F715] (AR v2)
Track 7 cannot be verified as accurate (confidence 6) [3F972123], AccurateRip returned [F6CB4B3A] (AR v2)
Track 8 cannot be verified as accurate (confidence 6) [5ABD8044], AccurateRip returned [427808B1] (AR v2)
Track 9 cannot be verified as accurate (confidence 6) [684ED932], AccurateRip returned [CB97037C] (AR v2)
Track 10 cannot be verified as accurate (confidence 6) [4346BF72], AccurateRip returned [EF9093A3] (AR v2)
Track 11 cannot be verified as accurate (confidence 6) [90969AC8], AccurateRip returned [EA4D1F28] (AR v2)

No tracks could be verified as accurate
You may have a different pressing from the one(s) in the database

End of status report

–– CUETools DB Plugin V2.1.6

[CTDB TOCID: kYzpuj1xzwIzyREW.u5yhArrmo0-] found
Submit result: kYzpuj1xzwIzyREW.u5yhArrmo0- has been uploaded
Track | CTDB Status
1 | (4/4) Accurately ripped
2 | (4/4) Accurately ripped
3 | (4/4) Accurately ripped
4 | (4/4) Accurately ripped
5 | (4/4) Accurately ripped
6 | (4/4) Accurately ripped
7 | (4/4) Accurately ripped
8 | (4/4) Accurately ripped
9 | (4/4) Accurately ripped
10 | (4/4) Accurately ripped
11 | (4/4) Accurately ripped

[CUETools log; Date: 28.09.2019 17:16:30; Version: 2.1.6]
[CTDB TOCID: kYzpuj1xzwIzyREW.u5yhArrmo0-] found.
Track | CTDB Status
1 | (26/26) Accurately ripped
2 | (26/26) Accurately ripped
3 | (26/26) Accurately ripped
4 | (26/26) Accurately ripped
5 | (26/26) Accurately ripped
6 | (26/26) Accurately ripped
7 | (26/26) Accurately ripped
8 | (26/26) Accurately ripped
9 | (26/26) Accurately ripped
10 | (26/26) Accurately ripped
11 | (26/26) Accurately ripped
[AccurateRip ID: 00125109-009ff3fe-8a0ae40b] found.
Track [ CRC | V2 ] Status
01 [a3fa9352|443ef599] (00+03/18) Accurately ripped
02 [0830adcd|fcaddf1c] (00+03/18) Accurately ripped
03 [3f414686|20492e80] (00+03/17) Accurately ripped
04 [98a0573d|b4b1a010] (00+03/18) Accurately ripped
05 [be05566a|eaaf9ad9] (00+03/18) Accurately ripped
06 [77f540f7|8fd59911] (00+03/18) Accurately ripped
07 [00210e0a|3f972123] (00+03/18) Accurately ripped
08 [2552ec53|5abd8044] (00+03/18) Accurately ripped
09 [5d577fde|684ed932] (00+03/18) Accurately ripped
10 [27db4101|4346bf72] (00+03/17) Accurately ripped
11 [f0b685df|90969ac8] (00+03/18) Accurately ripped
Offsetted by 730:
01 [ba08fd2e] (03/18) Accurately ripped
02 [c665e607] (03/18) Accurately ripped
03 [e6350e00] (03/17) Accurately ripped
04 [c3407a25] (03/18) Accurately ripped
05 [deeda62c] (03/18) Accurately ripped
06 [eab351cf] (03/18) Accurately ripped
07 [b31818ac] (03/18) Accurately ripped
08 [f7dea107] (03/18) Accurately ripped
09 [cb97e534] (03/18) Accurately ripped
10 [edf9f4cd] (03/17) Accurately ripped
11 [6360dacf] (03/18) Accurately ripped

Track Peak [ CRC32 ] [W/O NULL] [ LOG ]
– 94,3 [7F260D7A] [05F42862] CRC32
01 79,5 [40B0E3C0] [04BD19AB]
02 93,2 [D42ED877] [DA49BEE3]
03 80,3 [ACA8B902] [3A149D56]
04 94,3 [9089A505] [A5D99E07]
05 86,6 [004522BC] [4B9A390F]
06 86,3 [EAD2F4FD] [7ED44528]
07 83,9 [23485714] [1B849AF6]
08 68,7 [4756C5E4] [EA846BC3]
09 81,8 [E4346A47] [B2EE3B96]
10 80,7 [AE4F3EA0] [7B743086]
11 70,5 [C8F48659] [7153CA5D]

Eric Clapton - No Reason To Cry (1976) {2001, Japanese Reissue, Remastered}


All thanks go to sergych

>>> Eric Clapton in my Blog <<<

DOWNLOAD: