Subcategories

Eric Clapton - Sessions For Robert J (2004)

Posted By: v3122
Eric Clapton - Sessions For Robert J (2004)

Eric Clapton - Sessions For Robert J (2004)
EAC | Flac(Image) + Cue + Log & MP3 CBR 320Kbps
Reprise, 9362-48926-2 | ~ 310 or 102 Mb | Scans(jpg) -> 38 Mb
Blues Rock / Classic Rock

It appears that Eric Clapton had more Robert Johnson in his blood than he thought – or perhaps it was planned this way. This DVD/CD set (and really, it's not the other way around despite the packaging), showcases Clapton mining the Robert Johnson vein ever more deeply in no less than four different settings. The DVD features 19 acoustic and electric performances recorded in rehearsal spaces in Dallas and in England, as well as in the 508 Park Ave. in Dallas, a studio Johnson himself recorded in, in 1937. There is one more segment, a recorded solo acoustic in a hotel room in California. The band that joins Clapton in the rehearsal studios is comprised of guitar master Doyle Bramhall, organist Billy Preston, Steve Gadd on drums, pianist Chris Stainton and Nathan East on bass. The electric performances, particularly "Milkcow's Calf 's Blues," "Stop Breakin' Down Blues," and especially "I Wish I Had Possession Over Judgment Day," have some real life and stomp in them. Of the acoustic tracks, "Terraplane Blues" works best. The DVD also contains a selection of behind-the-scenes footage that will be of interest only to those fans who need to see everything. The CD contains 11 cuts culled from the DVD and the sequencing is in some ways preferable.


by Thom Jurek, allmusic
Eric Clapton - Sessions For Robert J (2004)


Eric Clapton - Sessions For Robert J (2004):

Eric Clapton - Sessions For Robert J (2004)

Tracklist:

01. Sweet Home Chicago [05:17]
02. Milkcow's Calf Blues [03:49]
03. Terraplane Blues [03:36]
04. If I Had Possession Over Judgement Day [03:23]
05. Stop Breakin' Down Blues [02:56]
06. Little Queen Of Spades [05:27]
07. Traveling Riverside Blues [04:26]
08. Me And The Devil Blues [02:50]
09. From Four Until Late [03:01]
10. Kind Hearted Woman Blues [05:39]
11. Ramblin' On My Mind [02:42]

Exact Audio Copy V0.99 prebeta 5 from 4. May 2009

EAC extraction logfile from 11. February 2015, 13:26

ERIC CLAPTON / Sessions For Robert J ( 9362-48926-2 )

Used drive : ASUS DRW-24B3ST Adapter: 0 ID: 0

Read mode : Secure
Utilize accurate stream : Yes
Defeat audio cache : Yes
Make use of C2 pointers : No

Read offset correction : 6
Overread into Lead-In and Lead-Out : No
Fill up missing offset samples with silence : Yes
Delete leading and trailing silent blocks : No
Null samples used in CRC calculations : Yes
Used interface : Native Win32 interface for Win NT & 2000

Used output format : User Defined Encoder
Selected bitrate : 1024 kBit/s
Quality : High
Add ID3 tag : No
Command line compressor : C:\Program Files (x86)\EAC\WV\wavpack.exe
Additional command line options : -h -hh -m %s %d


TOC of the extracted CD

Track | Start | Length | Start sector | End sector
––––––––––––––––––––––––––––-
1 | 0:00.00 | 5:17.62 | 0 | 23836
2 | 5:17.62 | 3:49.65 | 23837 | 41076
3 | 9:07.52 | 3:36.48 | 41077 | 57324
4 | 12:44.25 | 3:23.37 | 57325 | 72586
5 | 16:07.62 | 2:56.65 | 72587 | 85851
6 | 19:04.52 | 5:27.58 | 85852 | 110434
7 | 24:32.35 | 4:26.42 | 110435 | 130426
8 | 28:59.02 | 2:50.20 | 130427 | 143196
9 | 31:49.22 | 3:01.20 | 143197 | 156791
10 | 34:50.42 | 5:39.05 | 156792 | 182221
11 | 40:29.47 | 2:42.15 | 182222 | 194386
12 | 45:43.62 | 2:00.22 | 205787 | 214808


Range status and errors

Selected range

Filename W:\ERIC CLAPTON\ERIC CLAPTON - Sessions For Robert J (EU 2004 Reprise Records • 9362-48926-2)\ERIC CLAPTON - Sessions For Robert J ( 9362-48926-2 ).wav

Peak level 100.0 %
Range quality 100.0 %
Test CRC 0712BD60
Copy CRC 0712BD60
Copy OK

No errors occurred


AccurateRip summary

Track 1 accurately ripped (confidence 102) [F44EA9DD]
Track 2 accurately ripped (confidence 104) [FCD40FA5]
Track 3 accurately ripped (confidence 103) [6BA2C370]
Track 4 accurately ripped (confidence 103) [471B2B44]
Track 5 accurately ripped (confidence 102) [AC9127F4]
Track 6 accurately ripped (confidence 102) [90DFDF16]
Track 7 accurately ripped (confidence 102) [5A53479B]
Track 8 accurately ripped (confidence 103) [C61BCE93]
Track 9 accurately ripped (confidence 103) [11ABAE97]
Track 10 accurately ripped (confidence 100) [7FB49915]
Track 11 accurately ripped (confidence 102) [0C52E101]

All tracks accurately ripped

End of status report

foobar2000 1.2.9 / Dynamic Range Meter 1.1.1
log date: 2016-12-26 17:55:44

––––––––––––––––––––––––––––––––––––––––
Analyzed: ERIC CLAPTON / Sessions For Robert J ( 9362-48926-2 )
––––––––––––––––––––––––––––––––––––––––

DR Peak RMS Duration Track
––––––––––––––––––––––––––––––––––––––––
DR5 -0.10 dB -6.08 dB 5:18 01-Sweet Home Chicago
DR6 0.00 dB -7.77 dB 3:50 02-Milkcow's Calf Blues
DR7 -0.10 dB -8.51 dB 3:37 03-Terraplane Blues
DR6 0.00 dB -7.21 dB 3:23 04-If I Had Possession Over Judgement Day
DR6 -0.10 dB -7.30 dB 2:57 05-Stop Breakin' Down Blues
DR6 -0.10 dB -8.08 dB 5:28 06-Little Queen Of Spades
DR6 -0.10 dB -7.28 dB 4:27 07-Traveling Riverside Blues
DR10 -0.10 dB -12.95 dB 2:50 08-Me And The Devil Blues
DR10 -0.10 dB -12.92 dB 3:01 09-From Four Until Late
DR6 -0.10 dB -7.96 dB 5:39 10-Kind Hearted Woman Blues
DR11 -0.10 dB -13.78 dB 2:42 11-Ramblin' On My Mind
––––––––––––––––––––––––––––––––––––––––

Number of tracks: 11
Official DR value: DR7

Samplerate: 44100 Hz
Channels: 2
Bits per sample: 16
Bitrate: 931 kbps
Codec: FLAC

[CUETools log; Date: 26.12.2016 17:55:36; Version: 2.1.4]
CD-Extra data track length 02:00:22.
[CTDB TOCID: KdbfF.ntx4oen9ny4ZFI.QT7aPg-] found.
Track | CTDB Status
1 | (284/289) Accurately ripped
2 | (287/289) Accurately ripped
3 | (288/289) Accurately ripped
4 | (288/289) Accurately ripped
5 | (284/289) Accurately ripped
6 | (287/289) Accurately ripped
7 | (286/289) Accurately ripped
8 | (285/289) Accurately ripped
9 | (285/289) Accurately ripped
10 | (283/289) Accurately ripped
11 | (286/289) Accurately ripped
[AccurateRip ID: 00129800-00a0bab5-aa0b300c] found.
Track [ CRC | V2 ] Status
01 [f44ea9dd|ab28435c] (102+121/338) Accurately ripped
02 [fcd40fa5|bba6013c] (104+122/343) Accurately ripped
03 [6ba2c370|ddad2a9a] (103+123/342) Accurately ripped
04 [471b2b44|af802b80] (103+124/344) Accurately ripped
05 [ac9127f4|59a091e5] (102+122/341) Accurately ripped
06 [90dfdf16|84e571b6] (102+123/342) Accurately ripped
07 [5a53479b|f7af98a5] (102+123/343) Accurately ripped
08 [c61bce93|f22800e9] (103+122/341) Accurately ripped
09 [11abae97|db32d52f] (103+123/342) Accurately ripped
10 [7fb49915|e7b8af11] (100+122/339) Accurately ripped
11 [0c52e101|d68e0b04] (102+123/338) Accurately ripped
Offsetted by -132:
01 [cca58e7d] (002/338) Accurately ripped
02 [19841aed] (002/343) Accurately ripped
03 [f131be80] (002/342) Accurately ripped
04 [9ca41bbc] (002/344) Accurately ripped
05 [6ab4c904] (002/341) Accurately ripped
06 [10e0daf6] (002/342) Accurately ripped
07 [2f2fb1cf] (002/343) Accurately ripped
08 [15fa022f] (002/341) Accurately ripped
09 [b1549ce7] (002/342) Accurately ripped
10 [807c6089] (002/339) Accurately ripped
11 [f9f68ae9] (002/338) Accurately ripped
Offsetted by -6:
01 [9569e2cd] (058/338) Accurately ripped
02 [1567b311] (059/343) Accurately ripped
03 [20408908] (057/342) Accurately ripped
04 [e2444d78] (058/344) Accurately ripped
05 [a992c68c] (058/341) Accurately ripped
06 [96b15ee6] (058/342) Accurately ripped
07 [e4003529] (059/343) Accurately ripped
08 [556016bd] (057/341) Accurately ripped
09 [bbd6450f] (057/342) Accurately ripped
10 [8b609683] (058/339) Accurately ripped
11 [2e65f45d] (054/338) Accurately ripped
Offsetted by -712:
01 [f797b91d] (000/338) No match (V2 was not tested)
02 [b69925b5] (000/343) No match (V2 was not tested)
03 [cf6fb090] (000/342) No match (V2 was not tested)
04 [3381b0b4] (000/344) No match (V2 was not tested)
05 [f3fc0114] (000/341) No match (V2 was not tested)
06 [4351c8d6] (000/342) No match (V2 was not tested)
07 [8126bac3] (000/343) No match (V2 was not tested)
08 [846d420b] (000/341) No match (V2 was not tested)
09 [9d696e37] (000/342) No match (V2 was not tested)
10 [936e12bd] (000/339) No match (V2 was not tested)
11 [827fda51] (000/338) No match (V2 was not tested)
Offsetted by -676:
01 [30f4637d] (000/338) No match (V2 was not tested)
02 [2323512d] (000/343) No match (V2 was not tested)
03 [93bd0f00] (000/342) No match (V2 was not tested)
04 [908ae37c] (000/344) No match (V2 was not tested)
05 [05f24984] (000/341) No match (V2 was not tested)
06 [2068c9f6] (000/342) No match (V2 was not tested)
07 [4719296f] (000/343) No match (V2 was not tested)
08 [28d3910f] (000/341) No match (V2 was not tested)
09 [a069e767] (000/342) No match (V2 was not tested)
10 [4d662229] (000/339) No match (V2 was not tested)
11 [b60d6629] (000/338) No match (V2 was not tested)
Offsetted by -670:
01 [8fd92a8d] (000/338) No match (V2 was not tested)
02 [0a8fadc1] (000/343) No match (V2 was not tested)
03 [df1f4968] (000/342) No match (V2 was not tested)
04 [f561c148] (000/344) No match (V2 was not tested)
05 [08f0aaec] (000/341) No match (V2 was not tested)
06 [1a974a26] (000/342) No match (V2 was not tested)
07 [bd6c3be1] (000/343) No match (V2 was not tested)
08 [998f48e5] (000/341) No match (V2 was not tested)
09 [f63f50ef] (000/342) No match (V2 was not tested)
10 [41ba24bb] (000/339) No match (V2 was not tested)
11 [93fa52cd] (000/338) No match (V2 was not tested)
Offsetted by -664:
01 [eebdf19d] (000/338) No match (V2 was not tested)
02 [f1fc0a55] (000/343) No match (V2 was not tested)
03 [2a8183d0] (000/342) No match (V2 was not tested)
04 [5a389f14] (000/344) No match (V2 was not tested)
05 [0bef0c54] (000/341) No match (V2 was not tested)
06 [14c5ca56] (000/342) No match (V2 was not tested)
07 [33bf4e53] (000/343) No match (V2 was not tested)
08 [0a4b00bb] (000/341) No match (V2 was not tested)
09 [4c14ba77] (000/342) No match (V2 was not tested)
10 [360e274d] (000/339) No match (V2 was not tested)
11 [71e73f71] (000/338) No match (V2 was not tested)
Offsetted by -138:
01 [6dc0c76d] (000/338) No match (V2 was not tested)
02 [3217be59] (000/343) No match (V2 was not tested)
03 [a5cf8418] (000/342) No match (V2 was not tested)
04 [37cd3df0] (000/344) No match (V2 was not tested)
05 [67b6679c] (000/341) No match (V2 was not tested)
06 [16b25ac6] (000/342) No match (V2 was not tested)
07 [b8dc9f5d] (000/343) No match (V2 was not tested)
08 [a53e4a59] (000/341) No match (V2 was not tested)
09 [5b7f335f] (000/342) No match (V2 was not tested)
10 [8c285df7] (000/339) No match (V2 was not tested)
11 [1c099e45] (000/338) No match (V2 was not tested)
Offsetted by 10:
01 [9276a04d] (000/338) No match (V2 was not tested)
02 [7e88a9f1] (000/343) No match (V2 was not tested)
03 [93f124c8] (000/342) No match (V2 was not tested)
04 [44814798] (000/344) No match (V2 was not tested)
05 [06e3ca4c] (000/341) No match (V2 was not tested)
06 [872d5f66] (000/342) No match (V2 was not tested)
07 [1f886659] (000/343) No match (V2 was not tested)
08 [81ff564d] (000/341) No match (V2 was not tested)
09 [4b64b3cf] (000/342) No match (V2 was not tested)
10 [c195f2b3] (000/339) No match (V2 was not tested)
11 [28ddc0bd] (000/338) No match (V2 was not tested)

Track Peak [ CRC32 ] [W/O NULL] [ LOG ]
– 100,0 [0712BD60] [EB210285] CRC32
01 98,8 [3C67A5B5] [71A89B4F]
02 100,0 [DA9683E5] [977DC0F4]
03 98,8 [ED20EBD3] [2927B889]
04 100,0 [E1528438] [662AA72B]
05 98,8 [8CBE1952] [C3A9C230]
06 98,8 [30A8BD90] [0087C2A8]
07 98,8 [34CFFA6A] [7DB64342]
08 98,8 [2DBDC489] [F97A2863]
09 98,8 [690D4DE4] [3BDE0912]
10 98,8 [63AD53E9] [0383C6AD]
11 98,8 [D9B26E33] [2283BC2A]

Eric Clapton - Sessions For Robert J (2004)

All thanks go to the original releaser

Eric Clapton in my Blog

Download Eric Clapton - Sessions For Robert J (2004):