Subcategories

Eric Clapton - The Cream Of Eric Clapton (1987)

Posted By: popsakov
Eric Clapton - The Cream Of Eric Clapton (1987)

Eric Clapton - The Cream Of Eric Clapton (1987)
EAC Rip | FLAC (Img) + Cue + Log ~ 446 Mb | MP3 CBR320 ~ 162 Mb
Full Scans ~ 49 Mb | 01:07:08 | RAR 5% Recovery
Blues Rock, Soft Rock, Classic Rock | Polydor #833 519-2 / 833 519-2 7H

The Cream of Eric Clapton is a strong collection that provides an excellent overview of one of rock music's premier performers. Though the title might imply that the selections here are from Clapton's recordings as a part of the British supergroup Cream, the range is much broader, beginning with Clapton's earliest professional work with the Yardbirds and concluding with many of his most popular solo hits. There's an excellent historical perspective in the choices included, and this is an excellent introduction to Clapton's career. Of particular historical interest are "Crossroads," "I Shot the Sheriff," and "Behind the Mask," which showcase the eclectic influences that form Clapton's career. Much of the increased mainstream interest in traditional blues, reggae, and electronica can be credited to these cover versions, which introduced the works of Robert Johnson and Bob Marley to a wider audience.

~ Richard Gilliam, All Music
Eric Clapton - The Cream Of Eric Clapton (1987)


***************

Eric Clapton - The Cream Of Eric Clapton (1987)

Eric Clapton - The Cream Of Eric Clapton (1987)

Track List:

01. Layla [0:07:10.00]
02. Badge [0:02:43.38]
03. I Feel Free [0:02:54.37]
04. Sunshine Of Your Love [0:04:13.05]
05. Crossroads [0:04:12.70]
06. Strange Brew [0:02:48.05]
07. White Room [0:05:01.35]
08. Cocaine [0:03:35.40]
09. I Shot The Sheriff [0:04:24.58]
10. Behind The Mask [0:03:41.15]
11. Forever Man [0:03:10.40]
12. Lay Down Sally [0:03:51.60]
13. Knockin' On Heaven's Door [0:04:24.22]
14. Wonderful Tonight [0:03:41.05]
15. Let It Grow [0:04:59.25]
16. Promises [0:03:02.33]
17. I've Got A Rock 'N' Roll Heart [0:03:13.62]

Exact Audio Copy V1.0 beta 3 from 29. August 2011

EAC extraction logfile from 2. August 2014, 1:45

Eric Clapton / The Cream Of Eric Clapton

Used drive : ATAPI iHAS124 D Adapter: 0 ID: 2

Read mode : Secure
Utilize accurate stream : Yes
Defeat audio cache : Yes
Make use of C2 pointers : No

Read offset correction : 6
Overread into Lead-In and Lead-Out : No
Fill up missing offset samples with silence : Yes
Delete leading and trailing silent blocks : No
Null samples used in CRC calculations : Yes
Used interface : Installed external ASPI interface

Used output format : User Defined Encoder
Selected bitrate : 1024 kBit/s
Quality : High
Add ID3 tag : No
Command line compressor : C:\Program Files (x86)\Exact Audio Copy\Flac\flac.exe
Additional command line options : -6 -V -T "ARTIST=%artist%" -T "TITLE=%title%" -T "ALBUM=%albumtitle%" -T "DATE=%year%" -T "TRACKNUMBER=%tracknr%" -T "GENRE=%genre%" -T "COMMENT=%comment%" -T "BAND=%albuminterpret%" -T "COMPOSER=%composer%" %haslyrics%–tag-from-file=LYRICS="%lyricsfile%"%haslyrics% -T "DISCNUMBER=%cdnumber%" -T "TOTALDISCS=%totalcds%" -T "TOTALTRACKS=%numtracks%" %hascover%–picture="%coverfile%"%hascover% %source% -o %dest%


TOC of the extracted CD

Track | Start | Length | Start sector | End sector
––––––––––––––––––––––––––––-
1 | 0:00.32 | 7:10.00 | 32 | 32281
2 | 7:10.32 | 2:43.38 | 32282 | 44544
3 | 9:53.70 | 2:54.37 | 44545 | 57631
4 | 12:48.32 | 4:13.05 | 57632 | 76611
5 | 17:01.37 | 4:12.70 | 76612 | 95581
6 | 21:14.32 | 2:48.05 | 95582 | 108186
7 | 24:02.37 | 5:01.35 | 108187 | 130796
8 | 29:03.72 | 3:35.40 | 130797 | 146961
9 | 32:39.37 | 4:24.58 | 146962 | 166819
10 | 37:04.20 | 3:41.15 | 166820 | 183409
11 | 40:45.35 | 3:10.40 | 183410 | 197699
12 | 43:56.00 | 3:51.60 | 197700 | 215084
13 | 47:47.60 | 4:24.22 | 215085 | 234906
14 | 52:12.07 | 3:41.05 | 234907 | 251486
15 | 55:53.12 | 4:59.25 | 251487 | 273936
16 | 60:52.37 | 3:02.33 | 273937 | 287619
17 | 63:54.70 | 3:13.62 | 287620 | 302156


Range status and errors

Selected range

Filename C:\mm\Eric Clapton\1987 - The Cream Of Eric Clapton [833 519-2 7H]\Eric Clapton - The Cream Of Eric Clapton.wav

Peak level 100.0 %
Extraction speed 3.7 X
Range quality 100.0 %
Test CRC AA3A44F0
Copy CRC AA3A44F0
Copy OK

No errors occurred


AccurateRip summary

Track 1 accurately ripped (confidence 44) [F6D0B216] (AR v2)
Track 2 accurately ripped (confidence 45) [87BD5C27] (AR v2)
Track 3 accurately ripped (confidence 44) [7DB24325] (AR v2)
Track 4 accurately ripped (confidence 43) [1C1C065D] (AR v2)
Track 5 accurately ripped (confidence 44) [36FAAB46] (AR v2)
Track 6 accurately ripped (confidence 44) [EA2B9B58] (AR v2)
Track 7 accurately ripped (confidence 44) [D26E0DFA] (AR v2)
Track 8 accurately ripped (confidence 46) [0E49419B] (AR v2)
Track 9 accurately ripped (confidence 44) [0E68D478] (AR v2)
Track 10 accurately ripped (confidence 44) [91F72541] (AR v2)
Track 11 accurately ripped (confidence 46) [16FB3E8B] (AR v2)
Track 12 accurately ripped (confidence 44) [C174600B] (AR v2)
Track 13 accurately ripped (confidence 44) [4E3C056D] (AR v2)
Track 14 accurately ripped (confidence 46) [71EEE2D3] (AR v2)
Track 15 accurately ripped (confidence 43) [25511582] (AR v2)
Track 16 accurately ripped (confidence 44) [9FF501DD] (AR v2)
Track 17 accurately ripped (confidence 45) [A6526C69] (AR v2)

All tracks accurately ripped

End of status report

[CUETools log; Date: 08.08.2016 1:01:48; Version: 2.1.5]
Pregap length 00:00:32.
[CTDB TOCID: sWhogvI1ewGPzDc7AxltBwwyhgc-] found.
Track | CTDB Status
1 | (120/121) Accurately ripped
2 | (119/121) Accurately ripped, or (1/121) differs in 60 samples @00:00:33
3 | (118/121) Accurately ripped, or (1/121) differs in 15 samples @00:00:33
4 | (119/121) Accurately ripped, or (1/121) differs in 20 samples @00:00:33
5 | (118/121) Accurately ripped
6 | (119/121) Accurately ripped
7 | (118/121) Accurately ripped
8 | (119/121) Accurately ripped
9 | (119/121) Accurately ripped, or (1/121) differs in 30 samples @00:00:34
10 | (119/121) Accurately ripped
11 | (119/121) Accurately ripped, or (1/121) differs in 20 samples @00:00:34
12 | (119/121) Accurately ripped
13 | (120/121) Accurately ripped
14 | (120/121) Accurately ripped
15 | (118/121) Accurately ripped
16 | (120/121) Accurately ripped
17 | (119/121) Accurately ripped
[AccurateRip ID: 002acffa-02182ab6-fb0fbc11] found.
Track [ CRC | V2 ] Status
01 [02723ef8|f6d0b216] (056+055/306) Accurately ripped
02 [2d9cda63|87bd5c27] (057+056/306) Accurately ripped
03 [e0ab3ebf|7db24325] (057+055/309) Accurately ripped
04 [512ce16d|1c1c065d] (057+054/305) Accurately ripped
05 [4a20d3ff|36faab46] (058+055/306) Accurately ripped
06 [3531068c|ea2b9b58] (058+055/308) Accurately ripped
07 [5fc48c45|d26e0dfa] (057+055/306) Accurately ripped
08 [a42dbfe8|0e49419b] (058+057/311) Accurately ripped
09 [8afa8c7e|0e68d478] (056+055/309) Accurately ripped
10 [d35d867b|91f72541] (057+055/306) Accurately ripped
11 [141ab4bc|16fb3e8b] (058+057/310) Accurately ripped
12 [121fcef4|c174600b] (057+055/307) Accurately ripped
13 [c9250c86|4e3c056d] (057+055/308) Accurately ripped
14 [1f500a19|71eee2d3] (056+055/305) Accurately ripped
15 [fce6875c|25511582] (056+052/301) Accurately ripped
16 [75c9294d|9ff501dd] (057+054/301) Accurately ripped
17 [cfa69ffb|a6526c69] (054+055/300) Accurately ripped
Offsetted by -536:
01 [b8f51d4c] (004/306) Accurately ripped
02 [cf30030b] (003/306) Accurately ripped
03 [b2d1b313] (004/309) Accurately ripped
04 [d6876f6b] (004/305) Accurately ripped
05 [dcf083d0] (004/306) Accurately ripped
06 [f4615a43] (004/308) Accurately ripped
07 [4ade6b8d] (004/306) Accurately ripped
08 [3c5ac3ac] (004/311) Accurately ripped
09 [7314ed92] (004/309) Accurately ripped
10 [daf978cf] (004/306) Accurately ripped
11 [1cd51a0c] (004/310) Accurately ripped
12 [05066446] (004/307) Accurately ripped
13 [c89ff8f6] (004/308) Accurately ripped
14 [ecc31b91] (004/305) Accurately ripped
15 [42bb06a4] (004/301) Accurately ripped
16 [590f59ad] (004/301) Accurately ripped
17 [f030f82d] (004/300) Accurately ripped
Offsetted by -279:
01 [0454231a] (015/306) Accurately ripped
02 [57de2ff4] (014/306) Accurately ripped
03 [3acedffa] (014/309) Accurately ripped
04 [03613852] (014/305) Accurately ripped
05 [f3e46018] (012/306) Accurately ripped
06 [d9847b4c] (014/308) Accurately ripped
07 [b488f903] (013/306) Accurately ripped
08 [a531d979] (014/311) Accurately ripped
09 [12ddfe23] (015/309) Accurately ripped
10 [06e74a87] (014/306) Accurately ripped
11 [9bda4b5b] (014/310) Accurately ripped
12 [78e9bfa8] (015/307) Accurately ripped
13 [1bcec49d] (014/308) Accurately ripped
14 [2defd77a] (014/305) Accurately ripped
15 [4817df29] (014/301) Accurately ripped
16 [2471fea9] (014/301) Accurately ripped
17 [546b11de] (015/300) Accurately ripped
Offsetted by -17:
01 [94f125a3] (005/306) Accurately ripped
02 [74d56ae4] (005/306) Accurately ripped
03 [3fc47cc4] (005/309) Accurately ripped
04 [e57cd3e4] (005/305) Accurately ripped
05 [c4176863] (005/306) Accurately ripped
06 [3bbd120c] (005/308) Accurately ripped
07 [ff545f57] (005/306) Accurately ripped
08 [78635058] (005/311) Accurately ripped
09 [54ffa3e1] (005/309) Accurately ripped
10 [4ceea9b6] (005/306) Accurately ripped
11 [72d1e4e2] (005/310) Accurately ripped
12 [728286ab] (005/307) Accurately ripped
13 [ce816eea] (005/308) Accurately ripped
14 [e226f695] (005/305) Accurately ripped
15 [d4b37cb7] (005/301) Accurately ripped
16 [4874f091] (004/301) Accurately ripped
17 [baae02d5] (004/300) Accurately ripped
Offsetted by 472:
01 [31da3a61] (078/306) Accurately ripped
02 [494a9306] (077/306) Accurately ripped
03 [bfa4329c] (079/309) Accurately ripped
04 [95f161de] (077/305) Accurately ripped
05 [2eb3fed8] (078/306) Accurately ripped
06 [8a1d1e98] (078/308) Accurately ripped
07 [a379698f] (079/306) Accurately ripped
08 [e6906f0d] (079/311) Accurately ripped
09 [533f09b8] (080/309) Accurately ripped
10 [caa93b76] (078/306) Accurately ripped
11 [70c5cb77] (077/310) Accurately ripped
12 [694eb406] (077/307) Accurately ripped
13 [e7488e4e] (079/308) Accurately ripped
14 [72355e90] (078/305) Accurately ripped
15 [4661f6d5] (076/301) Accurately ripped
16 [2418b9ed] (076/301) Accurately ripped
17 [8f1beb20] (076/300) Accurately ripped

Track Peak [ CRC32 ] [W/O NULL] [ LOG ]
– 100,0 [AA3A44F0] [1BE90CE1] CRC32
01 79,0 [B45C8F7F] [F6D9B83F]
02 92,4 [D2FDED6D] [4E7BF7F0]
03 64,9 [C6122DE8] [59D97434]
04 86,9 [FB515827] [88933A03]
05 93,7 [705218F4] [F5009A11]
06 100,0 [9546EE3D] [3AEC2EDD]
07 90,3 [57CF08A6] [16DC7E55]
08 96,6 [B57E8ACE] [D5EC2C1D]
09 94,1 [B4F27B8E] [FD3C3CCF]
10 92,8 [D60BBAE2] [85F575ED]
11 93,5 [DE2D92D5] [15A4363D]
12 92,9 [A5CA504C] [89EA84C8]
13 100,0 [80241303] [98450CFA]
14 100,0 [D68715B3] [E27A205D]
15 95,3 [EDC6F892] [3982D416]
16 97,7 [8C48F226] [04DD9F35]
17 79,7 [FEE158A2] [7E56860C]

Eric Clapton - The Cream Of Eric Clapton (1987)


All thanks go to sergych

>>> Eric Clapton in my Blog <<<

DOWNLOAD: