Eric Johnson - Live From Austin TX '84 (2010)

Posted By: Oksana_m
Eric Johnson - Live From Austin TX '84 (2010)

Eric Johnson - Live From Austin TX '84 (2010)
EAC | Flac(Image) + Cue + Log > 272 Mb | Mp3 CBR 320Kpbs > 105 Mb
Blues/Hard Rock | TT - 44:43 | Label: New West Records | Cat. # NW6196 | USA
Scans (png) > 42 Mb | NitroFlare, FileFactory

Eric Johnson is held in such high regard as a guitarist, and his releases of new recordings are so infrequent, that a significant part of his discography has come to consist of juvenilia and other archival recordings. Live from Austin, TX '84 is not to be confused with the 2005 album Live from Austin TX. The earlier album chronicled a 1988 performance by Johnson; this one, as the title indicates, goes back a further four years, though it also chronicles an appearance on Austin City Limits. The difference is notable, since 1984 was two years before Johnson's national debut album, Tones. Here, however, he is already well formed, displaying a remarkable mastery of the guitar and of a variety of styles. He takes an architectural solo on the early instrumental "Friends," then performs a four-song acoustic mini-set that includes "Song for Life," which has a Renaissance flavor; a version of Paul Simon's "April Come She Will"; his "Tribute to Jerry Reed" (later to turn up on an official album); and the intricate "I'm Finding You." The range of his influences is indicated by the inclusions of Lalo Schifrin's jazzy "Down Here on the Ground," a tune written for the 1968 film Cool Hand Luke, and (no surprise) Jimi Hendrix's "Spanish Castle Magic." Fans will want the album simply for the early version of Johnson's hit instrumental "Cliffs of Dover," which is in the Joe Satriani/Steve Vai school of electric guitar workouts.

by William Ruhlmann, allmusic.com
Eric Johnson - Live From Austin TX '84 (2010)


*********


Eric Johnson - Live From Austin TX '84 (2010)

Tracklist:

01. Soulful Terrain (Eric Johnson) 4:20
02. Friends (Eric Johnson) 5:23
03. All I Need (Eric Johnson) 4:07
04. Song for Life (Eric Johnson) 2:37
05. April Come She Will (Paul Simon) 2:29
06. Tribute to Jerry Reed (Eric Johnson) 1:36
07. I'm Finding You (Eric Johnson) 4:10
08. Cliffs of Dover (Eric Johnson) 4:53
09. Down Here on the Ground (Gale Garnett / Lalo Schifrin) 3:52
10. Bristol Shores (Eric Johnson) 6:16
11. Spanish Castle Magic (Jimi Hendrix) 4:54

Converted to image CUETools

Exact Audio Copy V1.0 beta 3 from 29. August 2011

EAC extraction logfile from 6. June 2012, 21:21

Eric Johnson / Live From Austin TX '84

Used drive : ATAPI iHBS212 2 Adapter: 2 ID: 0

Read mode : Secure
Utilize accurate stream : Yes
Defeat audio cache : Yes
Make use of C2 pointers : No

Read offset correction : 6
Overread into Lead-In and Lead-Out : No
Fill up missing offset samples with silence : Yes
Delete leading and trailing silent blocks : No
Null samples used in CRC calculations : Yes
Used interface : Native Win32 interface for Win NT & 2000
Gap handling : Appended to previous track

Used output format : User Defined Encoder
Selected bitrate : 896 kBit/s
Quality : High
Add ID3 tag : No
Command line compressor : C:\Program Files (x86)\Exact Audio Copy\FLAC\FLAC.EXE
Additional command line options : -8 -V -T "ARTIST=%artist%" -T "TITLE=%title%" -T "ALBUM=%albumtitle%" -T "DATE=%year%" -T "TRACKNUMBER=%tracknr%" -T "TOTALTRACKS=%numtracks%" -T "GENRE=%genre%" -T "ALBUMARTIST=%albumartist%" -T "ALBUM ARTIST=%albumartist%" -T "COMMENT=EAC Secure Mode, Test & Copy, AccurateRip, FLAC -8" %source%


TOC of the extracted CD

Track | Start | Length | Start sector | End sector
––––––––––––––––––––––––––––-
1 | 0:00.00 | 4:20.03 | 0 | 19502
2 | 4:20.03 | 5:23.62 | 19503 | 43789
3 | 9:43.65 | 4:07.56 | 43790 | 62370
4 | 13:51.46 | 2:37.26 | 62371 | 74171
5 | 16:28.72 | 2:29.42 | 74172 | 85388
6 | 18:58.39 | 1:36.38 | 85389 | 92626
7 | 20:35.02 | 4:10.45 | 92627 | 111421
8 | 24:45.47 | 4:53.26 | 111422 | 133422
9 | 29:38.73 | 3:52.46 | 133423 | 150868
10 | 33:31.44 | 6:16.26 | 150869 | 179094
11 | 39:47.70 | 4:54.46 | 179095 | 201190


Track 1

Filename F:\Eric Johnson - Live from Austin TX (1984) [FLAC] {CD + DVD}\01 - Soulful Terrain.wav

Pre-gap length 0:00:02.00

Peak level 96.5 %
Extraction speed 2.2 X
Track quality 100.0 %
Test CRC FA718D43
Copy CRC FA718D43
Accurately ripped (confidence 3) [D199E750] (AR v2)
Copy OK

Track 2

Filename F:\Eric Johnson - Live from Austin TX (1984) [FLAC] {CD + DVD}\02 - Friends.wav

Peak level 96.5 %
Extraction speed 2.5 X
Track quality 100.0 %
Test CRC 6D4BCAF1
Copy CRC 6D4BCAF1
Accurately ripped (confidence 3) [FF6A23BE] (AR v2)
Copy OK

Track 3

Filename F:\Eric Johnson - Live from Austin TX (1984) [FLAC] {CD + DVD}\03 - All I Need.wav

Peak level 96.5 %
Extraction speed 2.7 X
Track quality 100.0 %
Test CRC 9A7D551C
Copy CRC 9A7D551C
Accurately ripped (confidence 3) [3C04B02C] (AR v2)
Copy OK

Track 4

Filename F:\Eric Johnson - Live from Austin TX (1984) [FLAC] {CD + DVD}\04 - Song For Life.wav

Peak level 96.4 %
Extraction speed 1.7 X
Track quality 99.9 %
Test CRC 334AB724
Copy CRC 334AB724
Accurately ripped (confidence 3) [A853DB7D] (AR v2)
Copy OK

Track 5

Filename F:\Eric Johnson - Live from Austin TX (1984) [FLAC] {CD + DVD}\05 - April Come She Will.wav

Peak level 90.8 %
Extraction speed 2.7 X
Track quality 100.0 %
Test CRC EBADA8F8
Copy CRC EBADA8F8
Accurately ripped (confidence 3) [AF2FCC0B] (AR v2)
Copy OK

Track 6

Filename F:\Eric Johnson - Live from Austin TX (1984) [FLAC] {CD + DVD}\06 - Tribute To Jerry Reed.wav

Peak level 96.5 %
Extraction speed 2.5 X
Track quality 100.0 %
Test CRC E20DEA09
Copy CRC E20DEA09
Accurately ripped (confidence 3) [FFF7C4CC] (AR v2)
Copy OK

Track 7

Filename F:\Eric Johnson - Live from Austin TX (1984) [FLAC] {CD + DVD}\07 - I'm Finding You.wav

Peak level 96.5 %
Extraction speed 3.1 X
Track quality 100.0 %
Test CRC F54E7BAE
Copy CRC F54E7BAE
Accurately ripped (confidence 3) [D27D2370] (AR v2)
Copy OK

Track 8

Filename F:\Eric Johnson - Live from Austin TX (1984) [FLAC] {CD + DVD}\08 - Cliffs Of Dover.wav

Peak level 96.5 %
Extraction speed 3.3 X
Track quality 100.0 %
Test CRC 58A62105
Copy CRC 58A62105
Accurately ripped (confidence 3) [6AEDF84E] (AR v2)
Copy OK

Track 9

Filename F:\Eric Johnson - Live from Austin TX (1984) [FLAC] {CD + DVD}\09 - Down Here On The Ground.wav

Peak level 96.4 %
Extraction speed 3.4 X
Track quality 100.0 %
Test CRC 5B957D12
Copy CRC 5B957D12
Accurately ripped (confidence 3) [997A3C3F] (AR v2)
Copy OK

Track 10

Filename F:\Eric Johnson - Live from Austin TX (1984) [FLAC] {CD + DVD}\10 - Bristol Shores.wav

Peak level 96.5 %
Extraction speed 3.8 X
Track quality 100.0 %
Test CRC 393D3011
Copy CRC 393D3011
Accurately ripped (confidence 3) [FC048222] (AR v2)
Copy OK

Track 11

Filename F:\Eric Johnson - Live from Austin TX (1984) [FLAC] {CD + DVD}\11 - Spanish Castle Magic.wav

Peak level 96.5 %
Extraction speed 3.8 X
Track quality 100.0 %
Test CRC 5CC23BD7
Copy CRC 5CC23BD7
Accurately ripped (confidence 3) [3F76B91E] (AR v2)
Copy OK


All tracks accurately ripped

No errors occurred

End of status report

–– CUETools DB Plugin V2.1.3

[CTDB TOCID: snhxbplYxfGGGyktVyLdxo6yc8A-] found, Submit result: snhxbplYxfGGGyktVyLdxo6yc8A- has been confirmed
[e86a36fd] (1/1) Accurately ripped


==== Log checksum 8C158E45727ED2E45EF1F9FD95BD2FD1E315B9621480385AF25B6A8B28682217 ====

foobar2000 1.2.9 / Dynamic Range Meter 1.1.1
log date: 2016-11-26 15:30:02

––––––––––––––––––––––––––––––––––––––––
Analyzed: Eric Johnson / Live From Austin TX '84
––––––––––––––––––––––––––––––––––––––––

DR Peak RMS Duration Track
––––––––––––––––––––––––––––––––––––––––
DR8 -0.31 dB -10.03 dB 4:20 01-Soulful Terrain
DR8 -0.31 dB -9.61 dB 5:24 02-Friends
DR8 -0.31 dB -9.58 dB 4:08 03-All I Need
DR15 -0.31 dB -18.39 dB 2:37 04-Song For Life
DR12 -0.84 dB -15.92 dB 2:30 05-April Come She Will
DR16 -0.31 dB -17.44 dB 1:37 06-Tribute To Jerry Reed
DR11 -0.31 dB -14.33 dB 4:11 07-I'm Finding You
DR8 -0.31 dB -9.28 dB 4:53 08-Cliffs Of Dover
DR12 -0.31 dB -15.35 dB 3:53 09-Down Here On The Ground
DR8 -0.31 dB -10.22 dB 6:16 10-Bristol Shores
DR8 -0.31 dB -9.28 dB 4:55 11-Spanish Castle Magic
––––––––––––––––––––––––––––––––––––––––

Number of tracks: 11
Official DR value: DR10

Samplerate: 44100 Hz
Channels: 2
Bits per sample: 16
Bitrate: 825 kbps
Codec: FLAC

[CUETools log; Date: 26.11.2016 15:29:53; Version: 2.1.4]
[CTDB TOCID: snhxbplYxfGGGyktVyLdxo6yc8A-] found.
Track | CTDB Status
1 | (13/13) Accurately ripped
2 | (13/13) Accurately ripped
3 | (13/13) Accurately ripped
4 | (13/13) Accurately ripped
5 | (13/13) Accurately ripped
6 | (13/13) Accurately ripped
7 | (13/13) Accurately ripped
8 | (13/13) Accurately ripped
9 | (13/13) Accurately ripped
10 | (13/13) Accurately ripped
11 | (13/13) Accurately ripped
[AccurateRip ID: 00119b3c-00979f0e-910a7a0b] found.
Track [ CRC | V2 ] Status
01 [601735c4|d199e750] (02+12/14) Accurately ripped
02 [7f4e0375|ff6a23be] (02+12/14) Accurately ripped
03 [0116a02f|3c04b02c] (02+12/14) Accurately ripped
04 [4f74c42b|a853db7d] (02+12/14) Accurately ripped
05 [06b97243|af2fcc0b] (02+12/14) Accurately ripped
06 [e132054a|fff7c4cc] (02+12/14) Accurately ripped
07 [c1d3381e|d27d2370] (02+12/14) Accurately ripped
08 [d93d8174|6aedf84e] (02+12/14) Accurately ripped
09 [bd2210c2|997a3c3f] (02+12/14) Accurately ripped
10 [ac751680|fc048222] (02+12/14) Accurately ripped
11 [d1213f4e|3f76b91e] (02+12/14) Accurately ripped

Track Peak [ CRC32 ] [W/O NULL] [ LOG ]
– 96,5 [400ECA83] [ECFBC060]
01 96,5 [FA718D43] [1BBBC9D5] CRC32
02 96,5 [6D4BCAF1] [80FC0480] CRC32
03 96,5 [9A7D551C] [ED81E599] CRC32
04 96,4 [334AB724] [FF3B7788] CRC32
05 90,8 [EBADA8F8] [B5961259] CRC32
06 96,5 [E20DEA09] [FC368491] CRC32
07 96,5 [F54E7BAE] [0F9D7568] CRC32
08 96,5 [58A62105] [7A9CAE0C] CRC32
09 96,4 [5B957D12] [2128B146] CRC32
10 96,5 [393D3011] [9DCD74C2] CRC32
11 96,5 [5CC23BD7] [9D0ACF2C] CRC32

Eric Johnson - Live From Austin TX '84 (2010)

All thanks go to original releaser …