Subcategories
Tags
Language
Tags

Eric Sardinas - Black Pearls (2003) {Japan 1st Press}

Posted By: popsakov
Eric Sardinas - Black Pearls (2003) {Japan 1st Press}

Eric Sardinas - Black Pearls (2003) {Japan 1st Press}
EAC Rip | FLAC (Img) + Cue + Log ~ 416 Mb | MP3 CBR320 ~ 149 Mb
Full Scans | 00:52:35 | RAR 5% Recovery
Favored Nations / Victor Entertainment, Inc. #VICP-62371
Blues Rock / Hard Rock / Modern Electric Blues

Eric Sardinas is an American blues-rock slide guitarist born in Fort Lauderdale, Florida. He is noted for his use of the electric resonator guitar and his live performances. He sometimes sets his guitar alight on stage and during shows. In 2000 in Sydney, Sardinas suffered third degree burns to his left wrist. Sardinas began to play the guitar at age six and leaned toward vintage recordings by such Delta bluesmen as Charlie Patton, Bukka White, Big Bill Broonzy, Elmore James, and Muddy Waters. Although he was left-handed, he eventually started to play right-handed. In 2002, he featured on the Bo Diddley tribute album Hey Bo Diddley - A Tribute!, performing the song "Ride On Josephine". He signed to Steve Vai's Favored Nations record label and was the opening act for Vai's The Real Illusions Tour 2005 around the world. In 2008, Sardinas released Eric Sardinas and Big Motor on Steve Vai's Favored Nations record label in the U.S.

***************

Eric Sardinas - Black Pearls (2003) {Japan 1st Press}

Track List:

01. Flames of Love [03:43]
02. Same Ol' Way [03:49]
03. Bittersweet [04:04]
04. Ain't No Crime [04:22]
05. Big Red Line [02:47]
06. Liar's Dice Blues [06:29]
07. Black Pearls [03:56]
08. Sorrow's Kitchen [04:23]
09. Four Roses [03:23]
10. Old Smyrm Road [04:03]
11. Tenfold Trouble [03:53]
12. Wicked Ways [02:38]
13. Green Tea [04:21]
14. Hidden tracks: No Title (bounus track) [00:50]

Personnel:
Eric Sardinas - guitar, vocals
Paul Loranger - bass
Mike Dupke - drums

Exact Audio Copy V0.99 prebeta 5 from 4. May 2009

Отчёт EAC об извлечении, выполненном 25. декабря 2009, 10:35

Eric Sardinas / Black Pearls (Japan)

Дисковод: PIONEER DVD-RW DVRKD08 Adapter: 1 ID: 0

Режим чтения : Достоверность
Использование точного потока : Да
Отключение кэша аудио : Да
Использование указателей C2 : Нет

Коррекция смещения при чтении : 48
Способность читать области Lead-in и Lead-out : Нет
Заполнение пропущенных сэмплов тишиной : Да
Удаление блоков с тишиной в начале и конце : Нет
При вычислениях CRC использовались нулевые сэмплы : Да
Интерфейс : Встроенный Win32-интерфейс для Win NT/2000

Выходной формат : Пользовательский кодировщик
Выбранный битрейт : 1024 kBit/s
Качество : Высокий
Добавление ID3-тэга : Нет
Утилита сжатия : C:\Program Files\Exact Audio Copy\FLAC\FLAC.EXE
Дополнительные параметры : -6 -V -T "ARTIST=%a" -T "TITLE=%t" -T "ALBUM=%g" -T "DATE=%y" -T "TRACKNUMBER=%n" -T "GENRE=%m" -T "COMMENT=%e" %s -o %d


TOC извлечённого CD

Трек | Старт | Длительность | Начальный сектор | Конечный сектор
––––––––––––––––––––––––––––––––––-
1 | 0:00.00 | 3:42.60 | 0 | 16709
2 | 3:42.60 | 3:48.07 | 16710 | 33816
3 | 7:30.67 | 4:03.05 | 33817 | 52046
4 | 11:33.72 | 4:21.23 | 52047 | 71644
5 | 15:55.20 | 2:46.52 | 71645 | 84146
6 | 18:41.72 | 6:29.00 | 84147 | 113321
7 | 25:10.72 | 3:55.25 | 113322 | 130971
8 | 29:06.22 | 4:22.30 | 130972 | 150651
9 | 33:28.52 | 3:22.40 | 150652 | 165841
10 | 36:51.17 | 4:02.65 | 165842 | 184056
11 | 40:54.07 | 3:52.20 | 184057 | 201476
12 | 44:46.27 | 2:38.00 | 201477 | 213326
13 | 47:24.27 | 4:20.25 | 213327 | 232851
14 | 51:44.52 | 0:49.25 | 232852 | 236551
15 | 55:06.02 | 2:28.74 | 247952 | 259125


Характеристики диапазона извлечения и сообщения об ошибках

Выбранный диапазон

Имя файла F:\Даде Саше\Eric Sardinas - 2003 - Black Pearls (Japan)\Eric Sardinas - Black Pearls (Japan).wav

Пиковый уровень 98.8 %
Качество диапазона 100.0 %
CRC копии 0EA8FFF1
Копирование… OK

Ошибок не произошло


AccurateRip: сводка

Трек 1 нет в базе данных
Трек 2 нет в базе данных
Трек 3 нет в базе данных
Трек 4 нет в базе данных
Трек 5 нет в базе данных
Трек 6 нет в базе данных
Трек 7 нет в базе данных
Трек 8 нет в базе данных
Трек 9 нет в базе данных
Трек 10 нет в базе данных
Трек 11 нет в базе данных
Трек 12 нет в базе данных
Трек 13 нет в базе данных
Трек 14 нет в базе данных

Ни одного трека нет в базе AccurateRip

Конец отчёта

Eric Sardinas - Black Pearls (2003) {Japan 1st Press}


All thanks go to the original ripper(s) …

>>> My Blog <<<

DOWNLOAD: