Eric Johnson - Europe Live (2014)

Posted By: uff
Eric Johnson - Europe Live (2014)

Eric Johnson - Europe Live (2014)
Rock | 1cd | EAC Rip | Flac + Cue + Log | covers
Provogue, PRD 74402 | rel: 2014 | 540Mb

Eric Johnson's unique and at times breathtaking mix of Jimi Hendrix, Albert King, a dash of pop, and plenty of jazz has made him one of the most respected guitar players on the planet. This live set, essentially a career retrospective, was drawn from shows Johnson did in Amsterdam, Koln, and Paris in 2013, and not only will it please his many fans, it also serves as a fine introduction to this stunning musician. ~Allmusic

Track listing
01. Intro (1:54)
02. Zenland (4:22)
03. Austin (4:07)
04. Forty Mile Town (4:58)
05. Mr. P.C. (9:38)
06. Manhattan (4:50)
07. Zap (6:12)
08. Song for Life (3:01)
09. Fatdaddy (2:45)
10. Last House on the Block (11:32)
11. Interlude (2:00)
12. Cliffs of Dover (5:39)
13. Evinrude Fever (3:47)
14. Sun Reprise (5:49)


Exact Audio Copy V1.0 beta 3 from 29. August 2011

EAC extraction logfile from 17. July 2014, 4:25

Eric Johnson / Europe Live

Used drive : HL-DT-STDVDRAM GH24NS50 Adapter: 2 ID: 1

Read mode : Secure
Utilize accurate stream : Yes
Defeat audio cache : Yes
Make use of C2 pointers : No

Read offset correction : 667
Overread into Lead-In and Lead-Out : No
Fill up missing offset samples with silence : Yes
Delete leading and trailing silent blocks : No
Null samples used in CRC calculations : Yes
Used interface : Native Win32 interface for Win NT & 2000
Gap handling : Appended to previous track

Used output format : User Defined Encoder
Selected bitrate : 1024 kBit/s
Quality : High
Add ID3 tag : No
Command line compressor : D:\Program Files\FLAC\flac.exe
Additional command line options : -8 -V -T "ARTIST=%artist%" -T "TITLE=%title%" -T "ALBUM=%albumtitle%" -T "DATE=%year%" -T "TRACKNUMBER=%tracknr%" -T "TOTALTRACKS=%numtracks%" -T "GENRE=%genre%" -T "ALBUMARTIST=%albumartist%" -T "ALBUM ARTIST=%albumartist%" -T "COMMENT=EAC Secure Mode, Test & Copy, AccurateRip, FLAC -8" %source%


TOC of the extracted CD

Track | Start | Length | Start sector | End sector
––––––––––––––––––––––––––––-
1 | 0:00.00 | 1:54.23 | 0 | 8572
2 | 1:54.23 | 4:22.40 | 8573 | 28262
3 | 6:16.63 | 4:07.05 | 28263 | 46792
4 | 10:23.68 | 4:58.23 | 46793 | 69165
5 | 15:22.16 | 9:38.58 | 69166 | 112573
6 | 25:00.74 | 4:50.26 | 112574 | 134349
7 | 29:51.25 | 6:12.26 | 134350 | 162275
8 | 36:03.51 | 3:01.37 | 162276 | 175887
9 | 39:05.13 | 2:45.62 | 175888 | 188324
10 | 41:51.00 | 11:32.60 | 188325 | 240284
11 | 53:23.60 | 2:00.52 | 240285 | 249336
12 | 55:24.37 | 5:39.72 | 249337 | 274833
13 | 61:04.34 | 3:47.25 | 274834 | 291883
14 | 64:51.59 | 5:49.26 | 291884 | 318084


Track 1

Filename D:\Eric Johnson - Europe Live (2014) [FLAC]\01 - Intro.wav

Pre-gap length 0:00:02.00

Peak level 96.1 %
Extraction speed 0.9 X
Track quality 100.0 %
Test CRC EA6FE9E7
Copy CRC EA6FE9E7
Accurately ripped (confidence 1) [AA2153FB] (AR v2)
Copy OK

Track 2

Filename D:\Eric Johnson - Europe Live (2014) [FLAC]\02 - Zenland.wav

Peak level 97.3 %
Extraction speed 1.1 X
Track quality 100.0 %
Test CRC 7370CEEC
Copy CRC 7370CEEC
Accurately ripped (confidence 1) [B096F0BC] (AR v2)
Copy OK

Track 3

Filename D:\Eric Johnson - Europe Live (2014) [FLAC]\03 - Austin.wav

Peak level 96.7 %
Extraction speed 1.2 X
Track quality 100.0 %
Test CRC CCD5A113
Copy CRC CCD5A113
Accurately ripped (confidence 1) [C40C625D] (AR v2)
Copy OK

Track 4

Filename D:\Eric Johnson - Europe Live (2014) [FLAC]\04 - Forty Mile Town.wav

Peak level 91.0 %
Extraction speed 1.4 X
Track quality 100.0 %
Test CRC 77143049
Copy CRC 77143049
Accurately ripped (confidence 1) [60016494] (AR v2)
Copy OK

Track 5

Filename D:\Eric Johnson - Europe Live (2014) [FLAC]\05 - Mr. P.C..wav

Peak level 100.0 %
Extraction speed 1.6 X
Track quality 100.0 %
Test CRC 461E99CA
Copy CRC 461E99CA
Accurately ripped (confidence 1) [E1EBB293] (AR v2)
Copy OK

Track 6

Filename D:\Eric Johnson - Europe Live (2014) [FLAC]\06 - Manhattan.wav

Peak level 100.0 %
Extraction speed 1.6 X
Track quality 100.0 %
Test CRC A77A13EC
Copy CRC A77A13EC
Accurately ripped (confidence 1) [8064EFB7] (AR v2)
Copy OK

Track 7

Filename D:\Eric Johnson - Europe Live (2014) [FLAC]\07 - Zap.wav

Peak level 96.6 %
Extraction speed 1.8 X
Track quality 100.0 %
Test CRC E44F82D7
Copy CRC E44F82D7
Accurately ripped (confidence 1) [3FB7F77A] (AR v2)
Copy OK

Track 8

Filename D:\Eric Johnson - Europe Live (2014) [FLAC]\08 - Song for Life.wav

Peak level 96.3 %
Extraction speed 1.7 X
Track quality 100.0 %
Test CRC DDAC6063
Copy CRC DDAC6063
Accurately ripped (confidence 1) [472B1A65] (AR v2)
Copy OK

Track 9

Filename D:\Eric Johnson - Europe Live (2014) [FLAC]\09 - Fatdaddy.wav

Peak level 97.9 %
Extraction speed 1.7 X
Track quality 100.0 %
Test CRC 91859A3B
Copy CRC 91859A3B
Accurately ripped (confidence 1) [2E694A0E] (AR v2)
Copy OK

Track 10

Filename D:\Eric Johnson - Europe Live (2014) [FLAC]\10 - Last House on the Block.wav

Peak level 96.6 %
Extraction speed 2.1 X
Track quality 100.0 %
Test CRC C0F7AF73
Copy CRC C0F7AF73
Accurately ripped (confidence 1) [8582A848] (AR v2)
Copy OK

Track 11

Filename D:\Eric Johnson - Europe Live (2014) [FLAC]\11 - Interlude.wav

Peak level 86.8 %
Extraction speed 1.7 X
Track quality 100.0 %
Test CRC B87114BF
Copy CRC B87114BF
Accurately ripped (confidence 1) [79377B20] (AR v2)
Copy OK

Track 12

Filename D:\Eric Johnson - Europe Live (2014) [FLAC]\12 - Cliffs of Dover.wav

Peak level 88.7 %
Extraction speed 2.0 X
Track quality 99.9 %
Test CRC 44FBE4D1
Copy CRC 44FBE4D1
Accurately ripped (confidence 1) [80C5D2B9] (AR v2)
Copy OK

Track 13

Filename D:\Eric Johnson - Europe Live (2014) [FLAC]\13 - Evinrude Fever.wav

Peak level 100.0 %
Extraction speed 2.1 X
Track quality 100.0 %
Test CRC FF038B31
Copy CRC FF038B31
Accurately ripped (confidence 1) [E9C6E9F3] (AR v2)
Copy OK

Track 14

Filename D:\Eric Johnson - Europe Live (2014) [FLAC]\14 - Sun Reprise.wav

Peak level 97.3 %
Extraction speed 2.4 X
Track quality 100.0 %
Test CRC F748BFE3
Copy CRC F748BFE3
Accurately ripped (confidence 1) [D1295C0F] (AR v2)
Copy OK


All tracks accurately ripped

No errors occurred

End of status report

–– CUETools DB Plugin V2.1.3

[CTDB TOCID: 0TT0L98h4Cj2hbgUuUBHZqJ0ezY-] found, Submit result: 0TT0L98h4Cj2hbgUuUBHZqJ0ezY- has been confirmed
[af5ef880] (1/1) Accurately ripped


==== Log checksum 39A09DC071F4AE3983FDA911E507861C3C72381442F54A60CAC59CA73F4D4FDE ====



[CUETools log; Date: 2016. 12. 11. 11:18:31; Version: 2.1.6]
[CTDB TOCID: 0TT0L98h4Cj2hbgUuUBHZqJ0ezY-] found.
Track | CTDB Status
1 | (32/33) Accurately ripped
2 | (32/33) Accurately ripped
3 | (32/33) Accurately ripped
4 | (32/33) Accurately ripped
5 | (32/33) Accurately ripped
6 | (32/33) Accurately ripped
7 | (32/33) Accurately ripped
8 | (32/33) Accurately ripped
9 | (32/33) Accurately ripped
10 | (32/33) Accurately ripped
11 | (32/33) Accurately ripped
12 | (32/33) Accurately ripped
13 | (32/33) Accurately ripped
14 | (32/33) Accurately ripped
[AccurateRip ID: 00231ad9-017eb47a-c110910e] found.
Track [ CRC | V2 ] Status
01 [af46f633|aa2153fb] (00+22/22) Accurately ripped
02 [d0312469|b096f0bc] (00+23/23) Accurately ripped
03 [a7f5c745|c40c625d] (00+22/22) Accurately ripped
04 [b955c2a3|60016494] (00+23/23) Accurately ripped
05 [30cd35b0|e1ebb293] (00+22/22) Accurately ripped
06 [49657216|8064efb7] (00+23/23) Accurately ripped
07 [8b9b9673|3fb7f77a] (00+23/23) Accurately ripped
08 [25b8f3c8|472b1a65] (00+23/23) Accurately ripped
09 [0b87e44e|2e694a0e] (00+23/23) Accurately ripped
10 [1e4a971f|8582a848] (00+23/23) Accurately ripped
11 [3a50275f|79377b20] (00+23/23) Accurately ripped
12 [65bbc31c|80c5d2b9] (00+23/23) Accurately ripped
13 [fd33ca0e|e9c6e9f3] (00+23/23) Accurately ripped
14 [4e1cec61|d1295c0f] (00+23/23) Accurately ripped

Track Peak [ CRC32 ] [W/O NULL] [ LOG ]
– 100,0 [6F63DF0B] [07105DB9]
01 96,1 [EA6FE9E7] [A07D7277] CRC32
02 97,3 [7370CEEC] [06713642] CRC32
03 96,7 [CCD5A113] [DD62C240] CRC32
04 91,0 [77143049] [1A7F91B4] CRC32
05 100,0 [461E99CA] [724EB9BF] CRC32
06 100,0 [A77A13EC] [766E477C] CRC32
07 96,6 [E44F82D7] [56BD51AA] CRC32
08 96,3 [DDAC6063] [0A29B830] CRC32
09 97,9 [91859A3B] [35C0BD92] CRC32
10 96,6 [C0F7AF73] [9DEEA77B] CRC32
11 86,8 [B87114BF] [38481718] CRC32
12 88,7 [44FBE4D1] [6625AF03] CRC32
13 100,0 [FF038B31] [AFB5DCC7] CRC32
14 97,3 [F748BFE3] [17B2A164] CRC32


original uploader unknown
Bigfile
Filefactory

password: asd